osu file format v14

[General]
AudioFilename: audio.mp3
AudioLeadIn: 0
PreviewTime: 54342
Countdown: 1
SampleSet: Soft
StackLeniency: 0.4
Mode: 0
LetterboxInBreaks: 0
WidescreenStoryboard: 0

[Editor]
Bookmarks: 8405,24405,42405,54405,74280,82405,90155,106405,118405
DistanceSpacing: 0.7
BeatDivisor: 4
GridSize: 32
TimelineZoom: 2.1

[Metadata]
Title:ACCIDENT
TitleUnicode:ACCIDENT
Artist:MY FIRST STORY
ArtistUnicode:MY FIRST STORY
Creator:Heanday
Version:Ha-N
Source:
Tags:
BeatmapID:2199372
BeatmapSetID:1052420

[Difficulty]
HPDrainRate:5.5
CircleSize:4
OverallDifficulty:8
ApproachRate:9.6
SliderMultiplier:1.8
SliderTickRate:1

[Events]
//Background and Video events
0,0,"1234.jpg",0,0
//Break Periods
//Storyboard Layer 0 (Background)
//Storyboard Layer 1 (Fail)
//Storyboard Layer 2 (Pass)
//Storyboard Layer 3 (Foreground)
//Storyboard Layer 4 (Overlay)
//Storyboard Sound Samples

[TimingPoints]
655,250,4,2,1,60,1,0
655,-181.818181818182,4,2,1,20,0,0
5405,-153.846153846154,4,2,1,30,0,0
8405,-111.111111111111,4,2,1,40,0,0
24405,-125,4,2,1,40,0,0
42405,-111.111111111111,4,2,1,40,0,0
50655,-200,4,2,1,40,0,0
51155,-500,4,2,1,40,0,0
52655,-111.111111111111,4,2,1,40,0,0
54405,-100,4,2,1,60,0,1
81905,-111.111111111111,4,2,1,40,0,0

[Colours]
Combo1 : 232,208,77
Combo2 : 215,215,215
Combo3 : 143,230,119
Combo4 : 128,128,128
Combo5 : 209,92,58
Combo6 : 255,255,255

[HitObjects]
101,213,4405,6,0,B|158:203|158:203|192:219|192:219|252:209,1,148.50000453186,2|0,1:2|3:0,0:0:0:0:
468,217,4905,2,0,P|394:206|356:140,1,148.50000453186,2|0,1:2|3:0,0:0:0:0:
239,17,5405,5,2,1:2:0:0:
112,125,5530,2,0,L|179:117,1,58.4999973220826,2|0,3:2|0:0,0:0:0:0:
368,97,5780,2,0,L|382:22,1,58.4999973220826,2|0,3:2|3:0,0:0:0:0:
201,196,6030,1,2,3:2:0:0:
486,328,6155,2,0,L|424:315,2,58.4999973220826,2|2|0,1:2|3:2|3:0,0:0:0:0:
281,248,6530,5,2,3:2:0:0:
472,100,6655,2,0,L|460:167,1,58.4999973220826,2|0,1:2|0:0,0:0:0:0:
333,345,6905,2,0,P|255:350|185:286,1,175.499991966248,2|0,1:2|3:2,0:0:0:0:
113,206,7405,1,2,1:2:0:0:
17,307,7530,2,0,L|83:298,1,58.4999973220826,0|4,0:0|3:0,0:0:0:0:
242,310,7780,5,8,1:0:0:0:
287,171,7905,2,0,L|304:95,1,58.4999973220826,8|0,1:0|0:0,0:0:0:0:
207,97,8155,1,8,1:0:0:0:
343,251,8280,1,8,1:0:0:0:
207,97,8405,38,0,B|119:95|156:147|47:140,1,161.999995056153,6|2,1:2|1:2,0:0:0:0:
77,49,8780,1,2,0:0:0:0:
204,192,8905,2,0,P|224:233|237:270,1,80.9999975280763,14|0,1:2|0:0,0:0:0:0:
333,114,9155,2,0,P|313:155|300:192,1,80.9999975280763,2|0,1:2|0:0,0:0:0:0:
133,332,9405,5,10,1:2:0:0:
316,274,9530,2,0,P|275:270|235:265,1,80.9999975280763,8|2,1:0|1:2,0:0:0:0:
141,185,9780,1,2,0:1:0:0:
23,284,9905,2,0,L|40:374,1,80.9999975280763,8|2,1:0|0:1,0:0:0:0:
235,265,10155,1,2,1:2:0:0:
400,318,10280,5,2,3:2:0:0:
400,318,10342,1,2,3:2:0:0:
399,318,10405,2,0,P|363:336|323:344,1,80.9999975280763,2|0,1:2|0:0,0:0:0:0:
144,384,10655,2,0,L|128:286,1,80.9999975280763,10|0,1:2|0:0,0:0:0:0:
308,180,10905,2,0,L|472:151,1,161.999995056153,8|0,1:0|1:0,0:0:0:0:
351,83,11280,1,0,0:0:0:0:
242,48,11405,6,0,L|230:143,1,80.9999975280763,8|8,1:2|1:0,0:0:0:0:
108,346,11655,2,0,L|195:340,1,80.9999975280763,2|0,0:2|3:0,0:0:0:0:
346,189,11905,2,0,B|268:195|296:255|185:244,1,161.999995056153,8|8,1:2|1:3,0:0:0:0:
98,123,12280,1,8,1:3:0:0:
17,226,12405,6,0,P|61:184|168:189,1,156.599995220947,12|2,1:0|0:0,0:0:0:0:
328,291,12780,1,0,0:0:0:0:
222,369,12905,2,0,P|215:330|211:288,1,80.9999975280763,8|0,1:1|3:0,0:0:0:0:
152,180,13155,2,0,P|193:175|236:169,1,80.9999975280763,2|0,0:2|3:0,0:0:0:0:
382,96,13405,1,8,1:0:0:0:
465,149,13530,86,0,L|304:132,1,156.599995220947,8|0,1:2|3:0,0:0:0:0:
169,51,13905,2,0,L|91:17,1,80.9999975280763,10|0,1:2|0:0,0:0:0:0:
65,279,14155,2,0,L|98:194,1,80.9999975280763,2|0,1:2|3:0,0:0:0:0:
116,178,14342,6,0,L|130:219,1,40.4999987640381,0|0,1:0|1:0,0:0:0:0:
37,115,14530,1,2,0:2:0:0:
238,32,14655,2,0,L|212:118,1,80.9999975280763,2|0,1:2|0:0,0:0:0:0:
202,351,14905,2,0,P|236:306|338:298,1,161.999995056153,8|2,1:2|1:2,0:0:0:0:
438,351,15280,1,0,0:0:0:0:
266,246,15405,5,8,1:0:0:0:
388,147,15530,2,0,L|377:244,1,80.9999975280763,8|0,1:0|0:0,0:0:0:0:
291,374,15780,1,0,0:0:0:0:
70,299,15905,2,0,L|60:218,1,80.9999975280763,8|0,1:0|0:0,0:0:0:0:
118,118,16155,1,12,0:2:0:0:
9,268,16280,1,8,0:0:0:0:
118,118,16405,6,0,B|199:127|166:174|262:187,1,161.999995056153,6|0,3:1|1:2,0:0:0:0:
422,279,16780,1,0,0:0:0:0:
392,362,16905,2,0,L|377:177,1,161.999995056153,12|2,1:2|1:2,0:0:0:0:
246,93,17280,1,2,0:0:0:0:
378,200,17405,5,8,1:0:0:0:
115,316,17530,2,0,L|35:323,1,80.9999975280763,10|0,1:2|0:0,0:0:0:0:
254,268,17780,1,0,0:0:0:0:
158,147,17905,2,0,L|141:237,1,80.9999975280763,8|0,1:0|0:0,0:0:0:0:
254,165,18155,1,0,1:0:0:0:
73,85,18280,6,0,L|29:77,2,40.4999987640381,0|0|0,1:0|1:0|1:0,0:0:0:0:
95,224,18530,1,2,0:0:0:0:
315,89,18655,2,0,P|275:79|234:75,1,80.9999975280763,6|0,1:2|0:0,0:0:0:0:
3,234,18905,2,0,P|82:231|145:293,1,161.999995056153,10|0,1:2|1:0,0:0:0:0:
348,296,19280,1,0,0:0:0:0:
183,245,19405,5,8,1:0:0:0:
371,165,19530,2,0,L|455:154,1,80.9999975280763,10|0,0:2|0:0,0:0:0:0:
458,260,19780,1,0,0:0:0:0:
361,376,19905,2,0,L|346:283,1,80.9999975280763,8|0,1:0|0:0,0:0:0:0:
233,73,20155,2,0,L|248:161,1,80.9999975280763,4|0,1:3|0:0,0:0:0:0:
192,335,20405,38,0,P|117:330|57:262,1,161.999995056153,6|0,1:2|3:0,0:0:0:0:
155,228,20780,1,0,0:0:0:0:
344,263,20905,2,0,P|385:243|422:230,1,80.9999975280763,14|0,1:2|0:0,0:0:0:0:
266,134,21155,2,0,P|307:154|344:167,1,80.9999975280763,2|0,1:2|0:0,0:0:0:0:
484,334,21405,5,10,1:2:0:0:
426,151,21530,2,0,L|417:232,1,80.9999975280763,8|2,1:0|1:2,0:0:0:0:
148,379,21780,1,0,0:0:0:0:
255,322,21905,2,0,L|265:231,1,80.9999975280763,8|0,1:0|0:0,0:0:0:0:
218,130,22155,5,2,3:2:0:0:
218,130,22217,1,2,3:2:0:0:
218,130,22280,2,0,B|176:117|176:117|132:119,1,80.9999975280763,2|0,1:2|1:0,0:0:0:0:
81,349,22530,1,8,0:0:0:0:
143,245,22655,2,0,B|62:254|95:301|-1:314,2,161.999995056153,2|10|2,1:2|1:2|1:0,0:0:0:0:
307,277,23280,1,2,0:0:0:0:
401,254,23405,5,8,1:0:0:0:
389,353,23530,1,8,1:0:0:0:
291,378,23655,1,8,1:0:0:0:
303,215,23780,1,8,1:0:0:0:
401,254,23905,1,8,1:0:0:0:
227,292,24030,1,8,1:0:0:0:
179,215,24155,1,8,1:0:0:0:
212,127,24280,1,8,1:0:0:0:
296,61,24405,5,6,2:0:0:0:
130,132,24905,1,2,0:0:0:0:
211,317,25405,5,0,0:0:0:0:
358,266,25530,2,0,P|327:257|282:247,1,72,2|0,0:0|3:0,0:0:0:0:
172,228,25780,1,0,0:0:0:0:
99,302,25905,2,0,P|104:335|116:374,1,72,8|0,0:0|0:0,0:0:0:0:
211,317,26155,1,10,1:2:0:0:
163,131,26280,1,8,1:0:0:0:
43,171,26405,6,0,B|121:186|79:222|173:227,1,144
293,315,26780,1,0,0:0:0:0:
408,254,26905,2,0,P|449:250|485:250,2,72,8|0|0,1:0|3:0|1:0,0:0:0:0:
117,147,27405,2,0,P|102:80|97:-4,1,144,0|0,1:0|0:0,0:0:0:0:
256,49,27780,1,0,0:0:0:0:
170,235,27905,2,0,P|161:275|158:314,1,72,10|2,1:0|0:0,0:0:0:0:
347,188,28155,2,0,L|359:152,2,36,0|0|0,1:2|3:2|3:2,0:0:0:0:
214,366,28405,6,0,P|159:347|70:323,1,144,2|0,1:2|1:0,0:0:0:0:
50,179,28780,1,0,0:0:0:0:
307,338,28905,2,0,P|288:301|277:272,1,72,8|0,1:0|3:0,0:0:0:0:
141,243,29155,2,0,P|155:205|161:164,1,72,0|0,1:0|3:0,0:0:0:0:
331,46,29405,2,0,P|406:35|490:14,1,144,2|0,1:0|0:0,0:0:0:0:
433,183,29780,1,0,0:0:0:0:
199,63,29905,6,0,P|160:50|124:39,1,72,10|0,1:2|0:0,0:0:0:0:
2,182,30155,2,0,L|66:138,1,72,2|0,1:2|0:0,0:0:0:0:
268,194,30405,2,0,L|192:182,1,72,10|0,1:2|0:0,0:0:0:0:
97,169,30655,1,0,0:0:0:0:
29,354,30780,2,0,L|44:282,1,72,4|8,0:2|1:0,0:0:0:0:
197,183,31030,5,0,0:0:0:0:
356,309,31155,2,0,P|308:292|266:278,1,72,8|0,1:0|0:0,0:0:0:0:
317,167,31405,2,0,P|356:154|392:143,1,72,8|0,1:0|0:0,0:0:0:0:
489,11,31655,2,0,L|468:109,1,72,2|0,1:2|0:0,0:0:0:0:
421,384,31905,6,0,P|448:312|428:247,1,144,10|0,1:0|0:0,0:0:0:0:
340,124,32280,1,0,0:0:0:0:
137,262,32405,2,0,L|218:252,1,72,8|0,1:0|0:0,0:0:0:0:
348,296,32655,1,0,0:0:0:0:
252,168,32780,2,0,L|183:146,1,72,0|12,1:0|1:2,0:0:0:0:
184,147,33030,5,0,1:0:0:0:
191,379,33155,2,0,L|172:297,1,72,2|0,0:0|0:0,0:0:0:0:
315,182,33405,2,0,P|354:169|390:158,1,72,8|0,1:0|0:0,0:0:0:0:
498,32,33655,2,0,L|477:130,1,72,2|0,1:2|0:0,0:0:0:0:
466,309,33905,6,0,B|439:389|339:364|352:262|512:306|493:180,1,288,14|0,1:2|1:0,0:0:0:0:
320,58,34655,1,2,0:0:0:0:
289,51,34905,2,0,P|251:41|218:38,1,72,8|0,1:0|3:0,0:0:0:0:
193,131,35155,2,0,L|210:282,2,144,2|0|0,1:2|1:0|0:0,0:0:0:0:
336,227,35780,1,0,1:0:0:0:
457,124,35905,2,0,L|471:46,1,72,8|0,1:0|0:0,0:0:0:0:
354,80,36155,6,0,L|379:242,1,144,2|0,0:0|0:0,0:0:0:0:
451,337,36530,1,0,0:0:0:0:
332,373,36655,2,0,L|253:350,1,72,2|2,1:2|0:0,0:0:0:0:
134,258,36905,1,8,1:0:0:0:
223,201,37030,2,0,L|208:280,1,72,0|0,1:0|1:0,0:0:0:0:
262,352,37280,1,0,1:0:0:0:
93,367,37405,6,0,L|2:349,2,72,6|2|0,1:2|0:0|0:0,0:0:0:0:
309,253,37780,1,2,0:0:0:0:
169,310,37905,2,0,L|181:385,2,72,8|0|0,1:0|0:0|0:0,0:0:0:0:
120,112,38405,6,0,P|165:77|251:66,1,144,2|0,1:2|0:0,0:0:0:0:
464,197,38905,1,8,1:0:0:0:
464,197,39155,1,0,1:0:0:0:
464,197,39405,6,0,P|411:159|334:155,1,144,2|0,1:2|0:0,0:0:0:0:
99,280,39905,1,12,1:2:0:0:
350,345,40155,2,0,P|421:336|506:334,2,144,0|2|0,1:0|0:2|1:0,0:0:0:0:
158,353,40905,5,8,1:0:0:0:
52,214,41030,1,8,1:0:0:0:
52,214,41405,5,0,1:0:0:0:
60,225,41467,1,0,1:0:0:0:
68,236,41530,1,0,1:0:0:0:
76,247,41592,1,0,1:0:0:0:
84,258,41655,2,0,L|160:251,1,72,8|0,1:0|0:0,0:0:0:0:
376,182,41905,1,8,1:0:0:0:
289,119,42030,2,0,L|272:208,1,72,8|0,1:0|0:0,0:0:0:0:
193,301,42280,5,0,0:0:0:0:
101,119,42405,2,0,P|156:119|232:221,1,161.999995056153,10|0,1:0|3:0,0:0:0:0:
312,315,42780,1,0,0:0:0:0:
95,370,42905,2,0,P|55:368|9:358,2,80.9999975280763,10|0|0,1:0|0:0|0:0,0:0:0:0:
177,236,43280,1,0,0:0:0:0:
303,175,43405,6,0,B|386:183|354:237|456:233,1,161.999995056153,2|0,3:2|0:0,0:0:0:0:
449,233,43780,1,0,1:0:0:0:
468,68,43905,2,0,P|452:106|439:154,1,80.9999975280763,8|0,1:0|1:0,0:0:0:0:
183,261,44155,2,0,L|196:316,2,40.4999987640381,2|0|0,1:2|3:0|3:0,0:0:0:0:
284,211,44405,6,0,P|215:212|140:155,1,161.999995056153,2|0,1:0|3:0,0:0:0:0:
118,73,44780,1,0,0:0:0:0:
24,228,44905,2,0,P|26:276|38:315,2,80.9999975280763,10|0|0,1:0|0:0|0:0,0:0:0:0:
234,128,45280,1,0,0:0:0:0:
329,248,45405,2,0,P|262:239|195:310,1,161.999995056153,10|0,1:0|3:0,0:0:0:0:
129,207,45780,1,0,1:0:0:0:
273,105,45905,2,0,P|311:89|359:76,1,80.9999975280763,8|0,1:0|0:0,0:0:0:0:
461,182,46155,2,0,L|451:221,2,40.4999987640381,2|0|0,1:2|3:0|3:0,0:0:0:0:
204,367,46404,6,0,P|282:357|333:297,1,161.999995056153,4|0,1:2|3:0,0:0:0:0:
252,179,46780,1,0,0:0:0:0:
252,179,46905,2,0,P|194:157|63:137,2,161.999995056153,10|0|6,1:0|3:0|1:2,0:0:0:0:
317,366,47530,1,2,0:0:0:0:
435,319,47655,1,0,1:0:0:0:
294,246,47780,1,6,0:0:0:0:
479,202,47905,2,0,P|488:168|502:101,1,80.9999975280763,10|0,1:0|0:0,0:0:0:0:
407,12,48155,5,2,1:0:0:0:
407,12,48280,2,0,P|417:57|424:95,1,80.9999975280763,4|0,0:0|0:0,0:0:0:0:
291,269,48530,1,0,0:0:0:0:
479,202,48655,2,0,P|430:204|385:216,1,80.9999975280763,2|0,1:0|0:0,0:0:0:0:
224,337,48905,2,0,P|246:279|266:156,1,161.999995056153,10|0,1:0|1:0,0:0:0:0:
366,135,49280,1,0,0:0:0:0:
281,59,49405,2,0,P|232:47|193:40,1,80.9999975280763,0|0,1:0|0:0,0:0:0:0:
42,275,49655,5,8,1:0:0:0:
96,330,49780,1,8,1:0:0:0:
215,193,49905,1,8,1:0:0:0:
116,251,50030,1,8,1:0:0:0:
186,344,50155,1,8,1:0:0:0:
300,279,50280,1,8,1:0:0:0:
410,336,50405,1,8,1:0:0:0:
410,336,50655,6,0,P|350:331|299:276,1,135,2|0,0:0|0:0,0:0:0:0:
186,137,51155,6,0,L|186:133,39,4.5
82,250,52655,5,8,1:0:0:0:
396,274,52905,1,8,1:0:0:0:
170,272,53155,5,0,1:0:0:0:
239,349,53280,1,0,1:0:0:0:
500,232,53405,1,8,0:0:0:0:
500,232,53655,1,8,1:0:0:0:
393,364,53905,5,8,1:0:0:0:
222,309,54030,1,8,1:0:0:0:
360,237,54155,1,8,1:0:0:0:
201,162,54280,1,8,1:0:0:0:
273,52,54405,6,0,P|329:17|441:37,1,180,14|0,1:0|1:0,0:0:0:0:
500,232,54780,1,0,0:0:0:0:
474,323,54905,2,0,P|429:301|408:264,1,90,8|0,1:0|0:0,0:0:0:0:
166,79,55155,6,0,B|191:118|202:168,1,90,6|0,1:2|0:0,0:0:0:0:
272,384,55405,1,0,0:0:0:0:
354,309,55530,2,0,P|302:297|249:286,1,90,8|0,1:0|0:0,0:0:0:0:
75,174,55780,1,0,0:0:0:0:
75,174,55905,2,0,P|159:174|277:182,1,180,4|0,1:0|0:0,0:0:0:0:
370,173,56280,5,0,1:0:0:0:
370,173,56342,1,0,1:0:0:0:
370,173,56405,2,0,B|266:179|323:257|192:250,1,180,12|0,1:1|0:0,0:0:0:0:
387,327,56780,1,0,0:0:0:0:
482,262,56905,2,0,B|509:219|509:219|514:164,1,90,8|0,1:0|1:0,1:0:0:0:
389,36,57155,6,0,B|362:79|362:79|357:134,1,90,2|0,1:2|1:0,1:0:0:0:
216,248,57405,1,0,0:0:0:0:
216,248,57530,1,8,1:0:0:0:
392,205,57655,2,0,L|295:186,1,90,2|0,1:2|0:0,0:0:0:0:
46,104,57905,2,0,P|73:142|95:189,1,90,8|0,1:0|0:0,0:0:0:0:
365,358,58155,2,0,P|327:331|280:309,1,90,2|0,0:0|0:0,0:0:0:0:
136,242,58405,6,0,P|136:158|128:40,1,180,4|0,1:0|0:0,0:0:0:0:
299,58,58780,1,0,0:0:0:0:
423,169,58905,2,0,P|381:151|324:138,1,90,8|0,1:0|0:0,0:0:0:0:
121,279,59155,2,0,P|170:264|226:256,1,90
311,216,59405,1,8,1:0:0:0:
481,316,59530,2,0,P|449:282|450:226,1,90,8|0,1:0|0:0,0:0:0:0:
311,216,59780,1,0,0:0:0:0:
408,25,59905,1,12,1:0:0:0:
408,25,60280,5,4,1:2:0:0:
215,165,60405,2,0,P|228:222|256:251,1,90,6|0,0:0|0:0,0:0:0:0:
384,132,60655,5,0,1:0:0:0:
206,184,60780,2,0,P|219:241|247:270,1,90,6|0,0:0|0:0,0:0:0:0:
368,249,61030,5,0,1:0:0:0:
196,211,61155,2,0,P|209:268|237:297,1,90,6|0,0:0|0:0,0:0:0:0:
336,384,61405,5,6,1:2:0:0:
505,342,61530,1,0,0:0:0:0:
366,283,61655,2,0,B|262:289|319:367|188:360,1,180,2|8,1:2|1:0,0:0:0:0:
80,175,62155,5,8,1:0:0:0:
231,57,62280,1,8,1:0:0:0:
326,114,62405,2,0,L|109:90,1,180,6|0,1:2|0:0,0:0:0:0:
47,264,62780,1,0,0:0:0:0:
104,80,62905,2,0,P|130:132|144:166,1,90,8|0,1:0|0:0,0:0:0:0:
300,336,63155,6,0,L|290:386,2,45,2|0|0,1:2|0:0|0:0,0:0:0:0:
205,280,63405,1,0,0:0:0:0:
283,199,63530,1,8,1:0:0:0:
464,314,63655,2,0,B|433:295|433:295|360:303,1,90,0|0,1:0|0:0,0:0:0:0:
224,376,63905,2,0,P|153:363|105:273,1,180,8|0,1:0|0:0,0:0:0:0:
119,37,64280,2,0,L|101:86,1,45,0|0,1:0|1:0,0:0:0:0:
92,164,64405,6,0,P|154:109|255:102,1,180,0|0,1:0|0:0,0:0:0:0:
354,278,64780,1,0,0:0:0:0:
474,128,64905,2,0,P|408:113|381:118,1,90,8|0,1:0|0:0,0:0:0:0:
134,219,65155,2,0,P|217:211|313:208,1,180,0|0,1:0|0:0,0:0:0:0:
313,208,65530,1,8,1:0:0:0:
258,17,65655,6,0,P|265:69|277:121,1,90,6|0,0:0|1:0,0:0:0:0:
383,344,65905,2,0,P|391:293|400:247,1,90
208,193,66155,2,0,P|250:131|328:131,1,135,2|0,0:0|0:0,0:0:0:0:
319,213,66405,6,0,B|203:180|254:260|127:218,1,180,6|0,1:2|0:0,0:0:0:0:
34,161,66780,1,0,0:0:0:0:
134,267,66905,2,0,P|157:312|173:355,1,90,8|0,1:0|0:0,0:0:0:0:
408,188,67155,6,0,P|425:137|436:95,1,90,6|0,1:2|0:0,0:0:0:0:
252,216,67405,1,8,1:0:0:0:
426,303,67530,2,0,L|318:280,1,90,8|0,1:0|0:0,0:0:0:0:
301,137,67780,1,0,0:0:0:0:
123,231,67905,2,0,P|137:292|251:329,1,180,12|0,1:0|0:0,0:0:0:0:
337,284,68280,1,2,0:0:0:0:
511,373,68405,6,0,P|470:341|494:255,1,135,6|0,1:2|0:0,0:0:0:0:
453,187,68655,2,0,L|515:179,2,45,0|0|0,1:0|1:0|1:0,0:0:0:0:
506,274,68905,6,0,P|443:260|306:235,1,180,10|0,1:0|0:0,0:0:0:0:
160,198,69280,2,0,P|112:229|109:234,1,45,0|0,1:0|1:0,0:0:0:0:
27,343,69405,2,0,P|43:298|45:252,1,90,8|0,1:0|0:0,0:0:0:0:
194,329,69655,1,0,1:0:0:0:
335,215,69780,1,0,0:0:0:0:
197,87,69905,2,0,P|170:146|247:237,1,180,14|0,1:2|0:0,0:0:0:0:
340,367,70280,1,0,0:0:0:0:
435,334,70405,6,0,P|370:324|246:306,1,180,6|0,1:0|0:0,0:0:0:0:
142,243,70780,1,0,0:0:0:0:
11,356,70905,2,0,P|30:308|46:255,1,90,8|0,1:0|0:0,0:0:0:0:
78,150,71155,1,0,0:0:0:0:
298,230,71280,2,0,P|242:223|205:219,1,90,2|0,1:0|1:0,0:0:0:0:
16,65,71530,2,0,B|56:119|56:119|3:228,1,180,8|0,1:0|0:0,0:0:0:0:
163,340,71905,2,0,P|111:294|104:271,1,90,8|2,1:0|0:0,0:0:0:0:
212,123,72155,2,0,L|271:114,2,45,0|0|0,1:0|1:0|1:0,0:0:0:0:
420,181,72405,6,0,P|375:166|258:230,1,180,12|0,1:0|0:0,0:0:0:0:
160,258,72780,1,0,0:0:0:0:
315,367,72905,2,0,P|360:341|380:295,1,90,8|0,1:0|0:0,0:0:0:0:
506,274,73155,1,0,0:0:0:0:
422,148,73280,1,0,0:0:0:0:
262,221,73405,2,0,B|303:195|303:195|349:207,1,90,8|8,1:0|0:0,0:0:0:0:
335,111,73655,2,0,P|269:93|156:59,1,180,2|8,0:0|1:0,0:0:0:0:
132,179,74155,5,14,1:0:0:0:
156,369,74280,1,0,1:0:0:0:
156,369,74342,1,0,1:0:0:0:
156,369,74405,2,0,P|103:361|62:347,1,90,2|0,1:2|0:0,0:0:0:0:
40,200,74655,2,0,P|72:242|107:265,1,90,2|0,1:2|0:0,0:0:0:0:
394,246,74905,2,0,P|352:214|311:195,1,90,10|0,1:2|0:0,0:0:0:0:
210,298,75155,2,0,P|262:290|303:299,1,90,2|0,1:2|0:0,0:0:0:0:
451,113,75405,5,2,1:2:0:0:
268,78,75530,2,0,P|309:109|350:128,1,90,8|2,1:0|1:2,0:0:0:0:
394,246,75780,1,0,0:0:0:0:
451,28,75905,2,0,P|398:35|357:26,1,90,10|0,1:2|0:0,0:0:0:0:
230,48,76155,1,2,1:2:0:0:
44,179,76280,5,0,1:0:0:0:
44,179,76342,1,0,1:0:0:0:
44,179,76405,2,0,P|95:186|138:201,1,90,6|0,1:2|0:0,0:0:0:0:
305,364,76655,2,0,P|273:322|238:299,1,90,2|0,1:0|0:0,0:0:0:0:
38,324,76905,2,0,P|79:292|120:273,1,90,10|0,1:0|0:0,0:0:0:0:
344,213,77155,2,0,P|291:205|250:214,1,90,2|0,1:0|0:0,0:0:0:0:
96,182,77405,5,2,1:2:0:0:
266,96,77530,2,0,P|223:109|178:115,1,90,10|0,1:0|1:0,0:0:0:0:
288,314,77780,1,0,0:0:0:0:
189,227,77905,2,0,B|288:231|244:294|360:291,1,180,8|0,1:0|1:0,0:0:0:0:
479,172,78280,1,2,1:2:0:0:
410,279,78405,2,0,P|384:335|380:369,1,90,0|0,1:0|0:0,0:0:0:0:
388,248,78655,6,0,P|369:190|354:64,1,180,6|8,1:2|1:0,0:0:0:0:
229,105,79030,1,2,0:2:0:0:
73,359,79155,2,0,P|92:301|107:175,1,180,6|8,1:2|1:0,0:0:0:0:
240,212,79530,1,10,1:2:0:0:
149,34,79655,2,0,P|93:8|59:4,1,90,0|0,1:0|0:0,0:0:0:0:
20,172,79905,2,0,P|80:187|120:178,1,90,8|0,1:0|0:0,0:0:0:0:
352,224,80155,1,2,1:2:0:0:
262,357,80280,5,0,1:0:0:0:
262,357,80342,1,0,1:0:0:0:
262,357,80405,2,0,L|252:256,1,90,14|0,1:2|0:0,0:0:0:0:
112,202,80655,1,0,1:0:0:0:
251,115,80780,2,0,L|361:99,1,90,4|8,0:2|1:0,0:0:0:0:
355,310,81030,1,0,0:0:0:0:
173,30,81155,2,0,L|276:15,1,90,4|0,1:0|0:0,0:0:0:0:
415,94,81405,5,0,1:0:0:0:
410,128,81467,1,0,1:0:0:0:
406,164,81530,1,0,1:0:0:0:
402,199,81592,1,0,1:0:0:0:
398,235,81655,1,0,1:0:0:0:
390,270,81717,1,0,1:0:0:0:
385,305,81780,1,0,1:0:0:0:
379,340,81842,1,0,1:0:0:0:
370,373,81905,6,0,B|308:383|265:336|265:336|226:360|226:360|169:315|96:350,1,283.499991348267,14|0,1:2|0:0,0:0:0:0:
65,326,82405,6,0,P|117:332|190:254,1,161.999995056153,2|0,1:0|0:0,0:0:0:0:
378,215,82780,1,0,0:0:0:0:
250,118,82905,2,0,P|253:163|278:195,1,80.9999975280763,10|0,1:2|0:0,0:0:0:0:
481,167,83155,2,0,P|496:129|498:89,1,80.9999975280763,2|0,1:2|0:0,0:0:0:0:
355,117,83405,5,0,1:0:0:0:
189,259,83530,2,0,L|105:245,1,80.9999975280763,8|0,1:0|0:0,0:0:0:0:
116,144,83780,1,0,0:0:0:0:
302,294,83905,2,0,L|325:383,1,80.9999975280763,8|0,1:0|0:0,0:0:0:0:
219,222,84155,1,2,1:2:0:0:
377,188,84280,5,2,3:2:0:0:
377,188,84342,1,2,3:2:0:0:
376,188,84405,2,0,P|340:170|300:162,1,80.9999975280763,2|0,1:2|0:0,0:0:0:0:
219,345,84655,2,0,P|183:363|143:371,1,80.9999975280763,2|0,1:2|0:0,0:0:0:0:
0,224,84905,2,0,B|78:230|50:290|161:279,1,161.999995056153,8|2,1:2|1:2,0:0:0:0:
289,269,85280,1,0,0:0:0:0:
415,153,85405,1,8,1:0:0:0:
362,70,85530,6,0,L|379:231,1,156.599995220947,8|0,1:2|3:0,0:0:0:0:
466,348,85905,2,0,L|481:257,1,80.9999975280763,8|0,1:0|0:0,0:0:0:0:
335,182,86155,1,0,1:0:0:0:
193,126,86280,1,8,1:3:0:0:
107,243,86405,6,0,P|151:201|258:206,1,156.599995220947,12|2,1:0|0:0,0:0:0:0:
404,286,86780,1,0,0:0:0:0:
374,369,86905,2,0,L|359:184,1,161.999995056153,12|2,1:2|1:2,0:0:0:0:
281,77,87280,1,2,0:0:0:0:
454,189,87405,5,8,1:0:0:0:
278,300,87530,2,0,L|197:285,1,80.9999975280763,10|0,1:2|0:0,0:0:0:0:
255,175,87780,1,0,0:0:0:0:
371,39,87905,2,0,L|354:130,1,80.9999975280763,8|0,1:0|0:0,0:0:0:0:
481,4,88155,2,0,L|460:97,1,80.9999975280763,2|0,1:2|3:0,0:0:0:0:
456,119,88342,6,0,L|411:105,1,40.4999987640381,0|0,1:0|1:0,0:0:0:0:
211,159,88530,1,2,0:2:0:0:
368,358,88655,2,0,L|350:269,1,80.9999975280763,2|0,1:2|0:0,0:0:0:0:
302,116,88905,2,0,L|141:99,1,156.599995220947,8|0,1:2|1:0,0:0:0:0:
79,259,89280,1,0,0:0:0:0:
282,230,89405,5,8,1:0:0:0:
97,78,89530,2,0,P|124:136|131:159,1,80.9999975280763,0|0,1:0|0:0,0:0:0:0:
195,374,89780,2,0,P|222:316|229:293,1,80.9999975280763,2|0,1:2|1:0,0:0:0:0:
417,106,90030,1,10,1:0:0:0:
351,278,90155,2,0,L|342:318,2,40.4999987640381,10|0|0,1:0|3:0|3:0,0:0:0:0:
47,177,92155,5,8,1:0:0:0:
47,177,92280,1,8,1:0:0:0:
