osu file format v14

[General]
AudioFilename: v.mp3
AudioLeadIn: 0
PreviewTime: 38574
Countdown: 0
SampleSet: Soft
StackLeniency: 0.5
Mode: 0
LetterboxInBreaks: 0
WidescreenStoryboard: 0

[Editor]
Bookmarks: 10979,29857,38491,57955
DistanceSpacing: 0.6
BeatDivisor: 4
GridSize: 16
TimelineZoom: 1

[Metadata]
Title:2 FACE
TitleUnicode:2 FACE
Artist:MY FIRST STORY
ArtistUnicode:MY FIRST STORY
Creator:Irohas
Version:Silky's Expert
Source:
Tags:mugiwarasekai milan- fuyuyu- kanau mamayu silky kalibe schoolboy komore sss S・S・S aina the end japanese rock j-rock jrock
BeatmapID:2059893
BeatmapSetID:984481

[Difficulty]
HPDrainRate:6
CircleSize:4
OverallDifficulty:8
ApproachRate:9.2
SliderMultiplier:1.8
SliderTickRate:1

[Events]
//Background and Video events
0,0,"o.jpg",0,0
//Break Periods
2,30103,36357
//Storyboard Layer 0 (Background)
//Storyboard Layer 1 (Fail)
//Storyboard Layer 2 (Pass)
//Storyboard Layer 3 (Foreground)
//Storyboard Sound Samples

[TimingPoints]
1806,292.682926829268,4,2,1,65,1,0
38830,-83.3333333333333,4,2,1,40,0,0
39049,-83.3333333333333,4,2,1,20,0,0
39123,-100,4,2,7,85,0,1
39269,-100,4,2,7,85,0,0
39415,-100,4,2,1,75,0,0
44464,-100,4,2,1,5,0,0
44537,-100,4,2,1,75,0,0
48488,-100,4,2,1,75,0,1
48635,-100,4,2,1,75,0,0
58293,-100,4,2,1,55,0,0
60342,-100,4,2,1,35,0,0

[Colours]
Combo1 : 250,215,184
Combo2 : 211,250,231
Combo3 : 241,181,177

[HitObjects]
54,335,11025,6,0,P|124:311|205:371,1,180,12|0,1:2|3:0,0:0:0:0:
373,256,11464,2,0,P|328:265|273:279,1,90,8|2,0:0|1:2,0:0:0:0:
144,134,11757,1,8,0:0:0:0:
308,179,11903,1,2,1:2:0:0:
258,26,12049,2,0,P|247:70|234:138,1,90,8|2,0:0|0:0,0:0:0:0:
66,220,12342,6,0,P|56:175|46:132,1,90,8|2,1:2|0:3,0:0:0:0:
177,227,12635,1,8,0:0:0:0:
3,315,12781,2,0,P|47:324|103:338,1,90,2|8,0:3|0:0,0:0:0:0:
228,375,13074,1,0,3:0:0:0:
228,375,13147,1,0,3:0:0:0:
228,375,13220,1,8,0:0:0:0:
327,193,13366,6,0,P|257:169|176:229,1,180,4|0,0:0|3:3,0:0:0:0:
421,261,13805,2,0,P|432:215|446:157,1,90,8|2,0:0|1:2,0:0:0:0:
377,9,14098,1,8,0:0:0:0:
510,86,14245,1,2,1:2:0:0:
327,193,14391,2,0,P|315:147|302:89,1,90,8|2,0:0|0:0,0:0:0:0:
111,170,14684,6,0,P|153:176|218:189,1,90,8|2,1:2|0:3,0:0:0:0:
42,287,14976,1,8,0:0:0:0:
168,369,15123,2,0,P|155:314|145:274,1,90,10|8,1:0|0:0,0:0:0:0:
293,178,15415,1,10,3:1:0:0:
293,178,15488,1,0,1:0:0:0:
293,178,15562,1,8,0:0:0:0:
404,340,15708,6,0,P|321:361|257:293,1,180,4|0,0:0|3:0,0:0:0:0:
388,223,16147,2,0,P|424:232|482:247,1,90,8|2,0:0|1:2,0:0:0:0:
454,120,16440,1,8,0:0:0:0:
293,178,16586,1,2,1:2:0:0:
335,15,16732,2,0,P|344:54|361:132,1,90,8|2,0:0|0:0,0:0:0:0:
181,203,17025,6,0,P|190:159|200:115,1,90,8|2,1:2|0:3,0:0:0:0:
79,36,17318,1,8,0:0:0:0:
1,173,17464,2,0,P|40:164|103:151,1,90,2|8,1:3|0:0,0:0:0:0:
25,359,17757,1,10,3:1:0:0:
25,359,17830,1,0,1:0:0:0:
25,359,17903,1,8,0:0:0:0:
228,312,18049,6,0,P|166:251|82:272,1,180,4|2,3:2|3:1,0:0:0:0:
172,72,18488,2,0,P|182:115|194:172,1,90,8|2,0:0|0:0,0:0:0:0:
427,135,18781,1,8,1:2:0:0:
279,87,18927,1,2,0:3:0:0:
314,273,19074,2,0,P|323:228|333:185,1,90,8|2,0:0|0:3,0:0:0:0:
470,350,19366,6,0,P|424:359|369:371,1,90,8|2,0:0|0:0,0:0:0:0:
233,214,19659,1,8,0:0:0:0:
411,254,19805,1,2,3:2:0:0:
411,254,19879,1,0,3:0:0:0:
411,254,19952,1,8,0:2:0:0:
224,317,20098,1,8,1:3:0:0:
353,162,20245,1,8,1:3:0:0:
329,357,20391,6,0,B|293:324|242:339|242:339|220:377|168:384,1,180,4|0,0:0|3:0,0:0:0:0:
11,269,20830,2,0,P|19:319|26:357,1,90,8|2,0:0|0:0,0:0:0:0:
233,214,21123,1,0,3:0:0:0:
27,141,21269,1,0,0:0:0:0:
115,283,21415,1,8,0:0:0:0:
115,283,21708,6,0,P|122:238|130:194,1,90,8|0,0:3|3:0,0:0:0:0:
204,78,22001,1,8,0:0:0:0:
27,141,22147,1,2,0:1:0:0:
27,141,22220,1,0,0:0:0:0:
27,141,22293,1,0,3:0:0:0:
224,249,22440,2,0,P|265:241|334:230,1,90,2|8,0:1|0:0,0:0:0:0:
486,156,22732,6,0,P|446:96|331:116,1,180,4|0,0:0|3:0,0:0:0:0:
224,15,23171,2,0,P|216:54|206:116,1,90,8|0,0:0|3:0,0:0:0:0:
206,130,23391,1,0,3:0:0:0:
206,130,23464,1,0,3:0:0:0:
352,227,23610,1,0,0:0:0:0:
454,67,23757,1,8,0:0:0:0:
454,67,24049,6,0,P|406:76|344:90,1,90,8|0,0:3|3:0,0:0:0:0:
264,210,24342,1,8,0:0:0:0:
385,309,24488,1,2,0:1:0:0:
385,309,24562,1,0,3:0:0:0:
385,309,24635,1,0,3:0:0:0:
512,206,24781,2,0,P|468:196|423:188,1,90,2|8,0:1|0:0,0:0:0:0:
268,327,25074,6,0,B|200:331|156:372|156:372|133:352|103:343,1,180,4|0,0:0|3:0,0:0:0:0:
5,220,25513,2,0,P|44:227|95:240,1,90,8|2,0:0|0:0,0:0:0:0:
256,84,25805,1,0,3:0:0:0:
75,139,25952,1,0,0:0:0:0:
196,246,26098,1,8,0:0:0:0:
196,246,26391,6,0,P|186:197|173:129,1,90,8|8,0:3|0:3,0:0:0:0:
337,22,26684,1,8,0:0:0:0:
300,200,26830,1,6,3:1:0:0:
300,200,26903,1,4,3:1:0:0:
300,200,26976,1,0,3:0:0:0:
481,145,27123,2,0,P|439:136|385:126,1,90,8|8,0:3|0:0,0:0:0:0:
247,301,27415,6,0,P|337:314|398:252,1,180,4|0,0:0|0:0,0:0:0:0:
281,111,27854,2,0,P|290:155|300:200,1,90,8|0,0:0|3:0,0:0:0:0:
174,95,28147,1,0,3:0:0:0:
333,17,28293,1,0,0:0:0:0:
198,209,28440,1,8,0:0:0:0:
198,209,28732,6,0,P|141:198|94:191,1,90,8|0,0:3|3:0,0:0:0:0:
5,355,29025,1,8,0:0:0:0:
149,292,29171,1,2,0:1:0:0:
149,292,29245,1,0,3:0:0:0:
149,292,29318,1,0,3:0:0:0:
28,147,29464,2,0,P|18:197|12:244,1,90,2|8,0:1|0:0,0:0:0:0:
185,366,29757,2,0,L|176:321,2,45,4|0|0,0:0|0:0|0:0,0:0:0:0:
256,192,36927,12,0,38391,0:0:0:0:
149,292,38537,5,0,1:0:0:0:
149,292,38610,1,8,0:3:0:0:
149,292,38684,1,0,3:0:0:0:
34,180,38830,2,0,B|-7:240|28:294|28:294|44:273|65:258,1,161.999995056153,2|0,0:3|0:0,0:0:0:0:
89,377,39123,6,0,P|156:320|254:349,1,180,14|0,1:3|3:0,0:0:0:0:
445,357,39562,2,0,P|400:365|345:377,1,90,8|0,0:0|3:0,0:0:0:0:
491,218,39854,1,8,0:0:0:0:
310,145,40001,1,0,3:0:0:0:
377,279,40147,1,8,0:0:0:0:
497,124,40293,6,0,P|444:137|400:150,1,90,0|8,3:0|0:0,0:0:0:0:
221,94,40586,1,0,3:0:0:0:
288,260,40732,2,0,L|304:171,1,90,8|0,0:0|3:0,0:0:0:0:
147,231,41025,1,8,0:0:0:0:
271,378,41171,1,0,3:0:0:0:
271,378,41245,1,0,3:0:0:0:
271,378,41318,1,8,0:0:0:0:
26,340,41464,6,0,P|110:327|213:313,1,180,4|2,0:0|3:0,0:0:0:0:
61,152,41903,2,0,P|52:198|43:258,1,90,8|0,0:0|3:0,0:0:0:0:
223,126,42196,1,8,0:0:0:0:
290,284,42342,1,0,3:0:0:0:
152,205,42488,1,8,0:0:0:0:
316,60,42635,6,0,P|325:106|334:166,1,90,0|8,3:0|0:0,0:0:0:0:
280,317,42927,1,0,3:0:0:0:
471,278,43074,2,0,P|423:266|367:254,1,90,8|0,0:0|3:0,0:0:0:0:
194,132,43366,2,0,L|253:118,1,45,8|10,0:0|0:3,0:0:0:0:
324,15,43513,2,0,L|313:73,1,45,0|0,3:0|3:0,0:0:0:0:
331,149,43659,1,8,0:0:0:0:
195,280,43805,6,0,P|123:220|40:244,1,180,4|2,0:0|3:0,0:0:0:0:
163,384,44245,2,0,P|205:377|269:368,1,90,8|0,0:0|3:0,0:0:0:0:
356,195,44537,1,8,0:0:0:0:
195,280,44684,1,4,3:0:0:0:
340,384,44830,2,0,P|331:341|318:274,1,90,8|4,0:0|0:0,0:0:0:0:
477,173,45123,6,0,P|468:217|459:261,1,90,0|2,1:0|3:0,0:0:0:0:
329,88,45415,1,8,0:0:0:0:
474,36,45562,1,4,3:0:0:0:
356,195,45708,2,0,P|311:185|256:175,1,90,4|0,0:0|3:0,0:0:0:0:
237,187,45927,1,0,3:0:0:0:
237,187,46001,2,0,L|248:132,1,45,8|0,0:0|0:0,0:0:0:0:
214,44,46147,5,0,1:0:0:0:
214,44,46220,1,8,0:0:0:0:
214,44,46293,1,6,1:2:0:0:
52,146,46440,2,0,P|96:136|152:126,1,90,2|8,0:0|0:0,0:0:0:0:
222,293,46732,2,0,P|151:278|75:266,1,135,4|0,3:0|0:0,0:0:0:0:
55,252,47025,2,0,P|62:292|73:365,1,90,0|8,3:0|0:0,0:0:0:0:
293,364,47318,6,0,B|327:320|379:336|379:336|403:377|461:379,1,180,4|8,0:0|0:0,0:0:0:0:
473,359,47684,1,8,0:0:0:0:
473,359,47757,2,0,L|462:295,1,45,8|8,0:0|3:2,0:0:0:0:
391,190,47903,2,0,L|383:234,1,45,0|0,3:0|3:0,0:0:0:0:
466,129,48049,5,8,0:0:0:0:
441,105,48122,1,8,0:0:0:0:
410,92,48195,1,0,3:0:0:0:
377,91,48268,1,0,3:0:0:0:
345,103,48341,1,0,3:0:0:0:
228,230,48488,6,0,B|130:211|163:280|45:255,1,180,4|0,0:0|3:0,0:0:0:0:
166,91,48927,1,8,0:0:0:0:
25,32,49074,1,2,0:0:0:0:
92,171,49220,1,0,1:0:0:0:
267,121,49366,2,0,L|247:12,1,90,0|8,3:0|0:0,0:0:0:0:
508,112,49659,6,0,P|448:47|366:64,1,180,2|0,1:3|3:0,0:0:0:0:
403,235,50098,2,0,L|423:126,1,90,8|0,0:0|0:0,0:0:0:0:
284,280,50391,1,8,0:3:0:0:
486,384,50537,1,0,3:0:0:0:
403,235,50684,1,8,0:0:0:0:
270,368,50830,6,0,B|204:356|204:356|161:377|161:377|84:363,1,180,4|0,0:0|3:0,0:0:0:0:
129,177,51269,2,0,P|137:221|145:265,1,90,8|2,0:0|0:0,0:0:0:0:
34,149,51562,1,0,1:0:0:0:
165,79,51708,1,0,3:0:0:0:
43,258,51854,1,8,0:0:0:0:
228,331,52001,6,0,P|311:310|376:379,1,180,2|0,1:3|3:0,0:0:0:0:
510,224,52440,2,0,P|461:234|395:251,1,90,8|0,0:0|0:0,0:0:0:0:
256,95,52732,1,8,0:3:0:0:
449,147,52879,1,8,3:2:0:0:
375,21,53025,1,8,3:2:0:0:
322,227,53171,6,0,B|258:220|212:266|212:266|179:246|131:241,1,180,4|0,0:0|3:0,0:0:0:0:
33,360,53610,2,0,P|64:353|139:339,1,90,8|2,0:0|0:0,0:0:0:0:
215,156,53903,1,0,3:0:0:0:
36,257,54049,1,0,3:0:0:0:
230,344,54196,1,8,0:0:0:0:
129,120,54342,6,0,L|116:209,1,90,2|0,1:3|3:0,0:0:0:0:
309,85,54635,1,2,1:2:0:0:
181,22,54781,1,8,0:0:0:0:
272,189,54927,2,0,P|308:182|378:171,1,90,0|8,0:0|0:3,0:0:0:0:
498,335,55220,1,8,0:3:0:0:
336,281,55366,1,8,0:0:0:0:
466,148,55513,5,0,3:0:0:0:
466,148,55586,1,0,3:0:0:0:
466,148,55659,2,0,P|456:192|442:262,1,90,12|2,0:0|0:0,0:0:0:0:
319,53,55952,2,0,P|328:97|343:167,1,90,8|0,0:0|3:0,0:0:0:0:
171,300,56245,1,8,0:0:0:0:
217,118,56391,1,0,3:0:0:0:
354,247,56537,2,0,P|311:236|249:223,1,90,8|0,0:0|3:0,0:0:0:0:
61,169,56830,6,0,L|49:109,3,45,8|8|0|8,0:0|0:0|3:0|0:3,0:0:0:0:
165,56,57123,2,0,L|156:100,3,45,8|0|0|0,0:3|3:0|3:0|3:0,0:0:0:0:
139,238,57415,5,8,0:3:0:0:
115,262,57488,1,0,3:0:0:0:
85,276,57561,1,0,3:0:0:0:
51,278,57634,1,0,3:0:0:0:
19,268,57707,1,2,3:2:0:0:
230,372,57854,2,0,L|218:309,1,45,4|0,3:1|3:0,0:0:0:0:
256,192,58001,5,4,3:2:0:0:
256,192,58074,12,4,60342,3:1:0:0:
