osu file format v14

[General]
AudioFilename: v.mp3
AudioLeadIn: 0
PreviewTime: 38574
Countdown: 0
SampleSet: Soft
StackLeniency: 0.2
Mode: 0
LetterboxInBreaks: 0
WidescreenStoryboard: 1

[Editor]
Bookmarks: 10979,20491,29857,39077,57955
DistanceSpacing: 1
BeatDivisor: 4
GridSize: 16
TimelineZoom: 1.7

[Metadata]
Title:2 FACE
TitleUnicode:2 FACE
Artist:MY FIRST STORY
ArtistUnicode:MY FIRST STORY
Creator:Irohas
Version:Milan-'s Insane
Source:
Tags:mugiwarasekai milan- fuyuyu- kanau mamayu silky kalibe schoolboy komore sss S・S・S aina the end japanese rock j-rock jrock
BeatmapID:2059890
BeatmapSetID:984481

[Difficulty]
HPDrainRate:5.5
CircleSize:4.1
OverallDifficulty:7.5
ApproachRate:9
SliderMultiplier:1.6
SliderTickRate:1

[Events]
//Background and Video events
0,0,"o.jpg",0,0
//Break Periods
//Storyboard Layer 0 (Background)
//Storyboard Layer 1 (Fail)
//Storyboard Layer 2 (Pass)
//Storyboard Layer 3 (Foreground)
//Storyboard Sound Samples

[TimingPoints]
1806,292.682926829268,4,2,1,50,1,0
11025,-400,4,2,1,65,0,0
11245,-400,4,2,1,5,0,0
11318,-400,4,2,1,65,0,0
11464,-200,4,2,1,65,0,0
11684,-200,4,2,1,5,0,0
11757,-200,4,2,1,65,0,0
13074,-100,4,2,1,65,0,0
13366,-400,4,2,1,65,0,0
13805,-200,4,2,1,65,0,0
15415,-100,4,2,1,65,0,0
15707,-400,4,2,1,65,0,0
16146,-200,4,2,1,65,0,0
17757,-100,4,2,1,65,0,0
18049,-400,4,2,1,65,0,0
18488,-200,4,2,1,65,0,0
18854,-200,4,2,1,5,0,0
18927,-200,4,2,1,65,0,0
19586,-200,4,2,1,5,0,0
19659,-200,4,2,1,65,0,0
20391,-200,4,2,1,65,0,0
20830,-133.333333333333,4,2,1,65,0,0
22732,-200,4,2,1,65,0,0
22832,-133.333333333333,4,2,1,65,0,0
23684,-133.333333333333,4,2,1,5,0,0
23757,-133.333333333333,4,2,1,65,0,0
25074,-200,4,2,1,65,0,0
25174,-133.333333333333,4,2,1,65,0,0
27269,-100,4,2,1,65,0,0
27415,-200,4,2,1,65,0,0
27515,-133.333333333333,4,2,1,65,0,0
29903,-1000,4,2,1,35,0,0
34586,-1000,4,2,1,35,0,0
36927,-1000,4,2,1,35,0,0
38537,-66.6666666666667,4,2,1,55,0,0
38684,-66.6666666666667,4,2,1,65,0,0
38830,-66.6666666666667,4,2,1,40,0,0
39049,-66.6666666666667,4,2,1,20,0,0
39123,-83.3333333333333,4,2,7,85,0,1
39269,-100,4,2,7,85,0,0
39415,-100,4,2,1,75,0,0
44464,-100,4,2,1,5,0,0
44537,-100,4,2,1,75,0,0
47757,-83.3333333333333,4,2,1,75,0,0
48488,-100,4,2,1,75,0,1
48635,-100,4,2,1,75,0,0
55659,-83.3333333333333,4,2,1,75,0,0
56830,-83.3333333333333,4,2,1,75,0,0
57415,-83.3333333333333,4,2,1,75,0,0
58001,-83.3333333333333,4,2,1,75,0,0
58147,-1000,4,2,1,75,0,0
58293,-1000,4,2,1,55,0,0
60342,-1000,4,2,1,35,0,0

[Colours]
Combo1 : 250,215,184
Combo2 : 211,250,231
Combo3 : 241,181,177

[HitObjects]
7,6,11025,6,0,L|11:47,1,40,12|0,1:2|3:0,0:0:0:0:
91,199,11464,2,0,L|95:238,1,40,8|2,0:0|1:2,0:0:0:0:
120,95,11757,2,0,L|125:135,1,40,8|2,0:0|1:2,0:0:0:0:
207,284,12049,2,0,L|211:323,1,40,8|2,0:0|0:0,0:0:0:0:
247,224,12342,2,0,L|242:184,2,40,8|2|8,1:2|0:3|0:0,0:0:0:0:
352,91,12781,2,0,L|356:51,1,40,2|8,0:3|0:0,0:0:0:0:
473,151,13074,5,0,3:0:0:0:
466,154,13147,1,0,3:0:0:0:
460,158,13220,2,0,L|398:157,1,40,8|0,0:0|0:0,0:0:0:0:
351,239,13366,6,0,L|395:245,1,40,4|0,0:0|3:3,0:0:0:0:
215,332,13805,2,0,L|253:322,1,40,8|2,0:0|1:2,0:0:0:0:
115,281,14098,2,0,L|154:291,1,40,8|2,0:0|1:2,0:0:0:0:
295,117,14391,2,0,L|333:107,1,40,8|2,0:0|0:0,0:0:0:0:
233,75,14684,2,0,L|194:65,2,40,8|2|8,1:2|0:3|0:0,0:0:0:0:
47,230,15123,2,0,L|51:190,1,40,10|8,1:0|0:0,0:0:0:0:
12,74,15416,5,10,3:1:0:0:
8,81,15489,1,0,1:0:0:0:
4,88,15562,2,0,L|5:150,1,40,8|0,0:0|0:0,0:0:0:0:
109,23,15708,6,0,L|105:68,1,40,4|0,0:0|3:0,0:0:0:0:
228,209,16147,2,0,L|222:261,1,40,8|2,0:0|1:2,0:0:0:0:
178,347,16440,2,0,L|172:295,1,40,8|2,0:0|1:2,0:0:0:0:
420,153,16732,2,0,L|414:205,1,40,8|2,0:0|0:0,0:0:0:0:
368,256,17025,2,0,L|372:295,2,40,8|2|8,1:2|0:3|0:0,0:0:0:0:
141,221,17464,1,2,1:3:0:0:
152,150,17610,1,8,0:0:0:0:
166,78,17757,5,10,3:1:0:0:
173,81,17830,1,0,1:0:0:0:
179,85,17903,2,0,L|241:84,1,40,8|0,0:0|0:0,0:0:0:0:
104,26,18049,6,0,L|64:20,1,40,4|2,3:2|3:1,0:0:0:0:
253,158,18488,2,0,L|293:145,1,40,8|2,0:0|0:0,0:0:0:0:
85,106,18781,2,0,L|46:94,1,40,8|2,1:2|0:3,0:0:0:0:
268,242,19074,2,0,L|306:227,1,40,8|2,0:0|0:3,0:0:0:0:
50,188,19367,2,0,L|10:165,2,40,8|2|8,0:0|0:0|0:0,0:0:0:0:
144,337,19805,5,2,3:2:0:0:
143,319,19879,1,0,3:0:0:0:
143,303,19952,1,8,0:2:0:0:
155,232,20098,1,8,1:3:0:0:
168,161,20245,1,8,1:3:0:0:
182,91,20391,6,0,L|173:8,1,80,4|0,0:0|3:0,0:0:0:0:
383,27,20830,2,0,P|358:41|347:83,1,60.0000022888184,8|2,0:0|0:0,0:0:0:0:
407,117,21123,2,0,P|432:103|443:61,1,60.0000022888184,0|0,3:0|0:0,0:0:0:0:
273,46,21415,2,0,P|265:73|287:111,1,60.0000022888184,8|2,0:0|0:0,0:0:0:0:
500,253,21708,1,8,0:3:0:0:
436,297,21854,1,0,3:0:0:0:
359,281,22001,1,8,0:0:0:0:
316,216,22147,2,0,L|335:149,1,60.0000022888184,2|0,0:1|3:0,0:0:0:0:
169,281,22440,2,0,L|188:214,1,60.0000022888184,2|8,0:1|0:0,0:0:0:0:
13,315,22732,6,0,L|35:234,1,80,4|0,0:0|3:0,0:0:0:0:
71,37,23171,2,0,P|79:78|107:103,1,60.0000022888184,8|0,0:0|3:0,0:0:0:0:
161,56,23464,2,0,P|152:14|124:-10,1,60.0000022888184,0|0,3:0|0:0,0:0:0:0:
33,142,23757,2,0,P|68:164|105:163,1,60.0000022888184,8|2,0:0|0:0,0:0:0:0:
209,181,24049,2,0,P|184:197|155:201,2,60.0000022888184,8|0|8,0:3|3:0|0:0,0:0:0:0:
315,55,24488,1,2,0:1:0:0:
310,63,24562,1,0,3:0:0:0:
305,71,24635,1,0,3:0:0:0:
282,145,24781,1,2,0:1:0:0:
316,214,24927,1,8,0:0:0:0:
390,238,25074,6,0,L|473:218,1,80,4|0,0:0|3:0,0:0:0:0:
331,295,25513,2,0,P|310:345|316:372,1,60.0000022888184,8|2,0:0|0:0,0:0:0:0:
226,317,25805,2,0,P|247:267|241:240,1,60.0000022888184,0|0,3:0|0:0,0:0:0:0:
120,90,26098,2,0,P|99:140|105:167,1,60.0000022888184,8|2,0:0|0:0,0:0:0:0:
316,214,26391,5,8,0:3:0:0:
256,163,26537,1,8,0:3:0:0:
178,170,26684,2,0,L|173:249,1,60.0000022888184,8|6,0:0|3:1,0:0:0:0:
49,368,26976,1,0,3:0:0:0:
104,313,27123,1,8,0:3:0:0:
60,248,27269,2,0,L|3:240,1,40,8|0,0:0|0:0,0:0:0:0:
104,313,27415,6,0,L|195:308,1,80,4|0,0:0|0:0,0:0:0:0:
322,363,27854,1,8,0:0:0:0:
270,304,28001,1,0,3:0:0:0:
268,293,28074,1,0,3:0:0:0:
272,285,28147,1,0,3:0:0:0:
328,231,28293,1,0,0:0:0:0:
400,261,28440,2,0,L|419:333,1,60.0000022888184,8|2,0:0|0:0,0:0:0:0:
481,91,28732,5,8,0:3:0:0:
411,127,28879,2,0,L|392:199,1,60.0000022888184,0|8,3:0|0:0,0:0:0:0:
246,27,29171,1,2,0:1:0:0:
207,95,29318,1,0,3:0:0:0:
262,149,29464,2,0,L|334:148,2,60.0000022888184,2|8|4,0:1|0:0|0:0,0:0:0:0:
89,209,29903,6,0,L|86:219,15,8,2|0|2|0|2|0|2|0|2|0|2|0|2|0|2|0,0:0|0:0|0:0|0:0|0:0|0:0|0:0|0:0|0:0|0:0|0:0|0:0|0:0|0:0|0:0|0:0,0:0:0:0:
187,183,32245,6,0,L|184:173,15,8,2|0|2|0|2|0|2|0|2|0|2|0|2|0|2|0,0:0|0:0|0:0|0:0|0:0|0:0|0:0|0:0|0:0|0:0|0:0|0:0|0:0|0:0|0:0|0:0,0:0:0:0:
372,73,34586,6,0,L|369:63,15,8,2|0|2|0|2|0|2|0|2|0|2|0|2|0|2|0,0:0|0:0|0:0|0:0|0:0|0:0|0:0|0:0|0:0|0:0|0:0|0:0|0:0|0:0|0:0|0:0,0:0:0:0:
465,116,36928,6,0,L|462:126,10,8,2|0|2|0|2|0|2|0|2|0|2,0:0|0:0|0:0|0:0|0:0|0:0|0:0|0:0|0:0|0:0|0:0,0:0:0:0:
183,120,38537,6,0,P|161:117|114:106,2,60.0000022888184,0|8|0,1:0|0:3|3:0,0:0:0:0:
186,131,39123,6,0,B|138:117|121:128|121:128|78:198|-20:175,1,191.999994140625,14|0,1:3|3:0,0:0:0:0:
291,107,39562,2,0,P|309:77|306:27,1,80,8|0,0:0|3:0,0:0:0:0:
347,200,39854,2,0,P|397:175|408:138,1,80,8|0,0:0|3:0,0:0:0:0:
291,107,40147,1,8,0:0:0:0:
276,281,40293,2,0,P|339:347|431:332,1,160,0|0,3:0|3:0,0:0:0:0:
177,239,40732,1,8,0:0:0:0:
177,239,41025,6,0,P|147:258|102:259,1,80,8|0,0:0|3:0,0:0:0:0:
124,182,41245,1,0,3:0:0:0:
124,182,41318,2,0,P|102:171|69:140,1,40,8|0,0:0|0:0,0:0:0:0:
118,18,41464,6,0,B|191:46|201:85|201:85|178:112|188:154,1,160,4|2,0:0|3:0,0:0:0:0:
291,107,41903,2,0,P|309:63|299:16,1,80,8|0,0:0|3:0,0:0:0:0:
177,239,42196,2,0,P|147:258|102:259,1,80,8|0,0:0|3:0,0:0:0:0:
347,200,42488,1,8,0:0:0:0:
491,167,42635,2,0,B|461:152|434:157|434:157|406:198|347:200,1,160,0|0,3:0|3:0,0:0:0:0:
276,281,43074,2,0,P|299:350|326:372,1,80,8|0,0:0|3:0,0:0:0:0:
177,239,43366,1,8,0:0:0:0:
166,248,43440,1,10,0:3:0:0:
153,253,43513,2,0,P|134:257|106:253,1,40,0|0,3:0|3:0,0:0:0:0:
129,179,43659,1,8,0:0:0:0:
0,365,43805,6,0,B|54:366|92:328|92:328|111:338|161:341,1,160,4|2,0:0|3:0,0:0:0:0:
49,169,44245,2,0,P|10:223|-30:234,1,80,8|0,0:0|3:0,0:0:0:0:
93,94,44537,2,0,P|87:38|59:13,2,80,8|4|8,0:0|3:0|0:0,0:0:0:0:
236,122,44976,1,4,0:0:0:0:
244,127,45049,1,0,0:0:0:0:
252,131,45123,6,0,P|309:118|338:80,1,80,0|2,1:0|3:0,0:0:0:0:
260,49,45415,1,8,0:0:0:0:
401,120,45562,2,0,P|426:90|433:32,1,80,4|4,3:0|0:0,0:0:0:0:
349,182,45854,1,0,3:0:0:0:
352,192,45927,1,0,3:0:0:0:
355,202,46001,2,0,L|376:264,1,40,8|0,0:0|0:0,0:0:0:0:
293,272,46147,2,0,L|283:328,1,40,0|8,1:0|0:0,0:0:0:0:
223,230,46293,5,6,1:2:0:0:
159,283,46440,2,0,P|137:300|84:318,1,80,2|8,0:0|0:0,0:0:0:0:
0,182,46732,2,0,B|106:131|48:209|191:152,1,160,4|0,3:0|3:0,0:0:0:0:
292,33,47171,1,8,0:0:0:0:
401,120,47318,6,0,B|295:69|353:147|210:90,1,160,4|8,0:0|0:0,0:0:0:0:
190,47,47684,1,8,0:0:0:0:
190,47,47757,2,0,P|175:73|152:104,3,47.9999985351563,8|8|0|0,0:0|3:2|3:0|3:0,0:0:0:0:
234,179,48049,2,0,P|229:202|209:243,1,47.9999985351563,8|8,0:0|0:0,0:0:0:0:
318,241,48196,2,0,P|311:263|286:309,1,47.9999985351563,0|0,3:0|3:0,0:0:0:0:
237,366,48342,1,0,3:0:0:0:
247,371,48415,1,0,0:0:0:0:
258,373,48488,6,0,P|341:376|396:294,1,160,4|0,0:0|3:0,0:0:0:0:
455,134,48927,2,0,P|416:113|354:121,1,80,8|2,0:0|0:0,0:0:0:0:
308,78,49220,2,0,P|251:103|236:127,1,80,0|0,1:0|3:0,0:0:0:0:
170,153,49513,1,8,0:0:0:0:
141,302,49659,6,0,P|166:271|172:232,1,80,2|2,1:3|0:0,0:0:0:0:
170,153,49952,1,0,3:0:0:0:
26,0,50098,2,0,P|33:75|94:125,1,160,8|8,0:0|0:3,0:0:0:0:
141,302,50537,2,0,P|110:274|99:219,1,80,0|8,3:0|0:0,0:0:0:0:
170,153,50757,1,0,0:0:0:0:
184,150,50830,6,0,B|289:166|203:202|325:224,1,160,4|0,0:0|3:0,0:0:0:0:
512,95,51269,2,0,P|485:140|441:161,1,80,8|2,0:0|0:0,0:0:0:0:
397,107,51562,2,0,P|353:127|298:125,1,80,0|0,1:0|3:0,0:0:0:0:
259,78,51854,1,8,0:0:0:0:
402,206,52001,6,0,P|422:235|413:306,1,80,2|2,1:3|0:0,0:0:0:0:
188,351,52293,1,0,3:0:0:0:
382,355,52440,2,0,P|358:319|229:311,1,160,8|8,0:0|0:3,0:0:0:0:
107,357,52879,1,8,3:2:0:0:
180,276,53025,1,8,3:2:0:0:
85,199,53171,6,0,B|46:170|46:98|46:98|73:73|106:62,1,160,4|0,0:0|3:0,0:0:0:0:
240,18,53610,2,0,P|221:44|149:70,1,80,8|2,0:0|0:0,0:0:0:0:
332,14,53903,1,0,3:0:0:0:
265,125,54049,2,0,P|315:116|341:92,1,80,0|8,3:0|0:0,0:0:0:0:
512,185,54342,1,2,1:3:0:0:
435,208,54488,6,0,P|421:191|337:176,2,80,0|2|8,3:0|1:2|0:0,0:0:0:0:
390,275,54927,2,0,P|351:264|323:237,1,80,0|8,0:0|0:3,0:0:0:0:
227,83,55220,2,0,P|256:20|292:10,1,80,8|8,0:3|0:0,0:0:0:0:
247,245,55513,5,0,3:0:0:0:
247,245,55586,1,0,3:0:0:0:
247,245,55659,1,12,0:0:0:0:
252,160,55805,2,0,B|208:166|208:166|153:131,1,95.9999970703126,2|8,0:0|0:0,0:0:0:0:
375,29,56098,2,0,L|349:132,1,95.9999970703126,0|8,3:0|0:0,0:0:0:0:
506,234,56391,1,0,3:0:0:0:
490,143,56537,2,0,B|375:183|472:233|356:267,1,191.999994140625,8|8,0:0|0:0,0:0:0:0:
287,281,56903,5,8,0:0:0:0:
276,280,56976,2,0,L|212:267,3,47.9999985351563,0|8|8|0,3:0|0:3|0:3|3:0,0:0:0:0:
175,332,57269,2,0,L|126:340,1,47.9999985351563,0|0,3:3|3:0,0:0:0:0:
33,252,57415,6,0,P|66:264|99:266,3,47.9999985351563,8|0|0|0,0:3|3:0|3:0|3:0,0:0:0:0:
74,188,57708,2,0,P|96:186|138:168,1,47.9999985351563,2|0,3:2|0:0,0:0:0:0:
82,109,57854,2,0,P|125:88|147:66,1,47.9999985351563,4|0,3:1|3:3,0:0:0:0:
68,30,58001,5,4,3:2:0:0:
256,192,58074,12,0,59757,0:0:0:0:
