osu file format v14

[General]
AudioFilename: audio90.mp3
AudioLeadIn: 0
PreviewTime: 7336
Countdown: 0
SampleSet: Normal
StackLeniency: 0.7
Mode: 1
LetterboxInBreaks: 0
WidescreenStoryboard: 0

[Editor]
Bookmarks: 8593,33209,57824
DistanceSpacing: 2.1
BeatDivisor: 8
GridSize: 32
TimelineZoom: 2.8

[Metadata]
Title:MONTAGEM TOMADA
TitleUnicode:MONTAGEM TOMADA
Artist:MXZI
ArtistUnicode:MXZI
Creator:TGGD
Version:CAROUSEL // 0.90x
Source:
Tags:phonk brazilian brasil remix electronic spanish dance
BeatmapID:5304172
BeatmapSetID:2433985

[Difficulty]
HPDrainRate:7
CircleSize:2
OverallDifficulty:7
ApproachRate:10
SliderMultiplier:3
SliderTickRate:1

[Events]
//Background and Video events
0,0,"phonk.jpg",0,0
//Break Periods
//Storyboard Layer 0 (Background)
//Storyboard Layer 1 (Fail)
//Storyboard Layer 2 (Pass)
//Storyboard Layer 3 (Foreground)
//Storyboard Layer 4 (Overlay)
//Storyboard Sound Samples

[TimingPoints]
391,512.820512820513,4,1,0,100,1,0
8596,-100,4,1,0,100,0,1
15775,-100,4,1,0,100,0,0
16801,-100,4,1,0,100,0,1
23980,-100,4,1,0,100,0,0
33211,-100,4,1,0,100,0,1
40391,-100,4,1,0,100,0,0
57826,-100,4,1,0,100,0,1
65006,-100,4,1,0,100,0,0
66032,-100,4,1,0,100,0,1
73211,-100,4,1,0,100,0,0

[HitObjects]
256,192,391,5,0,0:0:0:0:
256,192,561,1,0,0:0:0:0:
256,192,732,1,8,0:0:0:0:
256,192,903,1,0,0:0:0:0:
256,192,1074,1,8,0:0:0:0:
256,192,1245,1,8,0:0:0:0:
256,192,1416,1,0,0:0:0:0:
256,192,1673,1,0,0:0:0:0:
256,192,1929,1,8,0:0:0:0:
256,192,2185,1,8,0:0:0:0:
256,192,2442,1,0,0:0:0:0:
256,192,2955,1,8,0:0:0:0:
256,192,3211,1,0,0:0:0:0:
256,192,3467,1,8,0:0:0:0:
256,192,3724,1,0,0:0:0:0:
256,192,3852,1,0,0:0:0:0:
256,192,3980,1,8,0:0:0:0:
256,192,4237,1,8,0:0:0:0:
256,192,4365,1,8,0:0:0:0:
256,192,4493,1,0,0:0:0:0:
256,192,4749,1,8,0:0:0:0:
256,192,5006,1,0,0:0:0:0:
256,192,5262,1,0,0:0:0:0:
256,192,5519,1,8,0:0:0:0:
256,192,5775,1,0,0:0:0:0:
256,192,6032,1,8,0:0:0:0:
256,192,6288,1,8,0:0:0:0:
256,192,6544,1,0,0:0:0:0:
256,192,6801,1,8,0:0:0:0:
256,192,7057,1,0,0:0:0:0:
256,192,7314,1,0,0:0:0:0:
256,192,7442,1,0,0:0:0:0:
256,192,7570,1,8,0:0:0:0:
256,192,7741,1,0,0:0:0:0:
256,192,7912,1,8,0:0:0:0:
256,192,8083,1,0,0:0:0:0:
256,192,8254,1,8,0:0:0:0:
256,192,8425,1,8,0:0:0:0:
256,192,8596,1,4,0:0:0:0:
256,192,8852,1,8,0:0:0:0:
256,192,8980,1,0,0:0:0:0:
256,192,9044,1,0,0:0:0:0:
256,192,9108,1,8,0:0:0:0:
256,192,9173,1,8,0:0:0:0:
256,192,9237,1,0,0:0:0:0:
256,192,9301,1,0,0:0:0:0:
256,192,9365,1,8,0:0:0:0:
256,192,9429,1,8,0:0:0:0:
256,192,9493,1,8,0:0:0:0:
256,192,9557,1,8,0:0:0:0:
256,192,9621,1,0,0:0:0:0:
256,192,9749,1,0,0:0:0:0:
256,192,9878,1,8,0:0:0:0:
256,192,9942,1,0,0:0:0:0:
256,192,10006,1,8,0:0:0:0:
256,192,10070,1,0,0:0:0:0:
256,192,10134,1,8,0:0:0:0:
256,192,10198,1,0,0:0:0:0:
256,192,10262,1,8,0:0:0:0:
256,192,10326,1,0,0:0:0:0:
256,192,10391,1,8,0:0:0:0:
256,192,10455,1,0,0:0:0:0:
256,192,10519,1,8,0:0:0:0:
256,192,10583,1,0,0:0:0:0:
256,192,10647,1,8,0:0:0:0:
256,192,10775,1,0,0:0:0:0:
256,192,10839,1,0,0:0:0:0:
256,192,10903,1,8,0:0:0:0:
256,192,11032,1,0,0:0:0:0:
256,192,11160,1,0,0:0:0:0:
256,192,11224,1,8,0:0:0:0:
256,192,11288,1,0,0:0:0:0:
256,192,11352,1,0,0:0:0:0:
256,192,11416,1,8,0:0:0:0:
256,192,11480,1,0,0:0:0:0:
256,192,11544,1,0,0:0:0:0:
256,192,11608,1,0,0:0:0:0:
256,192,11673,1,8,0:0:0:0:
256,192,11737,1,8,0:0:0:0:
256,192,11801,1,0,0:0:0:0:
256,192,11929,1,8,0:0:0:0:
256,192,11993,1,0,0:0:0:0:
256,192,12057,1,8,0:0:0:0:
256,192,12121,1,0,0:0:0:0:
256,192,12185,1,8,0:0:0:0:
256,192,12249,1,0,0:0:0:0:
256,192,12314,1,8,0:0:0:0:
256,192,12378,1,0,0:0:0:0:
256,192,12442,1,8,0:0:0:0:
256,192,12506,1,0,0:0:0:0:
256,192,12570,1,8,0:0:0:0:
256,192,12634,1,0,0:0:0:0:
256,192,12698,1,8,0:0:0:0:
256,192,12826,1,0,0:0:0:0:
256,192,12955,1,8,0:0:0:0:
256,192,13019,1,0,0:0:0:0:
256,192,13083,1,8,0:0:0:0:
256,192,13211,1,8,0:0:0:0:
256,192,13275,1,8,0:0:0:0:
256,192,13339,1,8,0:0:0:0:
256,192,13403,1,8,0:0:0:0:
256,192,13467,1,0,0:0:0:0:
256,192,13532,1,0,0:0:0:0:
256,192,13596,1,8,0:0:0:0:
256,192,13660,1,8,0:0:0:0:
256,192,13724,1,0,0:0:0:0:
256,192,13852,1,0,0:0:0:0:
256,192,13980,1,8,0:0:0:0:
256,192,14044,1,0,0:0:0:0:
256,192,14108,1,8,0:0:0:0:
256,192,14173,1,0,0:0:0:0:
256,192,14237,1,8,0:0:0:0:
256,192,14301,1,0,0:0:0:0:
256,192,14365,1,8,0:0:0:0:
256,192,14429,1,0,0:0:0:0:
256,192,14493,1,8,0:0:0:0:
256,192,14557,1,0,0:0:0:0:
256,192,14621,1,8,0:0:0:0:
256,192,14685,1,0,0:0:0:0:
256,192,14749,1,8,0:0:0:0:
256,192,14878,1,0,0:0:0:0:
256,192,14942,1,8,0:0:0:0:
256,192,15006,1,0,0:0:0:0:
256,192,15070,1,0,0:0:0:0:
256,192,15134,1,8,0:0:0:0:
256,192,15262,1,8,0:0:0:0:
256,192,15326,1,8,0:0:0:0:
256,192,15390,1,0,0:0:0:0:
256,192,15455,1,0,0:0:0:0:
256,192,15519,1,8,0:0:0:0:
256,192,15583,1,0,0:0:0:0:
256,192,15647,1,8,0:0:0:0:
256,192,15711,1,8,0:0:0:0:
256,192,15775,1,0,0:0:0:0:
256,192,15946,1,8,0:0:0:0:
256,192,16032,1,8,0:0:0:0:
256,192,16117,1,0,0:0:0:0:
256,192,16288,1,8,0:0:0:0:
256,192,16459,1,8,0:0:0:0:
256,192,16544,1,0,0:0:0:0:
256,192,16630,1,8,0:0:0:0:
256,192,16801,1,4,0:0:0:0:
256,192,17057,1,0,0:0:0:0:
256,192,17185,1,8,0:0:0:0:
256,192,17249,1,8,0:0:0:0:
256,192,17314,1,0,0:0:0:0:
256,192,17378,1,8,0:0:0:0:
256,192,17442,1,0,0:0:0:0:
256,192,17506,1,0,0:0:0:0:
256,192,17570,1,8,0:0:0:0:
256,192,17634,1,0,0:0:0:0:
256,192,17698,1,0,0:0:0:0:
256,192,17762,1,0,0:0:0:0:
256,192,17826,1,8,0:0:0:0:
256,192,17955,1,0,0:0:0:0:
256,192,18083,1,8,0:0:0:0:
256,192,18147,1,0,0:0:0:0:
256,192,18211,1,8,0:0:0:0:
256,192,18275,1,0,0:0:0:0:
256,192,18339,1,8,0:0:0:0:
256,192,18403,1,0,0:0:0:0:
256,192,18467,1,8,0:0:0:0:
256,192,18532,1,0,0:0:0:0:
256,192,18596,1,8,0:0:0:0:
256,192,18660,1,0,0:0:0:0:
256,192,18724,1,8,0:0:0:0:
256,192,18788,1,0,0:0:0:0:
256,192,18852,1,8,0:0:0:0:
256,192,18980,1,0,0:0:0:0:
256,192,19044,1,0,0:0:0:0:
256,192,19108,1,8,0:0:0:0:
256,192,19173,1,0,0:0:0:0:
256,192,19237,1,8,0:0:0:0:
256,192,19365,1,0,0:0:0:0:
256,192,19429,1,8,0:0:0:0:
256,192,19493,1,8,0:0:0:0:
256,192,19557,1,8,0:0:0:0:
256,192,19621,1,0,0:0:0:0:
256,192,19685,1,8,0:0:0:0:
256,192,19749,1,0,0:0:0:0:
256,192,19814,1,0,0:0:0:0:
256,192,19878,1,8,0:0:0:0:
256,192,19942,1,8,0:0:0:0:
256,192,20006,1,0,0:0:0:0:
256,192,20134,1,8,0:0:0:0:
256,192,20198,1,0,0:0:0:0:
256,192,20262,1,8,0:0:0:0:
256,192,20326,1,0,0:0:0:0:
256,192,20391,1,8,0:0:0:0:
256,192,20455,1,0,0:0:0:0:
256,192,20519,1,8,0:0:0:0:
256,192,20583,1,0,0:0:0:0:
256,192,20647,1,8,0:0:0:0:
256,192,20711,1,0,0:0:0:0:
256,192,20775,1,8,0:0:0:0:
256,192,20839,1,0,0:0:0:0:
256,192,20903,1,8,0:0:0:0:
256,192,21032,1,0,0:0:0:0:
256,192,21160,1,0,0:0:0:0:
256,192,21224,1,0,0:0:0:0:
256,192,21288,1,8,0:0:0:0:
256,192,21352,1,0,0:0:0:0:
256,192,21416,1,8,0:0:0:0:
256,192,21480,1,8,0:0:0:0:
256,192,21544,1,0,0:0:0:0:
256,192,21608,1,0,0:0:0:0:
256,192,21673,1,8,0:0:0:0:
256,192,21737,1,8,0:0:0:0:
256,192,21801,1,8,0:0:0:0:
256,192,21865,1,8,0:0:0:0:
256,192,21929,1,0,0:0:0:0:
256,192,22057,1,0,0:0:0:0:
256,192,22185,1,8,0:0:0:0:
256,192,22249,1,0,0:0:0:0:
256,192,22314,1,8,0:0:0:0:
256,192,22378,1,0,0:0:0:0:
256,192,22442,1,8,0:0:0:0:
256,192,22506,1,0,0:0:0:0:
256,192,22570,1,8,0:0:0:0:
256,192,22634,1,0,0:0:0:0:
256,192,22698,1,8,0:0:0:0:
256,192,22762,1,0,0:0:0:0:
256,192,22826,1,8,0:0:0:0:
256,192,22891,1,0,0:0:0:0:
256,192,22955,1,8,0:0:0:0:
256,192,23083,1,0,0:0:0:0:
256,192,23147,1,0,0:0:0:0:
256,192,23211,1,8,0:0:0:0:
256,192,23339,1,8,0:0:0:0:
256,192,23403,1,0,0:0:0:0:
256,192,23467,1,8,0:0:0:0:
256,192,23532,1,8,0:0:0:0:
256,192,23596,1,0,0:0:0:0:
256,192,23660,1,0,0:0:0:0:
256,192,23724,1,8,0:0:0:0:
256,192,23788,1,8,0:0:0:0:
256,192,23852,1,8,0:0:0:0:
256,192,23916,1,8,0:0:0:0:
256,192,23980,1,0,0:0:0:0:
256,192,24151,1,0,0:0:0:0:
256,192,24237,1,0,0:0:0:0:
256,192,24322,1,8,0:0:0:0:
256,192,24493,1,8,0:0:0:0:
256,192,24664,1,0,0:0:0:0:
256,192,24749,1,8,0:0:0:0:
256,192,24835,1,8,0:0:0:0:
256,192,25006,1,4,0:0:0:0:
256,192,25262,1,8,0:0:0:0:
256,192,25391,1,8,0:0:0:0:
256,192,25519,1,0,0:0:0:0:
256,192,25775,1,0,0:0:0:0:
256,192,26032,1,8,0:0:0:0:
256,192,26288,1,8,0:0:0:0:
256,192,26544,1,0,0:0:0:0:
256,192,26801,1,8,0:0:0:0:
256,192,27057,1,0,0:0:0:0:
256,192,27314,1,0,0:0:0:0:
256,192,27442,1,8,0:0:0:0:
256,192,27570,1,0,0:0:0:0:
256,192,27826,1,8,0:0:0:0:
256,192,28083,1,0,0:0:0:0:
256,192,28339,1,0,0:0:0:0:
256,192,28596,1,8,0:0:0:0:
256,192,28852,1,8,0:0:0:0:
256,192,29108,1,0,0:0:0:0:
256,192,29365,1,0,0:0:0:0:
256,192,29493,1,8,0:0:0:0:
256,192,29621,1,8,0:0:0:0:
256,192,29878,1,8,0:0:0:0:
256,192,30134,1,0,0:0:0:0:
256,192,30390,1,8,0:0:0:0:
256,192,30647,1,0,0:0:0:0:
256,192,30903,1,8,0:0:0:0:
256,192,31160,1,0,0:0:0:0:
256,192,31416,1,0,0:0:0:0:
256,192,31544,1,8,0:0:0:0:
256,192,31673,1,0,0:0:0:0:
256,192,31929,1,0,0:0:0:0:
256,192,32057,1,8,0:0:0:0:
256,192,32185,1,8,0:0:0:0:
256,192,32356,1,0,0:0:0:0:
256,192,32527,1,0,0:0:0:0:
256,192,32698,1,8,0:0:0:0:
256,192,32869,1,8,0:0:0:0:
256,192,33040,1,8,0:0:0:0:
256,192,33211,1,4,0:0:0:0:
256,192,33467,1,8,0:0:0:0:
256,192,33532,1,0,0:0:0:0:
256,192,33596,1,8,0:0:0:0:
256,192,33660,1,0,0:0:0:0:
256,192,33724,1,8,0:0:0:0:
256,192,33788,1,0,0:0:0:0:
256,192,33852,1,0,0:0:0:0:
256,192,33916,1,0,0:0:0:0:
256,192,33980,1,8,0:0:0:0:
256,192,34044,1,8,0:0:0:0:
256,192,34108,1,8,0:0:0:0:
256,192,34173,1,8,0:0:0:0:
256,192,34237,1,0,0:0:0:0:
256,192,34365,1,0,0:0:0:0:
256,192,34493,1,8,0:0:0:0:
256,192,34557,1,0,0:0:0:0:
256,192,34621,1,8,0:0:0:0:
256,192,34685,1,0,0:0:0:0:
256,192,34749,1,8,0:0:0:0:
256,192,34814,1,0,0:0:0:0:
256,192,34878,1,8,0:0:0:0:
256,192,34942,1,0,0:0:0:0:
256,192,35006,1,8,0:0:0:0:
256,192,35070,1,0,0:0:0:0:
256,192,35134,1,8,0:0:0:0:
256,192,35198,1,0,0:0:0:0:
256,192,35262,1,8,0:0:0:0:
256,192,35391,1,0,0:0:0:0:
256,192,35455,1,0,0:0:0:0:
256,192,35519,1,8,0:0:0:0:
256,192,35583,1,0,0:0:0:0:
256,192,35647,1,8,0:0:0:0:
256,192,35775,1,8,0:0:0:0:
256,192,35839,1,8,0:0:0:0:
256,192,35903,1,0,0:0:0:0:
256,192,35967,1,8,0:0:0:0:
256,192,36032,1,0,0:0:0:0:
256,192,36096,1,0,0:0:0:0:
256,192,36160,1,8,0:0:0:0:
256,192,36224,1,0,0:0:0:0:
256,192,36288,1,8,0:0:0:0:
256,192,36352,1,8,0:0:0:0:
256,192,36416,1,0,0:0:0:0:
256,192,36544,1,8,0:0:0:0:
256,192,36608,1,0,0:0:0:0:
256,192,36673,1,8,0:0:0:0:
256,192,36737,1,0,0:0:0:0:
256,192,36801,1,8,0:0:0:0:
256,192,36865,1,0,0:0:0:0:
256,192,36929,1,8,0:0:0:0:
256,192,36993,1,0,0:0:0:0:
256,192,37057,1,8,0:0:0:0:
256,192,37121,1,0,0:0:0:0:
256,192,37185,1,8,0:0:0:0:
256,192,37249,1,0,0:0:0:0:
256,192,37314,1,8,0:0:0:0:
256,192,37442,1,0,0:0:0:0:
256,192,37506,1,8,0:0:0:0:
256,192,37570,1,8,0:0:0:0:
256,192,37634,1,0,0:0:0:0:
256,192,37698,1,8,0:0:0:0:
256,192,37826,1,0,0:0:0:0:
256,192,37891,1,0,0:0:0:0:
256,192,37955,1,0,0:0:0:0:
256,192,38019,1,0,0:0:0:0:
256,192,38083,1,8,0:0:0:0:
256,192,38147,1,8,0:0:0:0:
256,192,38211,1,8,0:0:0:0:
256,192,38275,1,8,0:0:0:0:
256,192,38339,1,0,0:0:0:0:
256,192,38467,1,0,0:0:0:0:
256,192,38596,1,8,0:0:0:0:
256,192,38660,1,0,0:0:0:0:
256,192,38724,1,8,0:0:0:0:
256,192,38788,1,0,0:0:0:0:
256,192,38852,1,8,0:0:0:0:
256,192,38916,1,0,0:0:0:0:
256,192,38980,1,8,0:0:0:0:
256,192,39044,1,0,0:0:0:0:
256,192,39108,1,8,0:0:0:0:
256,192,39173,1,0,0:0:0:0:
256,192,39237,1,8,0:0:0:0:
256,192,39301,1,0,0:0:0:0:
256,192,39365,1,8,0:0:0:0:
256,192,39493,1,0,0:0:0:0:
256,192,39621,1,0,0:0:0:0:
256,192,39685,1,0,0:0:0:0:
256,192,39749,1,8,0:0:0:0:
256,192,39814,1,0,0:0:0:0:
256,192,39878,1,8,0:0:0:0:
256,192,39942,1,8,0:0:0:0:
256,192,40006,1,0,0:0:0:0:
256,192,40070,1,0,0:0:0:0:
256,192,40134,1,8,0:0:0:0:
256,192,40198,1,0,0:0:0:0:
256,192,40262,1,0,0:0:0:0:
256,192,40326,1,0,0:0:0:0:
256,192,40391,1,8,0:0:0:0:
256,192,40647,1,0,0:0:0:0:
256,192,40903,1,8,0:0:0:0:
256,192,41160,1,8,0:0:0:0:
256,192,41288,1,8,0:0:0:0:
256,192,41416,1,0,0:0:0:0:
256,192,41587,1,8,0:0:0:0:
256,192,41758,1,8,0:0:0:0:
256,192,41929,1,0,0:0:0:0:
256,192,42100,1,8,0:0:0:0:
256,192,42271,1,0,0:0:0:0:
256,192,42442,1,8,0:0:0:0:
256,192,42698,1,0,0:0:0:0:
256,192,42955,1,8,0:0:0:0:
256,192,43211,1,8,0:0:0:0:
256,192,43467,1,0,0:0:0:0:
256,192,43852,1,8,0:0:0:0:
256,192,44237,1,0,0:0:0:0:
256,192,44493,1,0,0:0:0:0:
256,192,44749,1,8,0:0:0:0:
256,192,44878,1,0,0:0:0:0:
256,192,45134,1,0,0:0:0:0:
256,192,45262,1,8,0:0:0:0:
256,192,45519,1,8,0:0:0:0:
256,192,45903,1,8,0:0:0:0:
256,192,46288,1,0,0:0:0:0:
256,192,46544,1,0,0:0:0:0:
256,192,46801,1,0,0:0:0:0:
256,192,47057,1,0,0:0:0:0:
256,192,47314,1,8,0:0:0:0:
256,192,47570,1,0,0:0:0:0:
256,192,47955,1,8,0:0:0:0:
256,192,48339,1,0,0:0:0:0:
256,192,48596,1,8,0:0:0:0:
256,192,48852,1,0,0:0:0:0:
256,192,48980,1,8,0:0:0:0:
256,192,49108,1,0,0:0:0:0:
256,192,49237,1,0,0:0:0:0:
256,192,49365,1,8,0:0:0:0:
256,192,49621,1,4,0:0:0:0:
256,192,50006,1,8,0:0:0:0:
256,192,50134,1,8,0:0:0:0:
256,192,50391,1,0,0:0:0:0:
256,192,50647,1,8,0:0:0:0:
256,192,50903,1,8,0:0:0:0:
256,192,51032,1,0,0:0:0:0:
256,192,51160,1,8,0:0:0:0:
256,192,51416,1,0,0:0:0:0:
256,192,51673,1,8,0:0:0:0:
256,192,52057,1,0,0:0:0:0:
256,192,52185,1,8,0:0:0:0:
256,192,52442,1,0,0:0:0:0:
256,192,52698,1,0,0:0:0:0:
256,192,52955,1,8,0:0:0:0:
256,192,53083,1,8,0:0:0:0:
256,192,53211,1,0,0:0:0:0:
256,192,53467,1,8,0:0:0:0:
256,192,53724,1,8,0:0:0:0:
256,192,53980,1,0,0:0:0:0:
256,192,54108,1,8,0:0:0:0:
256,192,54237,1,0,0:0:0:0:
256,192,54493,1,8,0:0:0:0:
256,192,54749,1,0,0:0:0:0:
256,192,55006,1,8,0:0:0:0:
256,192,55134,1,0,0:0:0:0:
256,192,55262,1,8,0:0:0:0:
256,192,55519,1,8,0:0:0:0:
256,192,55775,1,0,0:0:0:0:
256,192,56032,1,8,0:0:0:0:
256,192,56288,1,0,0:0:0:0:
256,192,56544,1,8,0:0:0:0:
256,192,56673,1,8,0:0:0:0:
256,192,56801,1,0,0:0:0:0:
256,192,56972,1,0,0:0:0:0:
256,192,57143,1,8,0:0:0:0:
256,192,57314,1,0,0:0:0:0:
256,192,57485,1,8,0:0:0:0:
256,192,57655,1,8,0:0:0:0:
256,192,57826,1,4,0:0:0:0:
256,192,58083,1,8,0:0:0:0:
256,192,58211,1,0,0:0:0:0:
256,192,58275,1,0,0:0:0:0:
256,192,58339,1,8,0:0:0:0:
256,192,58403,1,8,0:0:0:0:
256,192,58467,1,0,0:0:0:0:
256,192,58532,1,0,0:0:0:0:
256,192,58596,1,8,0:0:0:0:
256,192,58660,1,8,0:0:0:0:
256,192,58724,1,8,0:0:0:0:
256,192,58788,1,8,0:0:0:0:
256,192,58852,1,0,0:0:0:0:
256,192,58980,1,0,0:0:0:0:
256,192,59108,1,8,0:0:0:0:
256,192,59173,1,0,0:0:0:0:
256,192,59237,1,8,0:0:0:0:
256,192,59301,1,0,0:0:0:0:
256,192,59365,1,8,0:0:0:0:
256,192,59429,1,0,0:0:0:0:
256,192,59493,1,8,0:0:0:0:
256,192,59557,1,0,0:0:0:0:
256,192,59621,1,8,0:0:0:0:
256,192,59685,1,0,0:0:0:0:
256,192,59749,1,8,0:0:0:0:
256,192,59814,1,0,0:0:0:0:
256,192,59878,1,8,0:0:0:0:
256,192,60006,1,0,0:0:0:0:
256,192,60070,1,0,0:0:0:0:
256,192,60134,1,8,0:0:0:0:
256,192,60262,1,0,0:0:0:0:
256,192,60390,1,0,0:0:0:0:
256,192,60455,1,8,0:0:0:0:
256,192,60519,1,0,0:0:0:0:
256,192,60583,1,0,0:0:0:0:
256,192,60647,1,8,0:0:0:0:
256,192,60711,1,0,0:0:0:0:
256,192,60775,1,0,0:0:0:0:
256,192,60839,1,0,0:0:0:0:
256,192,60903,1,8,0:0:0:0:
256,192,60967,1,8,0:0:0:0:
256,192,61032,1,0,0:0:0:0:
256,192,61160,1,8,0:0:0:0:
256,192,61224,1,0,0:0:0:0:
256,192,61288,1,8,0:0:0:0:
256,192,61352,1,0,0:0:0:0:
256,192,61416,1,8,0:0:0:0:
256,192,61480,1,0,0:0:0:0:
256,192,61544,1,8,0:0:0:0:
256,192,61608,1,0,0:0:0:0:
256,192,61673,1,8,0:0:0:0:
256,192,61737,1,0,0:0:0:0:
256,192,61801,1,8,0:0:0:0:
256,192,61865,1,0,0:0:0:0:
256,192,61929,1,8,0:0:0:0:
256,192,62057,1,0,0:0:0:0:
256,192,62185,1,8,0:0:0:0:
256,192,62249,1,0,0:0:0:0:
256,192,62314,1,8,0:0:0:0:
256,192,62442,1,8,0:0:0:0:
256,192,62506,1,8,0:0:0:0:
256,192,62570,1,8,0:0:0:0:
256,192,62634,1,8,0:0:0:0:
256,192,62698,1,0,0:0:0:0:
256,192,62762,1,0,0:0:0:0:
256,192,62826,1,8,0:0:0:0:
256,192,62890,1,8,0:0:0:0:
256,192,62955,1,0,0:0:0:0:
256,192,63083,1,0,0:0:0:0:
256,192,63211,1,8,0:0:0:0:
256,192,63275,1,0,0:0:0:0:
256,192,63339,1,8,0:0:0:0:
256,192,63403,1,0,0:0:0:0:
256,192,63467,1,8,0:0:0:0:
256,192,63532,1,0,0:0:0:0:
256,192,63596,1,8,0:0:0:0:
256,192,63660,1,0,0:0:0:0:
256,192,63724,1,8,0:0:0:0:
256,192,63788,1,0,0:0:0:0:
256,192,63852,1,8,0:0:0:0:
256,192,63916,1,0,0:0:0:0:
256,192,63980,1,8,0:0:0:0:
256,192,64108,1,0,0:0:0:0:
256,192,64173,1,8,0:0:0:0:
256,192,64237,1,0,0:0:0:0:
256,192,64301,1,0,0:0:0:0:
256,192,64365,1,8,0:0:0:0:
256,192,64493,1,8,0:0:0:0:
256,192,64557,1,8,0:0:0:0:
256,192,64621,1,0,0:0:0:0:
256,192,64685,1,0,0:0:0:0:
256,192,64749,1,8,0:0:0:0:
256,192,64814,1,0,0:0:0:0:
256,192,64878,1,8,0:0:0:0:
256,192,64942,1,8,0:0:0:0:
256,192,65006,1,0,0:0:0:0:
256,192,65177,1,8,0:0:0:0:
256,192,65262,1,8,0:0:0:0:
256,192,65348,1,0,0:0:0:0:
256,192,65519,1,8,0:0:0:0:
256,192,65690,1,8,0:0:0:0:
256,192,65775,1,0,0:0:0:0:
256,192,65861,1,8,0:0:0:0:
256,192,66032,1,4,0:0:0:0:
256,192,66288,1,0,0:0:0:0:
256,192,66416,1,8,0:0:0:0:
256,192,66480,1,8,0:0:0:0:
256,192,66544,1,0,0:0:0:0:
256,192,66608,1,8,0:0:0:0:
256,192,66673,1,0,0:0:0:0:
256,192,66737,1,0,0:0:0:0:
256,192,66801,1,8,0:0:0:0:
256,192,66865,1,0,0:0:0:0:
256,192,66929,1,0,0:0:0:0:
256,192,66993,1,0,0:0:0:0:
256,192,67057,1,8,0:0:0:0:
256,192,67185,1,0,0:0:0:0:
256,192,67314,1,8,0:0:0:0:
256,192,67378,1,0,0:0:0:0:
256,192,67442,1,8,0:0:0:0:
256,192,67506,1,0,0:0:0:0:
256,192,67570,1,8,0:0:0:0:
256,192,67634,1,0,0:0:0:0:
256,192,67698,1,8,0:0:0:0:
256,192,67762,1,0,0:0:0:0:
256,192,67826,1,8,0:0:0:0:
256,192,67891,1,0,0:0:0:0:
256,192,67955,1,8,0:0:0:0:
256,192,68019,1,0,0:0:0:0:
256,192,68083,1,8,0:0:0:0:
256,192,68211,1,0,0:0:0:0:
256,192,68275,1,0,0:0:0:0:
256,192,68339,1,8,0:0:0:0:
256,192,68403,1,0,0:0:0:0:
256,192,68467,1,8,0:0:0:0:
256,192,68596,1,0,0:0:0:0:
256,192,68660,1,8,0:0:0:0:
256,192,68724,1,8,0:0:0:0:
256,192,68788,1,8,0:0:0:0:
256,192,68852,1,0,0:0:0:0:
256,192,68916,1,8,0:0:0:0:
256,192,68980,1,0,0:0:0:0:
256,192,69044,1,0,0:0:0:0:
256,192,69108,1,8,0:0:0:0:
256,192,69173,1,8,0:0:0:0:
256,192,69237,1,0,0:0:0:0:
256,192,69365,1,8,0:0:0:0:
256,192,69429,1,0,0:0:0:0:
256,192,69493,1,8,0:0:0:0:
256,192,69557,1,0,0:0:0:0:
256,192,69621,1,8,0:0:0:0:
256,192,69685,1,0,0:0:0:0:
256,192,69749,1,8,0:0:0:0:
256,192,69814,1,0,0:0:0:0:
256,192,69878,1,8,0:0:0:0:
256,192,69942,1,0,0:0:0:0:
256,192,70006,1,8,0:0:0:0:
256,192,70070,1,0,0:0:0:0:
256,192,70134,1,8,0:0:0:0:
256,192,70262,1,0,0:0:0:0:
256,192,70391,1,0,0:0:0:0:
256,192,70455,1,0,0:0:0:0:
256,192,70519,1,8,0:0:0:0:
256,192,70583,1,0,0:0:0:0:
256,192,70647,1,8,0:0:0:0:
256,192,70711,1,8,0:0:0:0:
256,192,70775,1,0,0:0:0:0:
256,192,70839,1,0,0:0:0:0:
256,192,70903,1,8,0:0:0:0:
256,192,70967,1,8,0:0:0:0:
256,192,71032,1,8,0:0:0:0:
256,192,71096,1,8,0:0:0:0:
256,192,71160,1,0,0:0:0:0:
256,192,71288,1,0,0:0:0:0:
256,192,71416,1,8,0:0:0:0:
256,192,71480,1,0,0:0:0:0:
256,192,71544,1,8,0:0:0:0:
256,192,71608,1,0,0:0:0:0:
256,192,71673,1,8,0:0:0:0:
256,192,71737,1,0,0:0:0:0:
256,192,71801,1,8,0:0:0:0:
256,192,71865,1,0,0:0:0:0:
256,192,71929,1,8,0:0:0:0:
256,192,71993,1,0,0:0:0:0:
256,192,72057,1,8,0:0:0:0:
256,192,72121,1,0,0:0:0:0:
256,192,72185,1,8,0:0:0:0:
256,192,72314,1,0,0:0:0:0:
256,192,72378,1,0,0:0:0:0:
256,192,72442,1,8,0:0:0:0:
256,192,72570,1,8,0:0:0:0:
256,192,72634,1,0,0:0:0:0:
256,192,72698,1,8,0:0:0:0:
256,192,72762,1,8,0:0:0:0:
256,192,72826,1,0,0:0:0:0:
256,192,72891,1,0,0:0:0:0:
256,192,72955,1,8,0:0:0:0:
256,192,73019,1,8,0:0:0:0:
256,192,73083,1,8,0:0:0:0:
256,192,73147,1,8,0:0:0:0:
256,192,73211,1,0,0:0:0:0:
256,192,73467,1,0,0:0:0:0:
256,192,73724,1,8,0:0:0:0:
256,192,73980,1,8,0:0:0:0:
256,192,74237,1,4,0:0:0:0:
