osu file format v14

[General]
AudioFilename: audio.ogg
AudioLeadIn: 0
PreviewTime: 156424
Countdown: 0
SampleSet: Soft
StackLeniency: 0.7
Mode: 3
LetterboxInBreaks: 0
SpecialStyle: 0
WidescreenStoryboard: 0

[Editor]
DistanceSpacing: 1
BeatDivisor: 4
GridSize: 32
TimelineZoom: 2.699999

[Metadata]
Title:Worth The Lie
TitleUnicode:Worth The Lie
Artist:MUZZ, Koven & Feint
ArtistUnicode:MUZZ, Koven & Feint
Creator:Ilham
Version:Easy
Source:
Tags:Critical_Star fa featured artist mg mpg mappers' guild muzzy dnb d&b drum and bass dancefloor edm electronic dance music english monstercat uncaged vol. 3
BeatmapID:4524169
BeatmapSetID:2136934

[Difficulty]
HPDrainRate:6.5
CircleSize:4
OverallDifficulty:6.5
ApproachRate:5
SliderMultiplier:1.4
SliderTickRate:1

[Events]
//Background and Video events
0,0,"48286032_p0.jpg",0,0
//Break Periods
//Storyboard Layer 0 (Background)
//Storyboard Layer 1 (Fail)
//Storyboard Layer 2 (Pass)
//Storyboard Layer 3 (Foreground)
//Storyboard Layer 4 (Overlay)
//Storyboard Sound Samples

[TimingPoints]
4367,342.857142857143,4,2,1,40,1,0
71567,-100,4,2,1,40,0,1
93509,-100,4,2,1,40,0,0
162081,-100,4,2,1,40,0,1
184024,-100,4,2,1,40,0,0

[HitObjects]
448,192,5738,5,0,0:0:0:0:
64,192,5738,1,0,0:0:0:0:
448,192,7109,1,0,0:0:0:0:
192,192,8481,1,0,0:0:0:0:
192,192,9852,1,0,0:0:0:0:
320,192,11224,1,0,0:0:0:0:
320,192,12595,1,0,0:0:0:0:
64,192,13967,1,0,0:0:0:0:
64,192,15338,128,0,16024:0:0:0:0:
448,192,16709,1,0,0:0:0:0:
320,192,18081,1,0,0:0:0:0:
192,192,19452,1,0,0:0:0:0:
64,192,20824,1,0,0:0:0:0:
192,192,22195,1,0,0:0:0:0:
320,192,23567,1,0,0:0:0:0:
448,192,24938,1,0,0:0:0:0:
64,192,26309,128,0,27681:0:0:0:0:
448,192,27681,1,0,0:0:0:0:
320,192,28024,1,0,0:0:0:0:
192,192,28367,1,0,0:0:0:0:
448,192,28709,1,0,0:0:0:0:
64,192,29052,128,0,29738:0:0:0:0:
320,192,29738,128,0,30081:0:0:0:0:
192,192,30424,1,0,0:0:0:0:
448,192,30767,1,0,0:0:0:0:
64,192,31109,1,0,0:0:0:0:
320,192,31452,1,0,0:0:0:0:
192,192,31795,1,0,0:0:0:0:
448,192,32138,1,0,0:0:0:0:
320,192,32481,128,0,32824:0:0:0:0:
64,192,33167,1,0,0:0:0:0:
192,192,33509,1,0,0:0:0:0:
448,192,33852,1,0,0:0:0:0:
64,192,34195,1,0,0:0:0:0:
320,192,34538,128,0,35224:0:0:0:0:
192,192,35224,128,0,35567:0:0:0:0:
448,192,35909,1,0,0:0:0:0:
64,192,36252,1,0,0:0:0:0:
320,192,36595,1,0,0:0:0:0:
192,192,36938,1,0,0:0:0:0:
64,192,37281,1,0,0:0:0:0:
320,192,37624,1,0,0:0:0:0:
448,192,37967,128,0,38309:0:0:0:0:
64,192,38652,1,0,0:0:0:0:
320,192,38995,1,0,0:0:0:0:
192,192,39338,1,0,0:0:0:0:
448,192,39681,1,0,0:0:0:0:
320,192,40024,128,0,40709:0:0:0:0:
64,192,40709,128,0,41052:0:0:0:0:
448,192,41395,1,0,0:0:0:0:
192,192,41738,1,0,0:0:0:0:
320,192,42081,1,0,0:0:0:0:
448,192,42424,1,0,0:0:0:0:
64,192,42767,1,0,0:0:0:0:
192,192,43109,1,0,0:0:0:0:
320,192,43452,128,0,43795:0:0:0:0:
64,192,44138,1,0,0:0:0:0:
448,192,44481,1,0,0:0:0:0:
320,192,44824,1,0,0:0:0:0:
192,192,45167,1,0,0:0:0:0:
64,192,45509,1,0,0:0:0:0:
320,192,45852,5,0,0:0:0:0:
448,192,46195,128,0,46538:0:0:0:0:
192,192,46881,1,0,0:0:0:0:
320,192,47224,1,0,0:0:0:0:
64,192,47567,1,0,0:0:0:0:
320,192,47909,1,0,0:0:0:0:
448,192,48252,1,0,0:0:0:0:
192,192,48595,1,0,0:0:0:0:
64,192,48938,128,0,49624:0:0:0:0:
448,192,49624,5,0,0:0:0:0:
448,192,49967,1,0,0:0:0:0:
192,192,50481,1,0,0:0:0:0:
320,192,50995,1,0,0:0:0:0:
64,192,51509,1,0,0:0:0:0:
320,192,52024,1,0,0:0:0:0:
192,192,52367,1,0,0:0:0:0:
192,192,52709,1,0,0:0:0:0:
448,192,53224,1,0,0:0:0:0:
64,192,53738,1,0,0:0:0:0:
320,192,54252,1,0,0:0:0:0:
192,192,54767,1,0,0:0:0:0:
320,192,55109,1,0,0:0:0:0:
448,192,55109,1,0,0:0:0:0:
64,192,55452,1,0,0:0:0:0:
320,192,55452,1,0,0:0:0:0:
192,192,55795,1,0,0:0:0:0:
448,192,55967,1,0,0:0:0:0:
448,192,56309,1,0,0:0:0:0:
64,192,56481,1,0,0:0:0:0:
64,192,56824,1,0,0:0:0:0:
320,192,56995,1,0,0:0:0:0:
320,192,57338,1,0,0:0:0:0:
192,192,57509,1,0,0:0:0:0:
448,192,57681,1,0,0:0:0:0:
192,192,57852,1,0,0:0:0:0:
64,192,57852,1,0,0:0:0:0:
320,192,58195,1,0,0:0:0:0:
64,192,58195,1,0,0:0:0:0:
192,192,58538,1,0,0:0:0:0:
448,192,58709,1,0,0:0:0:0:
448,192,59052,1,0,0:0:0:0:
64,192,59224,1,0,0:0:0:0:
64,192,59567,1,0,0:0:0:0:
320,192,59738,1,0,0:0:0:0:
448,192,60081,1,0,0:0:0:0:
64,192,60252,1,0,0:0:0:0:
448,192,60424,1,0,0:0:0:0:
192,192,60595,1,0,0:0:0:0:
64,192,60595,1,0,0:0:0:0:
192,192,60938,1,0,0:0:0:0:
320,192,61281,1,0,0:0:0:0:
320,192,61624,1,0,0:0:0:0:
64,192,61967,1,0,0:0:0:0:
64,192,62309,1,0,0:0:0:0:
448,192,62652,1,0,0:0:0:0:
448,192,62995,1,0,0:0:0:0:
192,192,63338,1,0,0:0:0:0:
192,192,63681,1,0,0:0:0:0:
64,192,64024,1,0,0:0:0:0:
64,192,64367,1,0,0:0:0:0:
320,192,64709,1,0,0:0:0:0:
320,192,65052,1,0,0:0:0:0:
448,192,65395,1,0,0:0:0:0:
64,192,65567,1,0,0:0:0:0:
448,192,65738,1,0,0:0:0:0:
320,192,65909,1,0,0:0:0:0:
192,192,66081,128,0,66424:0:0:0:0:
448,192,66424,128,0,66938:0:0:0:0:
320,192,66938,128,0,67452:0:0:0:0:
64,192,67452,128,0,67967:0:0:0:0:
192,192,67967,128,0,68481:0:0:0:0:
448,192,68481,128,0,68824:0:0:0:0:
64,192,68824,128,0,69167:0:0:0:0:
320,192,69167,128,0,69681:0:0:0:0:
192,192,69681,128,0,70195:0:0:0:0:
448,192,70195,128,0,70881:0:0:0:0:
64,192,70881,1,0,0:0:0:0:
320,192,71052,1,0,0:0:0:0:
192,192,71224,1,0,0:0:0:0:
64,192,71395,1,0,0:0:0:0:
320,192,71567,1,0,0:0:0:0:
448,192,71567,1,0,0:0:0:0:
64,192,71909,1,0,0:0:0:0:
192,192,72252,1,0,0:0:0:0:
448,192,72424,1,0,0:0:0:0:
64,192,72595,1,0,0:0:0:0:
320,192,72938,1,0,0:0:0:0:
64,192,73281,1,0,0:0:0:0:
448,192,73624,1,0,0:0:0:0:
64,192,73795,1,0,0:0:0:0:
320,192,73967,1,0,0:0:0:0:
192,192,74309,1,0,0:0:0:0:
448,192,74652,1,0,0:0:0:0:
64,192,74995,1,0,0:0:0:0:
448,192,75167,1,0,0:0:0:0:
192,192,75338,1,0,0:0:0:0:
64,192,75681,1,0,0:0:0:0:
448,192,76024,1,0,0:0:0:0:
320,192,76367,1,0,0:0:0:0:
64,192,76538,1,0,0:0:0:0:
448,192,76709,1,0,0:0:0:0:
192,192,77052,1,0,0:0:0:0:
192,192,77395,1,0,0:0:0:0:
448,192,77738,1,0,0:0:0:0:
64,192,77909,1,0,0:0:0:0:
320,192,78081,1,0,0:0:0:0:
192,192,78252,1,0,0:0:0:0:
448,192,78424,1,0,0:0:0:0:
448,192,78767,1,0,0:0:0:0:
64,192,79109,1,0,0:0:0:0:
192,192,79281,1,0,0:0:0:0:
448,192,79452,1,0,0:0:0:0:
320,192,79624,1,0,0:0:0:0:
64,192,79795,1,0,0:0:0:0:
64,192,80138,1,0,0:0:0:0:
320,192,80481,1,0,0:0:0:0:
64,192,80652,1,0,0:0:0:0:
192,192,80824,1,0,0:0:0:0:
448,192,80995,1,0,0:0:0:0:
320,192,81167,1,0,0:0:0:0:
320,192,81509,1,0,0:0:0:0:
192,192,81852,1,0,0:0:0:0:
448,192,82024,1,0,0:0:0:0:
64,192,82195,1,0,0:0:0:0:
320,192,82367,1,0,0:0:0:0:
192,192,82538,1,0,0:0:0:0:
448,192,82881,1,0,0:0:0:0:
192,192,83224,1,0,0:0:0:0:
320,192,83395,1,0,0:0:0:0:
448,192,83567,1,0,0:0:0:0:
320,192,83909,1,0,0:0:0:0:
64,192,84252,1,0,0:0:0:0:
320,192,84595,1,0,0:0:0:0:
192,192,84767,1,0,0:0:0:0:
64,192,84938,1,0,0:0:0:0:
320,192,85281,1,0,0:0:0:0:
448,192,85624,1,0,0:0:0:0:
64,192,85967,1,0,0:0:0:0:
192,192,86138,1,0,0:0:0:0:
448,192,86309,1,0,0:0:0:0:
192,192,86652,1,0,0:0:0:0:
64,192,86995,1,0,0:0:0:0:
448,192,87167,1,0,0:0:0:0:
192,192,87338,1,0,0:0:0:0:
192,192,87681,1,0,0:0:0:0:
320,192,87852,1,0,0:0:0:0:
448,192,88024,1,0,0:0:0:0:
64,192,88024,1,0,0:0:0:0:
64,192,88367,1,0,0:0:0:0:
448,192,88709,1,0,0:0:0:0:
320,192,88881,1,0,0:0:0:0:
64,192,89052,1,0,0:0:0:0:
192,192,89224,1,0,0:0:0:0:
320,192,89395,1,0,0:0:0:0:
448,192,89738,1,0,0:0:0:0:
320,192,89909,1,0,0:0:0:0:
64,192,90081,1,0,0:0:0:0:
192,192,90252,1,0,0:0:0:0:
448,192,90424,1,0,0:0:0:0:
64,192,90767,1,0,0:0:0:0:
64,192,91109,1,0,0:0:0:0:
448,192,91452,1,0,0:0:0:0:
192,192,91624,1,0,0:0:0:0:
64,192,91795,1,0,0:0:0:0:
320,192,91967,1,0,0:0:0:0:
192,192,92138,128,0,92652:0:0:0:0:
320,192,92652,128,0,93167:0:0:0:0:
64,192,93167,1,0,0:0:0:0:
192,192,93509,1,0,0:0:0:0:
448,192,93509,1,0,0:0:0:0:
320,192,93852,1,0,0:0:0:0:
64,192,94195,1,0,0:0:0:0:
320,192,94367,1,0,0:0:0:0:
192,192,94538,1,0,0:0:0:0:
448,192,94881,1,0,0:0:0:0:
64,192,95224,1,0,0:0:0:0:
320,192,95567,1,0,0:0:0:0:
64,192,95738,1,0,0:0:0:0:
448,192,95909,1,0,0:0:0:0:
192,192,96252,1,0,0:0:0:0:
448,192,96595,1,0,0:0:0:0:
64,192,96938,1,0,0:0:0:0:
448,192,97109,1,0,0:0:0:0:
192,192,97281,1,0,0:0:0:0:
320,192,97624,1,0,0:0:0:0:
64,192,97967,1,0,0:0:0:0:
448,192,98309,1,0,0:0:0:0:
64,192,98481,1,0,0:0:0:0:
320,192,98652,1,0,0:0:0:0:
192,192,98995,1,0,0:0:0:0:
448,192,99338,1,0,0:0:0:0:
64,192,99681,1,0,0:0:0:0:
192,192,99852,1,0,0:0:0:0:
448,192,100024,1,0,0:0:0:0:
320,192,100367,1,0,0:0:0:0:
64,192,100709,1,0,0:0:0:0:
448,192,101052,1,0,0:0:0:0:
320,192,101224,1,0,0:0:0:0:
64,192,101395,1,0,0:0:0:0:
192,192,101738,1,0,0:0:0:0:
448,192,102081,1,0,0:0:0:0:
64,192,102424,1,0,0:0:0:0:
320,192,102595,1,0,0:0:0:0:
448,192,102767,1,0,0:0:0:0:
192,192,103109,1,0,0:0:0:0:
64,192,103452,128,0,104138:0:0:0:0:
448,192,104138,1,0,0:0:0:0:
192,192,104309,1,0,0:0:0:0:
320,192,104481,1,0,0:0:0:0:
64,192,104652,1,0,0:0:0:0:
448,192,104824,1,0,0:0:0:0:
192,192,105167,1,0,0:0:0:0:
448,192,105338,1,0,0:0:0:0:
64,192,105509,1,0,0:0:0:0:
320,192,105852,1,0,0:0:0:0:
64,192,106195,1,0,0:0:0:0:
448,192,106538,1,0,0:0:0:0:
64,192,106709,1,0,0:0:0:0:
320,192,106881,1,0,0:0:0:0:
192,192,107224,1,0,0:0:0:0:
448,192,107567,1,0,0:0:0:0:
64,192,107909,1,0,0:0:0:0:
448,192,108081,1,0,0:0:0:0:
192,192,108252,1,0,0:0:0:0:
320,192,108595,1,0,0:0:0:0:
64,192,108938,1,0,0:0:0:0:
448,192,109281,1,0,0:0:0:0:
192,192,109452,1,0,0:0:0:0:
64,192,109624,1,0,0:0:0:0:
320,192,109967,1,0,0:0:0:0:
320,192,110309,1,0,0:0:0:0:
192,192,110652,1,0,0:0:0:0:
192,192,110995,1,0,0:0:0:0:
448,192,111338,1,0,0:0:0:0:
448,192,111681,1,0,0:0:0:0:
64,192,112024,1,0,0:0:0:0:
320,192,112367,1,0,0:0:0:0:
64,192,112709,128,0,113052:0:0:0:0:
192,192,113052,128,0,113395:0:0:0:0:
320,192,113395,128,0,113738:0:0:0:0:
448,192,113738,128,0,114081:0:0:0:0:
64,192,114081,1,0,0:0:0:0:
320,192,114252,128,0,114767:0:0:0:0:
64,192,114767,1,0,0:0:0:0:
192,192,114938,1,0,0:0:0:0:
320,192,115109,1,0,0:0:0:0:
448,192,115281,1,0,0:0:0:0:
64,192,115452,1,0,0:0:0:0:
192,192,115452,1,0,0:0:0:0:
320,192,120024,1,0,0:0:0:0:
64,192,120538,1,0,0:0:0:0:
448,192,121409,1,0,0:0:0:0:
192,192,121924,1,0,0:0:0:0:
320,192,122767,1,0,0:0:0:0:
64,192,123281,1,0,0:0:0:0:
448,192,124152,1,0,0:0:0:0:
64,192,124667,1,0,0:0:0:0:
320,192,125509,1,0,0:0:0:0:
192,192,126024,1,0,0:0:0:0:
448,192,126938,1,0,0:0:0:0:
64,192,127452,1,0,0:0:0:0:
320,192,128267,1,0,0:0:0:0:
192,192,128781,1,0,0:0:0:0:
64,192,129652,1,0,0:0:0:0:
320,192,130167,1,0,0:0:0:0:
192,192,130988,1,0,0:0:0:0:
448,192,131502,1,0,0:0:0:0:
64,192,132381,1,0,0:0:0:0:
320,192,132895,1,0,0:0:0:0:
192,192,133731,1,0,0:0:0:0:
448,192,134245,1,0,0:0:0:0:
320,192,135124,1,0,0:0:0:0:
64,192,135638,128,0,137395:0:0:0:0:
448,192,137395,5,0,0:0:0:0:
192,192,137738,1,0,0:0:0:0:
320,192,138081,1,0,0:0:0:0:
64,192,138424,1,0,0:0:0:0:
448,192,138767,128,0,139452:0:0:0:0:
192,192,139452,128,0,139795:0:0:0:0:
320,192,140138,1,0,0:0:0:0:
64,192,140481,1,0,0:0:0:0:
448,192,140824,1,0,0:0:0:0:
192,192,141167,1,0,0:0:0:0:
320,192,141509,1,0,0:0:0:0:
448,192,141852,1,0,0:0:0:0:
64,192,142195,128,0,142538:0:0:0:0:
320,192,142881,1,0,0:0:0:0:
192,192,143224,1,0,0:0:0:0:
448,192,143567,1,0,0:0:0:0:
320,192,143909,1,0,0:0:0:0:
64,192,144252,128,0,144938:0:0:0:0:
448,192,144938,128,0,145281:0:0:0:0:
192,192,145624,1,0,0:0:0:0:
320,192,145967,1,0,0:0:0:0:
448,192,146309,1,0,0:0:0:0:
192,192,146652,1,0,0:0:0:0:
64,192,146995,128,0,147338:0:0:0:0:
320,192,147338,128,0,147681:0:0:0:0:
448,192,147681,128,0,148024:0:0:0:0:
192,192,148024,1,0,0:0:0:0:
64,192,148367,1,0,0:0:0:0:
320,192,148367,1,0,0:0:0:0:
64,192,148709,1,0,0:0:0:0:
192,192,149052,1,0,0:0:0:0:
192,192,149395,1,0,0:0:0:0:
448,192,149738,1,0,0:0:0:0:
448,192,150081,1,0,0:0:0:0:
320,192,150424,1,0,0:0:0:0:
320,192,150767,1,0,0:0:0:0:
192,192,151109,1,0,0:0:0:0:
448,192,151452,1,0,0:0:0:0:
192,192,151795,1,0,0:0:0:0:
320,192,152138,1,0,0:0:0:0:
64,192,152481,1,0,0:0:0:0:
320,192,152824,1,0,0:0:0:0:
192,192,153167,1,0,0:0:0:0:
448,192,153338,1,0,0:0:0:0:
64,192,153509,1,0,0:0:0:0:
320,192,153681,1,0,0:0:0:0:
192,192,153852,128,0,154195:0:0:0:0:
448,192,154195,128,0,154538:0:0:0:0:
64,192,154538,128,0,154881:0:0:0:0:
320,192,154881,128,0,155224:0:0:0:0:
192,192,155224,128,0,155567:0:0:0:0:
320,192,155567,128,0,155909:0:0:0:0:
448,192,155909,128,0,156252:0:0:0:0:
192,192,156252,1,0,0:0:0:0:
64,192,156595,128,0,156938:0:0:0:0:
192,192,156938,128,0,157281:0:0:0:0:
448,192,157281,128,0,157624:0:0:0:0:
320,192,157624,128,0,157967:0:0:0:0:
64,192,157967,128,0,158309:0:0:0:0:
320,192,158309,128,0,158652:0:0:0:0:
192,192,158652,128,0,159338:0:0:0:0:
448,192,159338,128,0,160024:0:0:0:0:
192,192,160709,1,0,0:0:0:0:
320,192,161052,1,0,0:0:0:0:
192,192,161395,1,0,0:0:0:0:
320,192,161738,1,0,0:0:0:0:
64,192,162081,1,0,0:0:0:0:
448,192,162081,1,0,0:0:0:0:
192,192,162424,1,0,0:0:0:0:
320,192,162767,1,0,0:0:0:0:
192,192,162938,1,0,0:0:0:0:
64,192,163109,1,0,0:0:0:0:
448,192,163452,1,0,0:0:0:0:
320,192,163795,1,0,0:0:0:0:
192,192,164138,1,0,0:0:0:0:
320,192,164309,1,0,0:0:0:0:
448,192,164481,1,0,0:0:0:0:
64,192,164824,1,0,0:0:0:0:
448,192,165167,1,0,0:0:0:0:
192,192,165509,1,0,0:0:0:0:
448,192,165681,1,0,0:0:0:0:
64,192,165852,1,0,0:0:0:0:
448,192,166195,1,0,0:0:0:0:
64,192,166538,1,0,0:0:0:0:
320,192,166881,1,0,0:0:0:0:
64,192,167052,1,0,0:0:0:0:
448,192,167224,1,0,0:0:0:0:
320,192,167567,1,0,0:0:0:0:
320,192,167909,1,0,0:0:0:0:
64,192,168252,1,0,0:0:0:0:
192,192,168424,1,0,0:0:0:0:
448,192,168595,1,0,0:0:0:0:
320,192,168767,1,0,0:0:0:0:
64,192,168938,1,0,0:0:0:0:
64,192,169281,1,0,0:0:0:0:
448,192,169624,1,0,0:0:0:0:
320,192,169795,1,0,0:0:0:0:
64,192,169967,1,0,0:0:0:0:
192,192,170138,1,0,0:0:0:0:
448,192,170309,1,0,0:0:0:0:
448,192,170652,1,0,0:0:0:0:
192,192,170995,1,0,0:0:0:0:
448,192,171167,1,0,0:0:0:0:
320,192,171338,1,0,0:0:0:0:
64,192,171509,1,0,0:0:0:0:
192,192,171681,1,0,0:0:0:0:
192,192,172024,1,0,0:0:0:0:
320,192,172367,1,0,0:0:0:0:
64,192,172538,1,0,0:0:0:0:
448,192,172709,1,0,0:0:0:0:
192,192,172881,1,0,0:0:0:0:
320,192,173052,1,0,0:0:0:0:
64,192,173395,1,0,0:0:0:0:
320,192,173738,1,0,0:0:0:0:
192,192,173909,1,0,0:0:0:0:
64,192,174081,1,0,0:0:0:0:
448,192,174424,1,0,0:0:0:0:
64,192,174767,1,0,0:0:0:0:
192,192,175109,1,0,0:0:0:0:
320,192,175281,1,0,0:0:0:0:
448,192,175452,1,0,0:0:0:0:
192,192,175795,1,0,0:0:0:0:
64,192,176138,1,0,0:0:0:0:
448,192,176481,1,0,0:0:0:0:
320,192,176652,1,0,0:0:0:0:
64,192,176824,1,0,0:0:0:0:
320,192,177167,1,0,0:0:0:0:
448,192,177509,1,0,0:0:0:0:
64,192,177681,1,0,0:0:0:0:
320,192,177852,1,0,0:0:0:0:
320,192,178195,1,0,0:0:0:0:
192,192,178367,1,0,0:0:0:0:
64,192,178538,1,0,0:0:0:0:
448,192,178538,1,0,0:0:0:0:
448,192,178881,1,0,0:0:0:0:
64,192,179224,1,0,0:0:0:0:
192,192,179395,1,0,0:0:0:0:
448,192,179567,1,0,0:0:0:0:
320,192,179738,1,0,0:0:0:0:
192,192,179909,1,0,0:0:0:0:
64,192,180252,1,0,0:0:0:0:
192,192,180424,1,0,0:0:0:0:
448,192,180595,1,0,0:0:0:0:
320,192,180767,1,0,0:0:0:0:
64,192,180938,1,0,0:0:0:0:
448,192,181281,1,0,0:0:0:0:
448,192,181624,1,0,0:0:0:0:
192,192,181967,1,0,0:0:0:0:
320,192,182138,1,0,0:0:0:0:
448,192,182309,1,0,0:0:0:0:
64,192,182481,1,0,0:0:0:0:
320,192,182652,128,0,183167:0:0:0:0:
192,192,183167,128,0,183681:0:0:0:0:
448,192,183681,1,0,0:0:0:0:
64,192,184024,1,0,0:0:0:0:
448,192,184367,128,0,184709:0:0:0:0:
192,192,184709,128,0,185052:0:0:0:0:
320,192,185052,128,0,185738:0:0:0:0:
64,192,185738,128,0,186424:0:0:0:0:
448,192,186424,128,0,187109:0:0:0:0:
192,192,187109,128,0,187452:0:0:0:0:
320,192,187452,128,0,187795:0:0:0:0:
448,192,187795,128,0,188481:0:0:0:0:
64,192,188481,128,0,189167:0:0:0:0:
320,192,189167,128,0,189852:0:0:0:0:
192,192,189852,128,0,190195:0:0:0:0:
64,192,190195,128,0,190538:0:0:0:0:
448,192,190538,128,0,191224:0:0:0:0:
192,192,191224,128,0,191909:0:0:0:0:
448,192,191909,128,0,193795:0:0:0:0:
64,192,192252,128,0,193795:0:0:0:0:
192,192,193795,128,0,194309:0:0:0:0:
320,192,194309,128,0,194824:0:0:0:0:
192,192,194824,1,0,0:0:0:0:
64,192,194995,1,0,0:0:0:0:
448,192,194995,1,0,0:0:0:0:
64,192,195338,1,0,0:0:0:0:
448,192,195681,1,0,0:0:0:0:
320,192,195852,1,0,0:0:0:0:
64,192,196024,1,0,0:0:0:0:
192,192,196195,1,0,0:0:0:0:
448,192,196367,1,0,0:0:0:0:
64,192,196709,1,0,0:0:0:0:
320,192,196881,1,0,0:0:0:0:
192,192,197052,1,0,0:0:0:0:
64,192,197224,1,0,0:0:0:0:
448,192,197395,1,0,0:0:0:0:
320,192,197738,1,0,0:0:0:0:
320,192,198081,1,0,0:0:0:0:
448,192,198424,1,0,0:0:0:0:
64,192,198595,1,0,0:0:0:0:
320,192,198767,1,0,0:0:0:0:
192,192,198938,1,0,0:0:0:0:
64,192,199109,1,0,0:0:0:0:
448,192,199452,1,0,0:0:0:0:
64,192,199795,1,0,0:0:0:0:
448,192,199967,1,0,0:0:0:0:
192,192,200138,1,0,0:0:0:0:
320,192,200309,1,0,0:0:0:0:
64,192,200481,1,0,0:0:0:0:
64,192,200824,1,0,0:0:0:0:
448,192,201167,1,0,0:0:0:0:
448,192,201509,1,0,0:0:0:0:
192,192,201852,1,0,0:0:0:0:
192,192,202195,1,0,0:0:0:0:
320,192,202538,1,0,0:0:0:0:
64,192,202881,1,0,0:0:0:0:
320,192,203224,128,0,203567:0:0:0:0:
192,192,203567,128,0,203909:0:0:0:0:
448,192,203909,128,0,204252:0:0:0:0:
64,192,204252,128,0,204595:0:0:0:0:
320,192,204595,1,0,0:0:0:0:
192,192,204767,128,0,205281:0:0:0:0:
448,192,205281,1,0,0:0:0:0:
320,192,205452,1,0,0:0:0:0:
64,192,205624,1,0,0:0:0:0:
192,192,205795,1,0,0:0:0:0:
320,192,205967,1,0,0:0:0:0:
448,192,205967,1,0,0:0:0:0:
