osu file format v14

[General]
AudioFilename: audio.ogg
AudioLeadIn: 0
PreviewTime: 156424
Countdown: 0
SampleSet: Soft
StackLeniency: 0.7
Mode: 3
LetterboxInBreaks: 0
SpecialStyle: 0
WidescreenStoryboard: 1

[Editor]
Bookmarks: 119573,137401
DistanceSpacing: 1
BeatDivisor: 4
GridSize: 32
TimelineZoom: 1.6

[Metadata]
Title:Worth The Lie
TitleUnicode:Worth The Lie
Artist:MUZZ, Koven & Feint
ArtistUnicode:MUZZ, Koven & Feint
Creator:Ilham
Version:CS' Contemplation
Source:
Tags:Critical_Star fa featured artist mg mpg mappers' guild muzzy dnb d&b drum and bass dancefloor edm electronic dance music english monstercat uncaged vol. 3
BeatmapID:4545496
BeatmapSetID:2136934

[Difficulty]
HPDrainRate:8
CircleSize:4
OverallDifficulty:7.5
ApproachRate:5
SliderMultiplier:1.4
SliderTickRate:1

[Events]
//Background and Video events
0,0,"48286032_p0.jpg",0,0
//Break Periods
//Storyboard Layer 0 (Background)
//Storyboard Layer 1 (Fail)
//Storyboard Layer 2 (Pass)
//Storyboard Layer 3 (Foreground)
//Storyboard Layer 4 (Overlay)
//Storyboard Sound Samples

[TimingPoints]
4367,342.857142857143,4,2,1,40,1,0
71567,-100,4,2,1,40,0,1
93509,-100,4,2,1,40,0,0
162081,-100,4,2,1,40,0,1
184024,-100,4,2,1,40,0,0

[HitObjects]
64,192,5738,5,0,0:0:0:0:
320,192,5738,128,0,6081:0:0:0:0:
192,192,6081,1,0,0:0:0:0:
64,192,6252,128,0,6424:0:0:0:0:
448,192,6424,1,0,0:0:0:0:
64,192,6595,1,0,0:0:0:0:
64,192,6767,128,0,6938:0:0:0:0:
320,192,6767,1,0,0:0:0:0:
448,192,6938,1,0,0:0:0:0:
64,192,7109,1,0,0:0:0:0:
192,192,7109,128,0,7452:0:0:0:0:
64,192,7452,1,0,0:0:0:0:
448,192,7624,128,0,7795:0:0:0:0:
192,192,7795,1,0,0:0:0:0:
448,192,7967,1,0,0:0:0:0:
448,192,8138,128,0,8309:0:0:0:0:
64,192,8138,1,0,0:0:0:0:
192,192,8309,1,0,0:0:0:0:
448,192,8481,1,0,0:0:0:0:
320,192,8481,128,0,8824:0:0:0:0:
448,192,8824,1,0,0:0:0:0:
64,192,8995,128,0,9167:0:0:0:0:
320,192,9167,1,0,0:0:0:0:
64,192,9338,1,0,0:0:0:0:
64,192,9509,128,0,9681:0:0:0:0:
448,192,9509,1,0,0:0:0:0:
320,192,9681,1,0,0:0:0:0:
448,192,9852,128,0,10195:0:0:0:0:
64,192,9852,1,0,0:0:0:0:
64,192,10195,1,0,0:0:0:0:
320,192,10367,128,0,10538:0:0:0:0:
192,192,10538,1,0,0:0:0:0:
448,192,10709,1,0,0:0:0:0:
64,192,10881,1,0,0:0:0:0:
320,192,10881,128,0,11052:0:0:0:0:
192,192,11052,1,0,0:0:0:0:
448,192,11224,1,0,0:0:0:0:
64,192,11224,128,0,11567:0:0:0:0:
448,192,11567,1,0,0:0:0:0:
192,192,11738,128,0,11909:0:0:0:0:
320,192,11909,1,0,0:0:0:0:
64,192,12081,1,0,0:0:0:0:
192,192,12252,128,0,12424:0:0:0:0:
448,192,12252,1,0,0:0:0:0:
320,192,12424,1,0,0:0:0:0:
448,192,12595,128,0,12938:0:0:0:0:
64,192,12595,1,0,0:0:0:0:
192,192,12938,1,0,0:0:0:0:
64,192,13109,128,0,13281:0:0:0:0:
448,192,13281,1,0,0:0:0:0:
64,192,13452,1,0,0:0:0:0:
320,192,13624,1,0,0:0:0:0:
64,192,13624,128,0,13795:0:0:0:0:
192,192,13795,1,0,0:0:0:0:
64,192,13967,128,0,14309:0:0:0:0:
448,192,13967,1,0,0:0:0:0:
320,192,14309,1,0,0:0:0:0:
448,192,14481,128,0,14652:0:0:0:0:
64,192,14652,1,0,0:0:0:0:
448,192,14824,1,0,0:0:0:0:
192,192,14995,1,0,0:0:0:0:
448,192,14995,128,0,15167:0:0:0:0:
320,192,15167,1,0,0:0:0:0:
192,192,15338,128,0,15681:0:0:0:0:
448,192,15338,128,0,16195:0:0:0:0:
64,192,15681,1,0,0:0:0:0:
320,192,15852,128,0,16024:0:0:0:0:
192,192,16024,1,0,0:0:0:0:
320,192,16195,1,0,0:0:0:0:
64,192,16367,1,0,0:0:0:0:
320,192,16367,128,0,16538:0:0:0:0:
192,192,16538,1,0,0:0:0:0:
64,192,16709,128,0,17909:0:0:0:0:
448,192,16709,128,0,17052:0:0:0:0:
320,192,17052,1,0,0:0:0:0:
192,192,17224,128,0,17395:0:0:0:0:
320,192,17395,1,0,0:0:0:0:
192,192,17567,1,0,0:0:0:0:
192,192,17738,128,0,17909:0:0:0:0:
448,192,17738,1,0,0:0:0:0:
320,192,17909,1,0,0:0:0:0:
448,192,18081,128,0,19281:0:0:0:0:
64,192,18081,128,0,18424:0:0:0:0:
192,192,18424,1,0,0:0:0:0:
320,192,18595,128,0,18767:0:0:0:0:
192,192,18767,1,0,0:0:0:0:
320,192,18938,1,0,0:0:0:0:
320,192,19109,128,0,19281:0:0:0:0:
64,192,19109,1,0,0:0:0:0:
192,192,19281,1,0,0:0:0:0:
448,192,19452,128,0,19795:0:0:0:0:
320,192,19452,128,0,20652:0:0:0:0:
192,192,19795,1,0,0:0:0:0:
64,192,19967,128,0,20138:0:0:0:0:
448,192,20138,1,0,0:0:0:0:
64,192,20309,1,0,0:0:0:0:
448,192,20481,1,0,0:0:0:0:
64,192,20481,128,0,20652:0:0:0:0:
192,192,20652,1,0,0:0:0:0:
448,192,20824,128,0,21167:0:0:0:0:
192,192,20824,128,0,22024:0:0:0:0:
320,192,21167,1,0,0:0:0:0:
64,192,21338,128,0,21509:0:0:0:0:
320,192,21509,1,0,0:0:0:0:
64,192,21681,1,0,0:0:0:0:
448,192,21852,1,0,0:0:0:0:
64,192,21852,128,0,22024:0:0:0:0:
320,192,22024,1,0,0:0:0:0:
320,192,22195,128,0,22538:0:0:0:0:
448,192,22195,128,0,23395:0:0:0:0:
192,192,22538,1,0,0:0:0:0:
64,192,22709,128,0,22881:0:0:0:0:
192,192,22881,1,0,0:0:0:0:
64,192,23052,1,0,0:0:0:0:
320,192,23224,1,0,0:0:0:0:
64,192,23224,128,0,23395:0:0:0:0:
192,192,23395,1,0,0:0:0:0:
192,192,23567,128,0,23909:0:0:0:0:
64,192,23567,128,0,24767:0:0:0:0:
320,192,23909,1,0,0:0:0:0:
448,192,24081,128,0,24252:0:0:0:0:
320,192,24252,1,0,0:0:0:0:
448,192,24424,1,0,0:0:0:0:
192,192,24595,1,0,0:0:0:0:
448,192,24595,128,0,24767:0:0:0:0:
320,192,24767,1,0,0:0:0:0:
448,192,24938,128,0,26138:0:0:0:0:
64,192,24938,128,0,25281:0:0:0:0:
320,192,25281,1,0,0:0:0:0:
192,192,25452,128,0,25624:0:0:0:0:
64,192,25624,1,0,0:0:0:0:
192,192,25795,1,0,0:0:0:0:
192,192,25967,128,0,26138:0:0:0:0:
320,192,25967,1,0,0:0:0:0:
64,192,26138,1,0,0:0:0:0:
64,192,26309,128,0,27395:0:0:0:0:
448,192,26309,128,0,26824:0:0:0:0:
320,192,26481,128,0,26652:0:0:0:0:
192,192,26652,128,0,26824:0:0:0:0:
320,192,26824,128,0,27281:0:0:0:0:
448,192,26995,128,0,27224:0:0:0:0:
192,192,27167,128,0,27338:0:0:0:0:
448,192,27338,1,0,0:0:0:0:
320,192,27395,1,0,0:0:0:0:
192,192,27452,1,0,0:0:0:0:
64,192,27509,1,0,0:0:0:0:
448,192,27681,1,0,0:0:0:0:
320,192,27681,128,0,28367:0:0:0:0:
64,192,27681,128,0,28709:0:0:0:0:
448,192,28024,128,0,28709:0:0:0:0:
192,192,28024,1,0,0:0:0:0:
192,192,28367,128,0,28709:0:0:0:0:
320,192,28709,128,0,29224:0:0:0:0:
448,192,29052,128,0,29567:0:0:0:0:
192,192,29052,1,0,0:0:0:0:
64,192,29138,128,0,30081:0:0:0:0:
320,192,29395,1,0,0:0:0:0:
192,192,29738,128,0,29909:0:0:0:0:
448,192,29738,1,0,0:0:0:0:
320,192,29824,128,0,30424:0:0:0:0:
192,192,30081,1,0,0:0:0:0:
64,192,30424,1,0,0:0:0:0:
448,192,30424,128,0,30595:0:0:0:0:
192,192,30509,128,0,30938:0:0:0:0:
448,192,30767,128,0,30938:0:0:0:0:
320,192,31109,1,0,0:0:0:0:
448,192,31195,128,0,31709:0:0:0:0:
192,192,31452,1,0,0:0:0:0:
320,192,31538,128,0,31967:0:0:0:0:
64,192,31795,1,0,0:0:0:0:
448,192,31795,128,0,31967:0:0:0:0:
192,192,31881,128,0,32309:0:0:0:0:
64,192,32138,128,0,32995:0:0:0:0:
320,192,32138,128,0,32309:0:0:0:0:
192,192,32481,128,0,32995:0:0:0:0:
320,192,32481,1,0,0:0:0:0:
320,192,32824,128,0,32995:0:0:0:0:
64,192,33167,1,0,0:0:0:0:
192,192,33167,128,0,33852:0:0:0:0:
448,192,33167,128,0,34195:0:0:0:0:
64,192,33509,128,0,34195:0:0:0:0:
320,192,33509,1,0,0:0:0:0:
320,192,33852,128,0,34195:0:0:0:0:
192,192,34195,128,0,34709:0:0:0:0:
64,192,34538,128,0,35052:0:0:0:0:
320,192,34538,1,0,0:0:0:0:
448,192,34624,128,0,35567:0:0:0:0:
192,192,34881,1,0,0:0:0:0:
320,192,35224,128,0,35395:0:0:0:0:
64,192,35224,1,0,0:0:0:0:
192,192,35309,128,0,35909:0:0:0:0:
320,192,35567,1,0,0:0:0:0:
448,192,35909,1,0,0:0:0:0:
64,192,35909,128,0,36081:0:0:0:0:
320,192,35995,128,0,36424:0:0:0:0:
64,192,36252,128,0,36424:0:0:0:0:
192,192,36595,1,0,0:0:0:0:
64,192,36681,128,0,37195:0:0:0:0:
320,192,36938,1,0,0:0:0:0:
192,192,37024,128,0,37452:0:0:0:0:
448,192,37281,1,0,0:0:0:0:
64,192,37281,128,0,37452:0:0:0:0:
320,192,37367,128,0,37795:0:0:0:0:
448,192,37624,128,0,38481:0:0:0:0:
192,192,37624,128,0,37795:0:0:0:0:
320,192,37967,128,0,38481:0:0:0:0:
320,192,38652,128,0,39681:0:0:0:0:
192,192,38652,128,0,39338:0:0:0:0:
64,192,38995,1,0,0:0:0:0:
448,192,38995,128,0,39681:0:0:0:0:
64,192,39338,128,0,39681:0:0:0:0:
192,192,39681,128,0,40195:0:0:0:0:
320,192,40024,1,0,0:0:0:0:
448,192,40024,128,0,40538:0:0:0:0:
64,192,40109,128,0,41052:0:0:0:0:
320,192,40367,128,0,40538:0:0:0:0:
192,192,40709,1,0,0:0:0:0:
448,192,40709,128,0,41052:0:0:0:0:
320,192,40795,128,0,41395:0:0:0:0:
192,192,41052,1,0,0:0:0:0:
448,192,41395,128,0,41567:0:0:0:0:
64,192,41395,1,0,0:0:0:0:
192,192,41481,128,0,42081:0:0:0:0:
64,192,41738,128,0,42424:0:0:0:0:
320,192,42081,1,0,0:0:0:0:
448,192,42167,128,0,42681:0:0:0:0:
192,192,42424,1,0,0:0:0:0:
320,192,42509,128,0,42938:0:0:0:0:
64,192,42767,1,0,0:0:0:0:
448,192,42767,128,0,43624:0:0:0:0:
192,192,42852,128,0,43281:0:0:0:0:
64,192,43109,128,0,43967:0:0:0:0:
320,192,43109,128,0,43795:0:0:0:0:
192,192,43452,128,0,43967:0:0:0:0:
448,192,43795,1,0,0:0:0:0:
320,192,44138,128,0,44824:0:0:0:0:
192,192,44138,128,0,45167:0:0:0:0:
64,192,44481,128,0,45167:0:0:0:0:
448,192,44481,1,0,0:0:0:0:
448,192,44824,128,0,45167:0:0:0:0:
320,192,45167,128,0,45681:0:0:0:0:
64,192,45509,128,0,46024:0:0:0:0:
192,192,45509,1,0,0:0:0:0:
448,192,45595,128,0,46538:0:0:0:0:
192,192,45852,128,0,46024:0:0:0:0:
64,192,46195,128,0,46538:0:0:0:0:
320,192,46195,1,0,0:0:0:0:
192,192,46281,128,0,46881:0:0:0:0:
320,192,46538,1,0,0:0:0:0:
448,192,46881,1,0,0:0:0:0:
64,192,46881,128,0,47052:0:0:0:0:
320,192,46967,128,0,47567:0:0:0:0:
448,192,47224,128,0,47909:0:0:0:0:
192,192,47567,1,0,0:0:0:0:
64,192,47652,128,0,48167:0:0:0:0:
320,192,47909,1,0,0:0:0:0:
192,192,47995,128,0,48424:0:0:0:0:
64,192,48252,128,0,48938:0:0:0:0:
448,192,48252,1,0,0:0:0:0:
320,192,48338,128,0,48767:0:0:0:0:
192,192,48595,128,0,49109:0:0:0:0:
448,192,48595,128,0,49452:0:0:0:0:
320,192,48938,128,0,49281:0:0:0:0:
64,192,49109,1,0,0:0:0:0:
192,192,49281,1,0,0:0:0:0:
320,192,49452,1,0,0:0:0:0:
448,192,49624,1,0,0:0:0:0:
192,192,49624,1,0,0:0:0:0:
64,192,49624,1,0,0:0:0:0:
64,192,49967,1,0,0:0:0:0:
448,192,49967,1,0,0:0:0:0:
320,192,50309,1,0,0:0:0:0:
320,192,50481,1,0,0:0:0:0:
64,192,50481,1,0,0:0:0:0:
192,192,50824,1,0,0:0:0:0:
192,192,50995,1,0,0:0:0:0:
448,192,50995,1,0,0:0:0:0:
320,192,51167,1,0,0:0:0:0:
64,192,51338,1,0,0:0:0:0:
448,192,51509,1,0,0:0:0:0:
64,192,51509,1,0,0:0:0:0:
320,192,51681,1,0,0:0:0:0:
64,192,51852,1,0,0:0:0:0:
192,192,52024,1,0,0:0:0:0:
448,192,52024,1,0,0:0:0:0:
448,192,52367,1,0,0:0:0:0:
64,192,52367,1,0,0:0:0:0:
192,192,52538,1,0,0:0:0:0:
64,192,52709,1,0,0:0:0:0:
448,192,52709,1,0,0:0:0:0:
320,192,52881,1,0,0:0:0:0:
64,192,53052,1,0,0:0:0:0:
448,192,53224,1,0,0:0:0:0:
64,192,53224,1,0,0:0:0:0:
320,192,53395,1,0,0:0:0:0:
192,192,53567,1,0,0:0:0:0:
192,192,53738,1,0,0:0:0:0:
448,192,53738,1,0,0:0:0:0:
64,192,53909,1,0,0:0:0:0:
320,192,54081,1,0,0:0:0:0:
320,192,54252,1,0,0:0:0:0:
64,192,54252,1,0,0:0:0:0:
448,192,54424,1,0,0:0:0:0:
192,192,54595,1,0,0:0:0:0:
448,192,54767,1,0,0:0:0:0:
192,192,54767,1,0,0:0:0:0:
320,192,54938,1,0,0:0:0:0:
448,192,55109,1,0,0:0:0:0:
64,192,55109,128,0,55452:0:0:0:0:
192,192,55109,128,0,55281:0:0:0:0:
320,192,55452,128,0,56652:0:0:0:0:
192,192,55452,1,0,0:0:0:0:
448,192,55452,128,0,55624:0:0:0:0:
192,192,55795,1,0,0:0:0:0:
64,192,55795,1,0,0:0:0:0:
448,192,55967,1,0,0:0:0:0:
64,192,55967,128,0,56138:0:0:0:0:
192,192,56309,1,0,0:0:0:0:
448,192,56309,1,0,0:0:0:0:
64,192,56481,1,0,0:0:0:0:
448,192,56481,128,0,56652:0:0:0:0:
192,192,56652,1,0,0:0:0:0:
320,192,56824,1,0,0:0:0:0:
448,192,56824,1,0,0:0:0:0:
320,192,56995,1,0,0:0:0:0:
64,192,56995,128,0,57167:0:0:0:0:
192,192,57338,1,0,0:0:0:0:
320,192,57338,1,0,0:0:0:0:
448,192,57509,1,0,0:0:0:0:
192,192,57509,128,0,57681:0:0:0:0:
64,192,57681,1,0,0:0:0:0:
320,192,57681,1,0,0:0:0:0:
320,192,57852,1,0,0:0:0:0:
448,192,57852,128,0,58024:0:0:0:0:
448,192,58195,128,0,58367:0:0:0:0:
192,192,58195,1,0,0:0:0:0:
320,192,58538,1,0,0:0:0:0:
64,192,58538,1,0,0:0:0:0:
448,192,58709,1,0,0:0:0:0:
320,192,58709,128,0,58881:0:0:0:0:
192,192,59052,1,0,0:0:0:0:
448,192,59052,1,0,0:0:0:0:
64,192,59224,1,0,0:0:0:0:
192,192,59224,128,0,59395:0:0:0:0:
320,192,59567,1,0,0:0:0:0:
448,192,59567,1,0,0:0:0:0:
320,192,59738,1,0,0:0:0:0:
64,192,59738,128,0,59909:0:0:0:0:
448,192,59909,128,0,60081:0:0:0:0:
320,192,60081,128,0,60252:0:0:0:0:
64,192,60081,1,0,0:0:0:0:
192,192,60252,128,0,60424:0:0:0:0:
448,192,60252,1,0,0:0:0:0:
448,192,60424,128,0,60595:0:0:0:0:
64,192,60424,1,0,0:0:0:0:
192,192,60595,1,0,0:0:0:0:
320,192,60595,1,0,0:0:0:0:
64,192,60595,128,0,60767:0:0:0:0:
192,192,60767,1,0,0:0:0:0:
320,192,60852,1,0,0:0:0:0:
448,192,60938,128,0,61109:0:0:0:0:
64,192,60938,1,0,0:0:0:0:
64,192,61109,1,0,0:0:0:0:
192,192,61195,1,0,0:0:0:0:
64,192,61281,128,0,61452:0:0:0:0:
320,192,61281,1,0,0:0:0:0:
320,192,61452,1,0,0:0:0:0:
192,192,61538,1,0,0:0:0:0:
448,192,61624,128,0,61795:0:0:0:0:
64,192,61624,1,0,0:0:0:0:
64,192,61795,1,0,0:0:0:0:
320,192,61881,1,0,0:0:0:0:
192,192,61967,128,0,62138:0:0:0:0:
448,192,61967,1,0,0:0:0:0:
448,192,62138,1,0,0:0:0:0:
192,192,62224,1,0,0:0:0:0:
320,192,62309,128,0,62481:0:0:0:0:
64,192,62309,1,0,0:0:0:0:
64,192,62481,1,0,0:0:0:0:
320,192,62567,1,0,0:0:0:0:
192,192,62652,128,0,62824:0:0:0:0:
448,192,62652,1,0,0:0:0:0:
448,192,62824,1,0,0:0:0:0:
192,192,62909,1,0,0:0:0:0:
320,192,62995,128,0,63167:0:0:0:0:
64,192,62995,1,0,0:0:0:0:
64,192,63167,1,0,0:0:0:0:
192,192,63252,1,0,0:0:0:0:
320,192,63338,1,0,0:0:0:0:
448,192,63338,128,0,63509:0:0:0:0:
320,192,63509,1,0,0:0:0:0:
192,192,63595,1,0,0:0:0:0:
320,192,63681,128,0,63852:0:0:0:0:
64,192,63681,1,0,0:0:0:0:
64,192,63852,1,0,0:0:0:0:
320,192,63938,1,0,0:0:0:0:
192,192,64024,128,0,64195:0:0:0:0:
448,192,64024,1,0,0:0:0:0:
448,192,64195,1,0,0:0:0:0:
320,192,64281,1,0,0:0:0:0:
64,192,64367,128,0,64538:0:0:0:0:
192,192,64367,1,0,0:0:0:0:
192,192,64538,1,0,0:0:0:0:
320,192,64624,1,0,0:0:0:0:
192,192,64709,128,0,64881:0:0:0:0:
448,192,64709,1,0,0:0:0:0:
448,192,64881,1,0,0:0:0:0:
192,192,64967,1,0,0:0:0:0:
320,192,65052,128,0,65224:0:0:0:0:
64,192,65052,1,0,0:0:0:0:
64,192,65224,1,0,0:0:0:0:
192,192,65309,1,0,0:0:0:0:
448,192,65395,128,0,65567:0:0:0:0:
320,192,65395,1,0,0:0:0:0:
64,192,65567,1,0,0:0:0:0:
320,192,65567,1,0,0:0:0:0:
192,192,65738,1,0,0:0:0:0:
64,192,65738,1,0,0:0:0:0:
448,192,65738,1,0,0:0:0:0:
320,192,65909,1,0,0:0:0:0:
192,192,65909,1,0,0:0:0:0:
448,192,66081,1,0,0:0:0:0:
320,192,66081,1,0,0:0:0:0:
64,192,66081,1,0,0:0:0:0:
320,192,66252,1,0,0:0:0:0:
448,192,66252,1,0,0:0:0:0:
192,192,66424,1,0,0:0:0:0:
64,192,66424,1,0,0:0:0:0:
320,192,66424,1,0,0:0:0:0:
192,192,66595,1,0,0:0:0:0:
64,192,66595,1,0,0:0:0:0:
192,192,66767,1,0,0:0:0:0:
448,192,66767,1,0,0:0:0:0:
448,192,66938,1,0,0:0:0:0:
192,192,66938,1,0,0:0:0:0:
64,192,66938,1,0,0:0:0:0:
320,192,67109,1,0,0:0:0:0:
448,192,67109,1,0,0:0:0:0:
192,192,67281,1,0,0:0:0:0:
320,192,67281,1,0,0:0:0:0:
192,192,67452,1,0,0:0:0:0:
64,192,67452,1,0,0:0:0:0:
448,192,67452,1,0,0:0:0:0:
320,192,67624,1,0,0:0:0:0:
64,192,67624,1,0,0:0:0:0:
320,192,67795,1,0,0:0:0:0:
448,192,67795,1,0,0:0:0:0:
448,192,67967,1,0,0:0:0:0:
320,192,67967,1,0,0:0:0:0:
192,192,67967,1,0,0:0:0:0:
192,192,68138,1,0,0:0:0:0:
64,192,68138,1,0,0:0:0:0:
192,192,68309,1,0,0:0:0:0:
448,192,68309,1,0,0:0:0:0:
320,192,68481,1,0,0:0:0:0:
448,192,68481,1,0,0:0:0:0:
64,192,68481,1,0,0:0:0:0:
320,192,68652,1,0,0:0:0:0:
448,192,68652,1,0,0:0:0:0:
192,192,68824,1,0,0:0:0:0:
64,192,68824,1,0,0:0:0:0:
448,192,68909,1,0,0:0:0:0:
192,192,68995,1,0,0:0:0:0:
64,192,68995,1,0,0:0:0:0:
448,192,69081,1,0,0:0:0:0:
320,192,69167,1,0,0:0:0:0:
192,192,69167,1,0,0:0:0:0:
64,192,69252,1,0,0:0:0:0:
320,192,69338,1,0,0:0:0:0:
448,192,69338,1,0,0:0:0:0:
64,192,69424,1,0,0:0:0:0:
448,192,69509,1,0,0:0:0:0:
320,192,69509,1,0,0:0:0:0:
192,192,69595,1,0,0:0:0:0:
64,192,69681,1,0,0:0:0:0:
448,192,69681,1,0,0:0:0:0:
320,192,69767,1,0,0:0:0:0:
192,192,69852,1,0,0:0:0:0:
64,192,69852,1,0,0:0:0:0:
448,192,69938,1,0,0:0:0:0:
320,192,70024,1,0,0:0:0:0:
192,192,70024,1,0,0:0:0:0:
64,192,70109,1,0,0:0:0:0:
448,192,70195,1,0,0:0:0:0:
320,192,70195,1,0,0:0:0:0:
192,192,70281,1,0,0:0:0:0:
448,192,70367,1,0,0:0:0:0:
64,192,70367,1,0,0:0:0:0:
192,192,70452,1,0,0:0:0:0:
320,192,70538,1,0,0:0:0:0:
448,192,70538,1,0,0:0:0:0:
192,192,70624,1,0,0:0:0:0:
448,192,70709,1,0,0:0:0:0:
64,192,70709,1,0,0:0:0:0:
192,192,70795,1,0,0:0:0:0:
320,192,70881,1,0,0:0:0:0:
448,192,70881,1,0,0:0:0:0:
64,192,70967,1,0,0:0:0:0:
192,192,70967,1,0,0:0:0:0:
320,192,71052,1,0,0:0:0:0:
448,192,71138,1,0,0:0:0:0:
192,192,71224,1,0,0:0:0:0:
64,192,71309,1,0,0:0:0:0:
320,192,71395,1,0,0:0:0:0:
448,192,71395,1,0,0:0:0:0:
192,192,71481,1,0,0:0:0:0:
64,192,71567,1,0,0:0:0:0:
320,192,71567,128,0,71824:0:0:0:0:
448,192,71652,128,0,71738:0:0:0:0:
192,192,71738,128,0,71909:0:0:0:0:
64,192,71824,128,0,72167:0:0:0:0:
448,192,71909,1,0,0:0:0:0:
320,192,71909,1,0,0:0:0:0:
192,192,72081,128,0,72252:0:0:0:0:
320,192,72167,128,0,72424:0:0:0:0:
448,192,72252,128,0,72338:0:0:0:0:
192,192,72338,128,0,72509:0:0:0:0:
64,192,72424,128,0,72595:0:0:0:0:
448,192,72424,1,0,0:0:0:0:
448,192,72595,1,0,0:0:0:0:
320,192,72595,128,0,72852:0:0:0:0:
192,192,72767,128,0,73024:0:0:0:0:
64,192,72938,128,0,73195:0:0:0:0:
448,192,72938,128,0,73195:0:0:0:0:
320,192,73109,128,0,73367:0:0:0:0:
448,192,73281,128,0,73538:0:0:0:0:
192,192,73281,1,0,0:0:0:0:
64,192,73367,128,0,73624:0:0:0:0:
192,192,73452,128,0,73624:0:0:0:0:
448,192,73624,1,0,0:0:0:0:
320,192,73795,128,0,74052:0:0:0:0:
64,192,73795,1,0,0:0:0:0:
192,192,73967,1,0,0:0:0:0:
64,192,73967,128,0,74224:0:0:0:0:
448,192,73967,128,0,74052:0:0:0:0:
448,192,74138,128,0,74309:0:0:0:0:
320,192,74138,1,0,0:0:0:0:
320,192,74309,1,0,0:0:0:0:
192,192,74309,128,0,74567:0:0:0:0:
64,192,74395,128,0,74481:0:0:0:0:
320,192,74481,128,0,74652:0:0:0:0:
448,192,74567,128,0,74909:0:0:0:0:
64,192,74652,1,0,0:0:0:0:
192,192,74652,1,0,0:0:0:0:
320,192,74824,128,0,74995:0:0:0:0:
192,192,74909,128,0,75167:0:0:0:0:
64,192,74995,128,0,75081:0:0:0:0:
320,192,75081,128,0,75252:0:0:0:0:
448,192,75167,128,0,75338:0:0:0:0:
64,192,75167,1,0,0:0:0:0:
64,192,75338,1,0,0:0:0:0:
192,192,75338,128,0,75595:0:0:0:0:
320,192,75509,128,0,75767:0:0:0:0:
448,192,75681,128,0,75938:0:0:0:0:
64,192,75681,128,0,75938:0:0:0:0:
192,192,75852,128,0,76109:0:0:0:0:
64,192,76024,128,0,76281:0:0:0:0:
320,192,76024,1,0,0:0:0:0:
448,192,76109,128,0,76367:0:0:0:0:
320,192,76195,128,0,76367:0:0:0:0:
64,192,76367,1,0,0:0:0:0:
192,192,76538,128,0,76795:0:0:0:0:
448,192,76538,1,0,0:0:0:0:
448,192,76709,128,0,76967:0:0:0:0:
64,192,76709,128,0,76795:0:0:0:0:
320,192,76709,1,0,0:0:0:0:
64,192,76881,128,0,77052:0:0:0:0:
192,192,76881,1,0,0:0:0:0:
320,192,77052,128,0,77224:0:0:0:0:
448,192,77052,128,0,77138:0:0:0:0:
192,192,77138,128,0,77309:0:0:0:0:
64,192,77224,128,0,77481:0:0:0:0:
320,192,77395,128,0,77567:0:0:0:0:
448,192,77395,1,0,0:0:0:0:
192,192,77481,128,0,77738:0:0:0:0:
64,192,77567,128,0,77652:0:0:0:0:
320,192,77652,128,0,77824:0:0:0:0:
64,192,77738,1,0,0:0:0:0:
192,192,77824,1,0,0:0:0:0:
320,192,77909,1,0,0:0:0:0:
448,192,77909,128,0,78167:0:0:0:0:
192,192,78081,128,0,78338:0:0:0:0:
320,192,78081,128,0,78167:0:0:0:0:
64,192,78081,1,0,0:0:0:0:
448,192,78252,128,0,78424:0:0:0:0:
64,192,78252,1,0,0:0:0:0:
192,192,78424,128,0,78595:0:0:0:0:
64,192,78424,128,0,78509:0:0:0:0:
320,192,78509,128,0,78681:0:0:0:0:
448,192,78595,128,0,78852:0:0:0:0:
192,192,78767,128,0,78938:0:0:0:0:
64,192,78767,1,0,0:0:0:0:
320,192,78852,128,0,79109:0:0:0:0:
448,192,78938,128,0,79024:0:0:0:0:
192,192,79024,128,0,79195:0:0:0:0:
448,192,79109,1,0,0:0:0:0:
320,192,79195,1,0,0:0:0:0:
192,192,79281,1,0,0:0:0:0:
64,192,79281,128,0,79538:0:0:0:0:
320,192,79452,128,0,79709:0:0:0:0:
192,192,79452,128,0,79538:0:0:0:0:
448,192,79452,1,0,0:0:0:0:
64,192,79624,128,0,79795:0:0:0:0:
448,192,79624,1,0,0:0:0:0:
448,192,79795,128,0,79881:0:0:0:0:
320,192,79795,128,0,79967:0:0:0:0:
192,192,79881,128,0,80052:0:0:0:0:
64,192,79967,128,0,80224:0:0:0:0:
448,192,80138,1,0,0:0:0:0:
320,192,80138,128,0,80309:0:0:0:0:
192,192,80224,128,0,80481:0:0:0:0:
64,192,80309,128,0,80395:0:0:0:0:
320,192,80395,128,0,80567:0:0:0:0:
64,192,80481,1,0,0:0:0:0:
192,192,80567,1,0,0:0:0:0:
320,192,80652,1,0,0:0:0:0:
448,192,80652,128,0,80909:0:0:0:0:
192,192,80824,128,0,81081:0:0:0:0:
320,192,80824,128,0,80909:0:0:0:0:
64,192,80824,1,0,0:0:0:0:
448,192,80995,128,0,81167:0:0:0:0:
64,192,80995,1,0,0:0:0:0:
192,192,81167,128,0,81338:0:0:0:0:
64,192,81167,128,0,81252:0:0:0:0:
320,192,81252,128,0,81424:0:0:0:0:
448,192,81338,128,0,81595:0:0:0:0:
192,192,81509,128,0,81681:0:0:0:0:
64,192,81509,1,0,0:0:0:0:
320,192,81595,128,0,81852:0:0:0:0:
448,192,81681,128,0,81767:0:0:0:0:
192,192,81767,128,0,81938:0:0:0:0:
64,192,81852,1,0,0:0:0:0:
448,192,81852,128,0,82109:0:0:0:0:
320,192,81938,1,0,0:0:0:0:
192,192,82024,1,0,0:0:0:0:
64,192,82024,128,0,82281:0:0:0:0:
448,192,82195,128,0,82281:0:0:0:0:
192,192,82195,128,0,82452:0:0:0:0:
320,192,82195,1,0,0:0:0:0:
448,192,82367,128,0,82538:0:0:0:0:
320,192,82367,1,0,0:0:0:0:
64,192,82538,1,0,0:0:0:0:
192,192,82538,128,0,82795:0:0:0:0:
320,192,82624,128,0,82709:0:0:0:0:
64,192,82709,128,0,82881:0:0:0:0:
448,192,82795,128,0,83138:0:0:0:0:
320,192,82881,1,0,0:0:0:0:
192,192,82881,1,0,0:0:0:0:
320,192,83052,128,0,83224:0:0:0:0:
192,192,83138,128,0,83395:0:0:0:0:
64,192,83224,128,0,83309:0:0:0:0:
320,192,83309,128,0,83481:0:0:0:0:
448,192,83395,128,0,83567:0:0:0:0:
64,192,83395,1,0,0:0:0:0:
64,192,83567,1,0,0:0:0:0:
192,192,83567,128,0,83824:0:0:0:0:
320,192,83738,128,0,83995:0:0:0:0:
192,192,83909,128,0,84081:0:0:0:0:
64,192,83909,128,0,84167:0:0:0:0:
448,192,84081,128,0,84338:0:0:0:0:
320,192,84252,128,0,84509:0:0:0:0:
64,192,84252,1,0,0:0:0:0:
192,192,84338,128,0,84424:0:0:0:0:
448,192,84424,128,0,84595:0:0:0:0:
192,192,84595,1,0,0:0:0:0:
64,192,84767,128,0,85024:0:0:0:0:
448,192,84767,1,0,0:0:0:0:
448,192,84938,128,0,85195:0:0:0:0:
320,192,84938,128,0,85024:0:0:0:0:
192,192,84938,1,0,0:0:0:0:
64,192,85109,128,0,85281:0:0:0:0:
320,192,85109,1,0,0:0:0:0:
320,192,85281,128,0,85538:0:0:0:0:
448,192,85281,1,0,0:0:0:0:
192,192,85367,128,0,85452:0:0:0:0:
448,192,85452,128,0,85624:0:0:0:0:
64,192,85538,128,0,85881:0:0:0:0:
192,192,85624,1,0,0:0:0:0:
320,192,85624,1,0,0:0:0:0:
192,192,85795,128,0,85967:0:0:0:0:
320,192,85881,128,0,86138:0:0:0:0:
448,192,85967,128,0,86052:0:0:0:0:
192,192,86052,128,0,86224:0:0:0:0:
64,192,86138,128,0,86309:0:0:0:0:
448,192,86138,1,0,0:0:0:0:
448,192,86309,1,0,0:0:0:0:
320,192,86309,128,0,86567:0:0:0:0:
192,192,86481,128,0,86738:0:0:0:0:
320,192,86652,128,0,86824:0:0:0:0:
448,192,86652,128,0,86909:0:0:0:0:
64,192,86824,128,0,87081:0:0:0:0:
192,192,86995,128,0,87167:0:0:0:0:
448,192,86995,1,0,0:0:0:0:
320,192,87081,128,0,87252:0:0:0:0:
448,192,87167,128,0,87338:0:0:0:0:
64,192,87167,1,0,0:0:0:0:
192,192,87252,1,0,0:0:0:0:
320,192,87338,1,0,0:0:0:0:
64,192,87338,1,0,0:0:0:0:
448,192,87509,1,0,0:0:0:0:
448,192,87681,1,0,0:0:0:0:
192,192,87681,1,0,0:0:0:0:
192,192,87852,1,0,0:0:0:0:
448,192,88024,1,0,0:0:0:0:
64,192,88024,1,0,0:0:0:0:
320,192,88109,1,0,0:0:0:0:
192,192,88195,1,0,0:0:0:0:
64,192,88281,1,0,0:0:0:0:
320,192,88367,1,0,0:0:0:0:
448,192,88367,1,0,0:0:0:0:
64,192,88452,1,0,0:0:0:0:
192,192,88538,1,0,0:0:0:0:
320,192,88624,1,0,0:0:0:0:
448,192,88709,1,0,0:0:0:0:
192,192,88795,1,0,0:0:0:0:
64,192,88881,1,0,0:0:0:0:
448,192,88881,1,0,0:0:0:0:
320,192,88967,1,0,0:0:0:0:
64,192,89052,1,0,0:0:0:0:
192,192,89052,1,0,0:0:0:0:
320,192,89138,1,0,0:0:0:0:
448,192,89224,1,0,0:0:0:0:
192,192,89309,1,0,0:0:0:0:
448,192,89395,1,0,0:0:0:0:
64,192,89395,1,0,0:0:0:0:
320,192,89481,1,0,0:0:0:0:
192,192,89567,1,0,0:0:0:0:
64,192,89652,1,0,0:0:0:0:
320,192,89738,1,0,0:0:0:0:
448,192,89738,1,0,0:0:0:0:
64,192,89824,1,0,0:0:0:0:
192,192,89909,1,0,0:0:0:0:
320,192,89995,1,0,0:0:0:0:
448,192,90081,1,0,0:0:0:0:
64,192,90081,1,0,0:0:0:0:
192,192,90167,1,0,0:0:0:0:
320,192,90252,1,0,0:0:0:0:
448,192,90252,1,0,0:0:0:0:
192,192,90338,1,0,0:0:0:0:
64,192,90424,1,0,0:0:0:0:
448,192,90424,1,0,0:0:0:0:
320,192,90509,1,0,0:0:0:0:
192,192,90595,1,0,0:0:0:0:
320,192,90681,1,0,0:0:0:0:
448,192,90767,1,0,0:0:0:0:
64,192,90767,1,0,0:0:0:0:
320,192,90852,1,0,0:0:0:0:
192,192,90938,1,0,0:0:0:0:
64,192,91024,1,0,0:0:0:0:
320,192,91109,1,0,0:0:0:0:
448,192,91109,1,0,0:0:0:0:
64,192,91195,1,0,0:0:0:0:
192,192,91281,1,0,0:0:0:0:
320,192,91367,1,0,0:0:0:0:
448,192,91452,1,0,0:0:0:0:
192,192,91538,1,0,0:0:0:0:
64,192,91624,1,0,0:0:0:0:
448,192,91624,1,0,0:0:0:0:
320,192,91709,1,0,0:0:0:0:
64,192,91795,1,0,0:0:0:0:
192,192,91795,1,0,0:0:0:0:
320,192,91881,1,0,0:0:0:0:
448,192,91967,1,0,0:0:0:0:
64,192,92052,1,0,0:0:0:0:
448,192,92138,1,0,0:0:0:0:
320,192,92138,1,0,0:0:0:0:
192,192,92224,1,0,0:0:0:0:
64,192,92224,1,0,0:0:0:0:
448,192,92309,1,0,0:0:0:0:
320,192,92395,1,0,0:0:0:0:
192,192,92481,1,0,0:0:0:0:
448,192,92567,1,0,0:0:0:0:
192,192,92652,1,0,0:0:0:0:
64,192,92652,1,0,0:0:0:0:
320,192,92738,1,0,0:0:0:0:
448,192,92738,1,0,0:0:0:0:
64,192,92824,1,0,0:0:0:0:
192,192,92909,1,0,0:0:0:0:
448,192,92995,1,0,0:0:0:0:
320,192,93081,1,0,0:0:0:0:
64,192,93167,1,0,0:0:0:0:
192,192,93167,1,0,0:0:0:0:
320,192,93338,1,0,0:0:0:0:
448,192,93509,1,0,0:0:0:0:
192,192,93509,1,0,0:0:0:0:
64,192,93509,1,0,0:0:0:0:
64,192,93681,1,0,0:0:0:0:
320,192,93852,1,0,0:0:0:0:
448,192,93852,1,0,0:0:0:0:
192,192,93852,1,0,0:0:0:0:
320,192,94024,1,0,0:0:0:0:
448,192,94024,1,0,0:0:0:0:
192,192,94195,1,0,0:0:0:0:
64,192,94195,1,0,0:0:0:0:
192,192,94367,1,0,0:0:0:0:
448,192,94367,1,0,0:0:0:0:
320,192,94538,1,0,0:0:0:0:
448,192,94538,1,0,0:0:0:0:
64,192,94538,1,0,0:0:0:0:
320,192,94709,1,0,0:0:0:0:
192,192,94881,1,0,0:0:0:0:
64,192,94881,1,0,0:0:0:0:
448,192,94967,1,0,0:0:0:0:
320,192,95052,1,0,0:0:0:0:
192,192,95138,1,0,0:0:0:0:
448,192,95224,1,0,0:0:0:0:
64,192,95224,1,0,0:0:0:0:
320,192,95309,1,0,0:0:0:0:
192,192,95395,1,0,0:0:0:0:
448,192,95481,1,0,0:0:0:0:
320,192,95567,1,0,0:0:0:0:
64,192,95567,1,0,0:0:0:0:
448,192,95652,1,0,0:0:0:0:
192,192,95738,1,0,0:0:0:0:
64,192,95738,1,0,0:0:0:0:
320,192,95824,1,0,0:0:0:0:
448,192,95909,1,0,0:0:0:0:
64,192,95909,1,0,0:0:0:0:
192,192,95995,1,0,0:0:0:0:
320,192,96081,1,0,0:0:0:0:
448,192,96167,1,0,0:0:0:0:
192,192,96252,1,0,0:0:0:0:
64,192,96252,1,0,0:0:0:0:
192,192,96424,1,0,0:0:0:0:
192,192,96595,1,0,0:0:0:0:
64,192,96595,1,0,0:0:0:0:
448,192,96595,1,0,0:0:0:0:
320,192,96681,1,0,0:0:0:0:
192,192,96767,1,0,0:0:0:0:
64,192,96852,1,0,0:0:0:0:
448,192,96938,1,0,0:0:0:0:
320,192,96938,1,0,0:0:0:0:
64,192,97109,1,0,0:0:0:0:
320,192,97109,1,0,0:0:0:0:
192,192,97281,1,0,0:0:0:0:
64,192,97281,1,0,0:0:0:0:
448,192,97281,1,0,0:0:0:0:
320,192,97452,1,0,0:0:0:0:
192,192,97624,1,0,0:0:0:0:
64,192,97624,1,0,0:0:0:0:
448,192,97709,1,0,0:0:0:0:
192,192,97795,1,0,0:0:0:0:
320,192,97881,1,0,0:0:0:0:
448,192,97967,1,0,0:0:0:0:
64,192,97967,1,0,0:0:0:0:
192,192,97967,1,0,0:0:0:0:
64,192,98138,1,0,0:0:0:0:
320,192,98309,1,0,0:0:0:0:
448,192,98309,1,0,0:0:0:0:
192,192,98395,1,0,0:0:0:0:
448,192,98481,1,0,0:0:0:0:
64,192,98481,1,0,0:0:0:0:
320,192,98567,1,0,0:0:0:0:
192,192,98652,1,0,0:0:0:0:
64,192,98652,1,0,0:0:0:0:
448,192,98652,1,0,0:0:0:0:
192,192,98824,1,0,0:0:0:0:
64,192,98995,1,0,0:0:0:0:
320,192,98995,1,0,0:0:0:0:
448,192,98995,1,0,0:0:0:0:
448,192,99167,1,0,0:0:0:0:
192,192,99338,1,0,0:0:0:0:
64,192,99338,1,0,0:0:0:0:
320,192,99338,1,0,0:0:0:0:
192,192,99509,1,0,0:0:0:0:
64,192,99509,1,0,0:0:0:0:
320,192,99681,1,0,0:0:0:0:
448,192,99681,1,0,0:0:0:0:
320,192,99852,1,0,0:0:0:0:
64,192,99852,1,0,0:0:0:0:
192,192,100024,1,0,0:0:0:0:
64,192,100024,1,0,0:0:0:0:
448,192,100024,1,0,0:0:0:0:
192,192,100195,1,0,0:0:0:0:
320,192,100367,1,0,0:0:0:0:
448,192,100367,1,0,0:0:0:0:
64,192,100452,1,0,0:0:0:0:
192,192,100538,1,0,0:0:0:0:
320,192,100624,1,0,0:0:0:0:
64,192,100709,1,0,0:0:0:0:
448,192,100709,1,0,0:0:0:0:
192,192,100795,1,0,0:0:0:0:
320,192,100881,1,0,0:0:0:0:
64,192,100967,1,0,0:0:0:0:
192,192,101052,1,0,0:0:0:0:
448,192,101052,1,0,0:0:0:0:
64,192,101138,1,0,0:0:0:0:
320,192,101224,1,0,0:0:0:0:
448,192,101224,1,0,0:0:0:0:
192,192,101309,1,0,0:0:0:0:
64,192,101395,1,0,0:0:0:0:
448,192,101395,1,0,0:0:0:0:
320,192,101481,1,0,0:0:0:0:
192,192,101567,1,0,0:0:0:0:
64,192,101652,1,0,0:0:0:0:
320,192,101738,1,0,0:0:0:0:
448,192,101738,1,0,0:0:0:0:
320,192,101909,1,0,0:0:0:0:
192,192,102081,1,0,0:0:0:0:
64,192,102081,1,0,0:0:0:0:
448,192,102081,1,0,0:0:0:0:
64,192,102252,1,0,0:0:0:0:
192,192,102424,1,0,0:0:0:0:
320,192,102424,1,0,0:0:0:0:
448,192,102595,1,0,0:0:0:0:
320,192,102595,1,0,0:0:0:0:
192,192,102767,1,0,0:0:0:0:
64,192,102767,1,0,0:0:0:0:
448,192,102767,1,0,0:0:0:0:
64,192,102938,1,0,0:0:0:0:
320,192,103109,1,0,0:0:0:0:
448,192,103109,1,0,0:0:0:0:
64,192,103195,1,0,0:0:0:0:
192,192,103281,1,0,0:0:0:0:
320,192,103367,1,0,0:0:0:0:
64,192,103452,1,0,0:0:0:0:
448,192,103452,1,0,0:0:0:0:
192,192,103452,1,0,0:0:0:0:
448,192,103624,1,0,0:0:0:0:
192,192,103709,1,0,0:0:0:0:
64,192,103795,1,0,0:0:0:0:
320,192,103795,1,0,0:0:0:0:
448,192,103881,1,0,0:0:0:0:
192,192,103967,1,0,0:0:0:0:
320,192,104052,1,0,0:0:0:0:
448,192,104138,1,0,0:0:0:0:
64,192,104138,1,0,0:0:0:0:
192,192,104138,1,0,0:0:0:0:
192,192,104309,1,0,0:0:0:0:
64,192,104309,1,0,0:0:0:0:
448,192,104309,1,0,0:0:0:0:
192,192,104481,1,0,0:0:0:0:
320,192,104481,1,0,0:0:0:0:
320,192,104652,1,0,0:0:0:0:
192,192,104652,1,0,0:0:0:0:
320,192,104824,1,0,0:0:0:0:
64,192,104824,1,0,0:0:0:0:
448,192,104824,1,0,0:0:0:0:
192,192,104995,1,0,0:0:0:0:
320,192,105167,1,0,0:0:0:0:
448,192,105167,1,0,0:0:0:0:
64,192,105338,1,0,0:0:0:0:
320,192,105338,1,0,0:0:0:0:
192,192,105509,1,0,0:0:0:0:
64,192,105509,1,0,0:0:0:0:
448,192,105509,1,0,0:0:0:0:
320,192,105681,1,0,0:0:0:0:
64,192,105852,128,0,106024:0:0:0:0:
448,192,105852,1,0,0:0:0:0:
192,192,105938,128,0,106538:0:0:0:0:
320,192,106024,128,0,106367:0:0:0:0:
448,192,106195,1,0,0:0:0:0:
64,192,106195,1,0,0:0:0:0:
64,192,106367,1,0,0:0:0:0:
448,192,106538,1,0,0:0:0:0:
64,192,106538,128,0,106709:0:0:0:0:
320,192,106624,1,0,0:0:0:0:
448,192,106709,1,0,0:0:0:0:
192,192,106709,128,0,106881:0:0:0:0:
320,192,106795,1,0,0:0:0:0:
64,192,106881,1,0,0:0:0:0:
448,192,106881,128,0,107052:0:0:0:0:
192,192,106967,1,0,0:0:0:0:
64,192,107052,1,0,0:0:0:0:
320,192,107052,128,0,107224:0:0:0:0:
192,192,107138,1,0,0:0:0:0:
448,192,107224,1,0,0:0:0:0:
64,192,107224,1,0,0:0:0:0:
320,192,107567,1,0,0:0:0:0:
448,192,107567,1,0,0:0:0:0:
64,192,107567,1,0,0:0:0:0:
320,192,107738,1,0,0:0:0:0:
448,192,107738,1,0,0:0:0:0:
192,192,107909,1,0,0:0:0:0:
64,192,107909,1,0,0:0:0:0:
448,192,108081,1,0,0:0:0:0:
192,192,108081,1,0,0:0:0:0:
320,192,108252,1,0,0:0:0:0:
448,192,108252,1,0,0:0:0:0:
64,192,108252,1,0,0:0:0:0:
192,192,108424,1,0,0:0:0:0:
448,192,108595,128,0,108767:0:0:0:0:
64,192,108595,1,0,0:0:0:0:
320,192,108681,128,0,108852:0:0:0:0:
192,192,108767,128,0,109024:0:0:0:0:
64,192,108938,1,0,0:0:0:0:
320,192,108938,128,0,109109:0:0:0:0:
448,192,109024,128,0,109195:0:0:0:0:
192,192,109109,1,0,0:0:0:0:
64,192,109281,128,0,109538:0:0:0:0:
320,192,109281,1,0,0:0:0:0:
448,192,109367,1,0,0:0:0:0:
192,192,109452,128,0,109709:0:0:0:0:
320,192,109452,1,0,0:0:0:0:
448,192,109538,1,0,0:0:0:0:
320,192,109624,128,0,109881:0:0:0:0:
64,192,109624,1,0,0:0:0:0:
448,192,109795,128,0,109881:0:0:0:0:
192,192,109795,1,0,0:0:0:0:
64,192,109967,1,0,0:0:0:0:
320,192,109967,1,0,0:0:0:0:
192,192,109967,1,0,0:0:0:0:
320,192,110138,1,0,0:0:0:0:
64,192,110138,1,0,0:0:0:0:
192,192,110309,1,0,0:0:0:0:
448,192,110309,1,0,0:0:0:0:
448,192,110481,1,0,0:0:0:0:
192,192,110481,1,0,0:0:0:0:
64,192,110652,1,0,0:0:0:0:
192,192,110652,1,0,0:0:0:0:
320,192,110824,1,0,0:0:0:0:
64,192,110824,1,0,0:0:0:0:
320,192,110995,1,0,0:0:0:0:
448,192,110995,1,0,0:0:0:0:
448,192,111167,1,0,0:0:0:0:
192,192,111167,1,0,0:0:0:0:
320,192,111338,1,0,0:0:0:0:
64,192,111338,1,0,0:0:0:0:
320,192,111509,1,0,0:0:0:0:
448,192,111509,1,0,0:0:0:0:
192,192,111681,1,0,0:0:0:0:
448,192,111681,1,0,0:0:0:0:
192,192,111852,1,0,0:0:0:0:
64,192,111852,1,0,0:0:0:0:
320,192,112024,1,0,0:0:0:0:
448,192,112024,1,0,0:0:0:0:
320,192,112195,1,0,0:0:0:0:
192,192,112195,1,0,0:0:0:0:
192,192,112367,1,0,0:0:0:0:
64,192,112367,1,0,0:0:0:0:
320,192,112538,1,0,0:0:0:0:
448,192,112538,1,0,0:0:0:0:
64,192,112709,1,0,0:0:0:0:
448,192,112709,1,0,0:0:0:0:
192,192,112795,1,0,0:0:0:0:
320,192,112881,1,0,0:0:0:0:
448,192,112881,1,0,0:0:0:0:
192,192,112967,1,0,0:0:0:0:
64,192,113052,1,0,0:0:0:0:
320,192,113052,1,0,0:0:0:0:
448,192,113138,1,0,0:0:0:0:
192,192,113224,1,0,0:0:0:0:
64,192,113224,1,0,0:0:0:0:
448,192,113309,1,0,0:0:0:0:
320,192,113395,1,0,0:0:0:0:
192,192,113395,1,0,0:0:0:0:
64,192,113481,1,0,0:0:0:0:
320,192,113567,1,0,0:0:0:0:
448,192,113567,1,0,0:0:0:0:
192,192,113652,1,0,0:0:0:0:
64,192,113738,1,0,0:0:0:0:
320,192,113738,1,0,0:0:0:0:
448,192,113824,1,0,0:0:0:0:
192,192,113909,1,0,0:0:0:0:
64,192,113909,1,0,0:0:0:0:
320,192,113995,1,0,0:0:0:0:
448,192,114081,1,0,0:0:0:0:
64,192,114081,1,0,0:0:0:0:
192,192,114167,1,0,0:0:0:0:
320,192,114252,1,0,0:0:0:0:
64,192,114252,1,0,0:0:0:0:
448,192,114338,1,0,0:0:0:0:
192,192,114338,1,0,0:0:0:0:
320,192,114424,1,0,0:0:0:0:
64,192,114509,1,0,0:0:0:0:
448,192,114595,1,0,0:0:0:0:
192,192,114681,1,0,0:0:0:0:
320,192,114767,1,0,0:0:0:0:
64,192,114767,1,0,0:0:0:0:
448,192,114852,1,0,0:0:0:0:
192,192,114852,1,0,0:0:0:0:
320,192,114938,1,0,0:0:0:0:
64,192,115024,1,0,0:0:0:0:
192,192,115109,1,0,0:0:0:0:
448,192,115109,1,0,0:0:0:0:
320,192,115195,1,0,0:0:0:0:
192,192,115281,1,0,0:0:0:0:
64,192,115281,1,0,0:0:0:0:
448,192,115452,1,0,0:0:0:0:
192,192,115452,1,0,0:0:0:0:
64,192,115452,1,0,0:0:0:0:
320,192,115452,1,0,0:0:0:0:
192,192,120024,1,0,0:0:0:0:
64,192,120538,1,0,0:0:0:0:
320,192,120938,1,0,0:0:0:0:
448,192,121409,1,0,0:0:0:0:
320,192,121924,1,0,0:0:0:0:
64,192,122309,1,0,0:0:0:0:
192,192,122767,1,0,0:0:0:0:
64,192,123281,1,0,0:0:0:0:
320,192,123681,1,0,0:0:0:0:
448,192,124152,1,0,0:0:0:0:
192,192,124667,1,0,0:0:0:0:
320,192,125052,1,0,0:0:0:0:
64,192,125509,1,0,0:0:0:0:
192,192,126024,1,0,0:0:0:0:
448,192,126424,1,0,0:0:0:0:
320,192,126938,1,0,0:0:0:0:
448,192,127452,1,0,0:0:0:0:
64,192,127795,1,0,0:0:0:0:
192,192,128267,1,0,0:0:0:0:
320,192,128781,1,0,0:0:0:0:
64,192,129167,1,0,0:0:0:0:
448,192,129652,1,0,0:0:0:0:
320,192,130167,1,0,0:0:0:0:
64,192,130538,1,0,0:0:0:0:
192,192,130988,1,0,0:0:0:0:
448,192,131502,1,0,0:0:0:0:
320,192,131909,1,0,0:0:0:0:
64,192,132381,1,0,0:0:0:0:
192,192,132895,1,0,0:0:0:0:
320,192,133281,1,0,0:0:0:0:
448,192,133731,1,0,0:0:0:0:
192,192,134245,1,0,0:0:0:0:
64,192,134652,1,0,0:0:0:0:
320,192,135124,1,0,0:0:0:0:
192,192,135638,128,0,137052:0:0:0:0:
448,192,136024,128,0,136538:0:0:0:0:
320,192,136195,128,0,136367:0:0:0:0:
64,192,136367,128,0,136881:0:0:0:0:
320,192,136538,128,0,136709:0:0:0:0:
448,192,136709,128,0,137224:0:0:0:0:
320,192,136881,128,0,137224:0:0:0:0:
64,192,137052,128,0,137224:0:0:0:0:
192,192,137224,128,0,137395:0:0:0:0:
448,192,137395,1,0,0:0:0:0:
320,192,137395,128,0,138081:0:0:0:0:
64,192,137395,128,0,138424:0:0:0:0:
448,192,137738,128,0,138424:0:0:0:0:
192,192,137738,1,0,0:0:0:0:
192,192,138081,128,0,138424:0:0:0:0:
320,192,138424,128,0,138938:0:0:0:0:
448,192,138767,128,0,139281:0:0:0:0:
192,192,138767,1,0,0:0:0:0:
64,192,138852,128,0,139795:0:0:0:0:
320,192,139109,1,0,0:0:0:0:
192,192,139452,128,0,139624:0:0:0:0:
448,192,139452,1,0,0:0:0:0:
320,192,139538,128,0,140138:0:0:0:0:
192,192,139795,1,0,0:0:0:0:
64,192,140138,1,0,0:0:0:0:
448,192,140138,128,0,140309:0:0:0:0:
192,192,140224,128,0,140652:0:0:0:0:
448,192,140481,128,0,140652:0:0:0:0:
320,192,140824,1,0,0:0:0:0:
448,192,140909,128,0,141424:0:0:0:0:
192,192,141167,1,0,0:0:0:0:
320,192,141252,128,0,141681:0:0:0:0:
64,192,141509,1,0,0:0:0:0:
448,192,141509,128,0,141681:0:0:0:0:
192,192,141595,128,0,142024:0:0:0:0:
64,192,141852,128,0,142709:0:0:0:0:
320,192,141852,128,0,142024:0:0:0:0:
192,192,142195,128,0,142709:0:0:0:0:
320,192,142538,128,0,142709:0:0:0:0:
64,192,142881,1,0,0:0:0:0:
192,192,142881,128,0,143567:0:0:0:0:
448,192,142881,128,0,143909:0:0:0:0:
64,192,143224,128,0,143909:0:0:0:0:
320,192,143224,1,0,0:0:0:0:
320,192,143567,128,0,143909:0:0:0:0:
192,192,143909,128,0,144424:0:0:0:0:
64,192,144252,128,0,144767:0:0:0:0:
320,192,144252,1,0,0:0:0:0:
448,192,144338,128,0,145281:0:0:0:0:
192,192,144595,1,0,0:0:0:0:
320,192,144938,128,0,145109:0:0:0:0:
64,192,144938,1,0,0:0:0:0:
192,192,145024,128,0,145624:0:0:0:0:
320,192,145281,1,0,0:0:0:0:
448,192,145624,1,0,0:0:0:0:
64,192,145624,128,0,145795:0:0:0:0:
320,192,145709,128,0,146138:0:0:0:0:
64,192,145967,128,0,146138:0:0:0:0:
192,192,146309,1,0,0:0:0:0:
64,192,146395,128,0,146995:0:0:0:0:
320,192,146652,1,0,0:0:0:0:
192,192,146738,128,0,146995:0:0:0:0:
448,192,146995,1,0,0:0:0:0:
320,192,146995,1,0,0:0:0:0:
64,192,147081,1,0,0:0:0:0:
448,192,147167,1,0,0:0:0:0:
192,192,147167,1,0,0:0:0:0:
64,192,147252,1,0,0:0:0:0:
320,192,147338,1,0,0:0:0:0:
192,192,147338,1,0,0:0:0:0:
64,192,147424,1,0,0:0:0:0:
448,192,147509,1,0,0:0:0:0:
320,192,147509,1,0,0:0:0:0:
192,192,147595,1,0,0:0:0:0:
320,192,147681,1,0,0:0:0:0:
64,192,147681,1,0,0:0:0:0:
448,192,147767,1,0,0:0:0:0:
320,192,147852,1,0,0:0:0:0:
192,192,147852,1,0,0:0:0:0:
448,192,147938,1,0,0:0:0:0:
192,192,148024,1,0,0:0:0:0:
64,192,148024,1,0,0:0:0:0:
320,192,148109,1,0,0:0:0:0:
64,192,148195,1,0,0:0:0:0:
448,192,148195,1,0,0:0:0:0:
192,192,148281,1,0,0:0:0:0:
64,192,148367,1,0,0:0:0:0:
320,192,148367,128,0,148881:0:0:0:0:
448,192,148367,1,0,0:0:0:0:
64,192,148709,1,0,0:0:0:0:
448,192,148709,128,0,149224:0:0:0:0:
320,192,149052,128,0,149652:0:0:0:0:
64,192,149052,1,0,0:0:0:0:
448,192,149395,128,0,149652:0:0:0:0:
64,192,149395,1,0,0:0:0:0:
448,192,149738,128,0,149909:0:0:0:0:
64,192,149738,1,0,0:0:0:0:
320,192,149824,128,0,150081:0:0:0:0:
192,192,149909,128,0,149995:0:0:0:0:
448,192,149995,128,0,150167:0:0:0:0:
64,192,150081,128,0,150252:0:0:0:0:
192,192,150167,128,0,150424:0:0:0:0:
320,192,150252,128,0,150338:0:0:0:0:
64,192,150338,128,0,150509:0:0:0:0:
448,192,150424,128,0,150681:0:0:0:0:
320,192,150509,128,0,150681:0:0:0:0:
192,192,150595,128,0,150767:0:0:0:0:
64,192,150681,128,0,150767:0:0:0:0:
448,192,150767,1,0,0:0:0:0:
320,192,150767,1,0,0:0:0:0:
192,192,151109,128,0,151624:0:0:0:0:
448,192,151109,1,0,0:0:0:0:
448,192,151452,1,0,0:0:0:0:
64,192,151452,128,0,151967:0:0:0:0:
192,192,151795,128,0,152395:0:0:0:0:
448,192,151795,1,0,0:0:0:0:
64,192,152138,128,0,152395:0:0:0:0:
448,192,152138,1,0,0:0:0:0:
64,192,152481,128,0,152652:0:0:0:0:
448,192,152481,1,0,0:0:0:0:
192,192,152567,128,0,152824:0:0:0:0:
320,192,152652,128,0,152738:0:0:0:0:
64,192,152738,128,0,152909:0:0:0:0:
448,192,152824,128,0,152995:0:0:0:0:
320,192,152909,128,0,153167:0:0:0:0:
192,192,152995,128,0,153081:0:0:0:0:
448,192,153081,128,0,153252:0:0:0:0:
64,192,153167,1,0,0:0:0:0:
192,192,153167,128,0,153252:0:0:0:0:
320,192,153252,128,0,153338:0:0:0:0:
64,192,153338,1,0,0:0:0:0:
448,192,153338,128,0,153424:0:0:0:0:
192,192,153424,1,0,0:0:0:0:
64,192,153509,1,0,0:0:0:0:
320,192,153509,1,0,0:0:0:0:
448,192,153509,1,0,0:0:0:0:
320,192,153681,1,0,0:0:0:0:
192,192,153681,1,0,0:0:0:0:
320,192,153852,1,0,0:0:0:0:
448,192,153852,1,0,0:0:0:0:
448,192,154024,1,0,0:0:0:0:
192,192,154024,1,0,0:0:0:0:
192,192,154195,1,0,0:0:0:0:
320,192,154195,1,0,0:0:0:0:
64,192,154367,1,0,0:0:0:0:
320,192,154367,1,0,0:0:0:0:
192,192,154538,1,0,0:0:0:0:
64,192,154538,1,0,0:0:0:0:
448,192,154709,1,0,0:0:0:0:
192,192,154709,1,0,0:0:0:0:
320,192,154881,1,0,0:0:0:0:
448,192,154881,1,0,0:0:0:0:
64,192,155052,1,0,0:0:0:0:
320,192,155052,1,0,0:0:0:0:
192,192,155224,1,0,0:0:0:0:
64,192,155224,1,0,0:0:0:0:
192,192,155395,1,0,0:0:0:0:
320,192,155395,1,0,0:0:0:0:
448,192,155567,1,0,0:0:0:0:
320,192,155567,1,0,0:0:0:0:
64,192,155738,1,0,0:0:0:0:
448,192,155738,1,0,0:0:0:0:
192,192,155909,1,0,0:0:0:0:
64,192,155909,1,0,0:0:0:0:
320,192,156081,1,0,0:0:0:0:
448,192,156081,1,0,0:0:0:0:
320,192,156252,1,0,0:0:0:0:
192,192,156252,1,0,0:0:0:0:
192,192,156424,1,0,0:0:0:0:
64,192,156424,1,0,0:0:0:0:
448,192,156595,1,0,0:0:0:0:
320,192,156595,1,0,0:0:0:0:
64,192,156681,1,0,0:0:0:0:
192,192,156767,1,0,0:0:0:0:
448,192,156767,1,0,0:0:0:0:
64,192,156852,1,0,0:0:0:0:
320,192,156938,1,0,0:0:0:0:
192,192,156938,1,0,0:0:0:0:
448,192,157024,1,0,0:0:0:0:
320,192,157109,1,0,0:0:0:0:
64,192,157109,1,0,0:0:0:0:
448,192,157195,1,0,0:0:0:0:
192,192,157281,1,0,0:0:0:0:
64,192,157281,1,0,0:0:0:0:
320,192,157367,1,0,0:0:0:0:
192,192,157452,1,0,0:0:0:0:
448,192,157452,1,0,0:0:0:0:
320,192,157538,1,0,0:0:0:0:
64,192,157624,1,0,0:0:0:0:
448,192,157624,1,0,0:0:0:0:
192,192,157709,1,0,0:0:0:0:
64,192,157795,1,0,0:0:0:0:
320,192,157795,1,0,0:0:0:0:
448,192,157881,1,0,0:0:0:0:
192,192,157967,1,0,0:0:0:0:
64,192,157967,1,0,0:0:0:0:
320,192,158052,1,0,0:0:0:0:
64,192,158138,1,0,0:0:0:0:
448,192,158138,1,0,0:0:0:0:
192,192,158224,1,0,0:0:0:0:
320,192,158309,1,0,0:0:0:0:
448,192,158309,1,0,0:0:0:0:
192,192,158395,1,0,0:0:0:0:
64,192,158481,1,0,0:0:0:0:
448,192,158481,1,0,0:0:0:0:
320,192,158567,1,0,0:0:0:0:
192,192,158652,128,0,159338:0:0:0:0:
448,192,159338,1,0,0:0:0:0:
64,192,159338,1,0,0:0:0:0:
320,192,160709,1,0,0:0:0:0:
320,192,161052,1,0,0:0:0:0:
320,192,161395,1,0,0:0:0:0:
320,192,161738,1,0,0:0:0:0:
448,192,162081,1,0,0:0:0:0:
192,192,162081,128,0,162338:0:0:0:0:
64,192,162167,128,0,162252:0:0:0:0:
320,192,162252,128,0,162424:0:0:0:0:
448,192,162338,128,0,162681:0:0:0:0:
64,192,162424,1,0,0:0:0:0:
192,192,162424,1,0,0:0:0:0:
320,192,162595,128,0,162767:0:0:0:0:
192,192,162681,128,0,162938:0:0:0:0:
64,192,162767,128,0,162852:0:0:0:0:
320,192,162852,128,0,163024:0:0:0:0:
448,192,162938,128,0,163109:0:0:0:0:
64,192,162938,1,0,0:0:0:0:
64,192,163109,1,0,0:0:0:0:
192,192,163109,128,0,163367:0:0:0:0:
320,192,163281,128,0,163538:0:0:0:0:
448,192,163452,128,0,163709:0:0:0:0:
64,192,163452,128,0,163709:0:0:0:0:
192,192,163624,128,0,163881:0:0:0:0:
64,192,163795,128,0,164052:0:0:0:0:
320,192,163795,1,0,0:0:0:0:
448,192,163881,128,0,164138:0:0:0:0:
320,192,163967,128,0,164138:0:0:0:0:
192,192,164138,128,0,164395:0:0:0:0:
64,192,164309,1,0,0:0:0:0:
320,192,164309,128,0,164567:0:0:0:0:
448,192,164481,1,0,0:0:0:0:
64,192,164481,128,0,164738:0:0:0:0:
192,192,164481,1,0,0:0:0:0:
192,192,164652,128,0,164909:0:0:0:0:
448,192,164652,128,0,164738:0:0:0:0:
64,192,164824,1,0,0:0:0:0:
320,192,164824,128,0,165081:0:0:0:0:
448,192,164909,128,0,164995:0:0:0:0:
192,192,164995,128,0,165167:0:0:0:0:
64,192,165081,128,0,165424:0:0:0:0:
448,192,165167,1,0,0:0:0:0:
320,192,165167,1,0,0:0:0:0:
192,192,165338,128,0,165509:0:0:0:0:
320,192,165424,128,0,165681:0:0:0:0:
448,192,165509,128,0,165595:0:0:0:0:
192,192,165595,128,0,165767:0:0:0:0:
64,192,165681,128,0,165852:0:0:0:0:
448,192,165681,1,0,0:0:0:0:
448,192,165852,1,0,0:0:0:0:
320,192,165852,128,0,166109:0:0:0:0:
192,192,166024,128,0,166281:0:0:0:0:
64,192,166195,128,0,166452:0:0:0:0:
448,192,166195,128,0,166452:0:0:0:0:
320,192,166367,128,0,166624:0:0:0:0:
448,192,166538,128,0,166795:0:0:0:0:
192,192,166538,1,0,0:0:0:0:
64,192,166624,128,0,166881:0:0:0:0:
192,192,166709,128,0,166881:0:0:0:0:
320,192,166795,1,0,0:0:0:0:
448,192,166881,1,0,0:0:0:0:
192,192,167052,1,0,0:0:0:0:
320,192,167052,128,0,167309:0:0:0:0:
192,192,167224,1,0,0:0:0:0:
64,192,167224,128,0,167481:0:0:0:0:
448,192,167224,128,0,167309:0:0:0:0:
320,192,167395,1,0,0:0:0:0:
448,192,167395,128,0,167567:0:0:0:0:
192,192,167567,128,0,167738:0:0:0:0:
64,192,167567,128,0,167652:0:0:0:0:
320,192,167652,128,0,167824:0:0:0:0:
448,192,167738,128,0,167995:0:0:0:0:
64,192,167909,128,0,168081:0:0:0:0:
320,192,167909,1,0,0:0:0:0:
192,192,167995,128,0,168252:0:0:0:0:
320,192,168081,128,0,168167:0:0:0:0:
64,192,168167,128,0,168338:0:0:0:0:
448,192,168252,1,0,0:0:0:0:
320,192,168338,1,0,0:0:0:0:
64,192,168424,1,0,0:0:0:0:
192,192,168424,128,0,168681:0:0:0:0:
320,192,168595,128,0,168852:0:0:0:0:
448,192,168595,128,0,168681:0:0:0:0:
64,192,168595,1,0,0:0:0:0:
64,192,168767,128,0,168938:0:0:0:0:
192,192,168767,1,0,0:0:0:0:
320,192,168938,128,0,169109:0:0:0:0:
448,192,168938,128,0,169024:0:0:0:0:
192,192,169024,128,0,169195:0:0:0:0:
64,192,169109,128,0,169367:0:0:0:0:
448,192,169281,128,0,169452:0:0:0:0:
192,192,169281,1,0,0:0:0:0:
320,192,169367,128,0,169624:0:0:0:0:
192,192,169452,128,0,169538:0:0:0:0:
448,192,169538,128,0,169709:0:0:0:0:
64,192,169624,1,0,0:0:0:0:
192,192,169709,1,0,0:0:0:0:
448,192,169795,1,0,0:0:0:0:
320,192,169795,128,0,170052:0:0:0:0:
192,192,169967,128,0,170224:0:0:0:0:
64,192,169967,128,0,170052:0:0:0:0:
448,192,169967,1,0,0:0:0:0:
448,192,170138,128,0,170309:0:0:0:0:
320,192,170138,1,0,0:0:0:0:
64,192,170309,128,0,170395:0:0:0:0:
192,192,170309,128,0,170481:0:0:0:0:
320,192,170395,128,0,170567:0:0:0:0:
448,192,170481,128,0,170738:0:0:0:0:
320,192,170652,1,0,0:0:0:0:
64,192,170652,128,0,170824:0:0:0:0:
192,192,170738,128,0,170995:0:0:0:0:
320,192,170824,128,0,170909:0:0:0:0:
64,192,170909,128,0,171081:0:0:0:0:
448,192,170995,1,0,0:0:0:0:
320,192,171081,1,0,0:0:0:0:
64,192,171167,1,0,0:0:0:0:
192,192,171167,128,0,171424:0:0:0:0:
320,192,171338,128,0,171595:0:0:0:0:
448,192,171338,128,0,171424:0:0:0:0:
64,192,171338,1,0,0:0:0:0:
64,192,171509,128,0,171681:0:0:0:0:
320,192,171681,128,0,171852:0:0:0:0:
448,192,171681,128,0,171767:0:0:0:0:
192,192,171767,128,0,171938:0:0:0:0:
64,192,171852,128,0,172109:0:0:0:0:
448,192,172024,128,0,172195:0:0:0:0:
192,192,172024,1,0,0:0:0:0:
320,192,172109,128,0,172367:0:0:0:0:
192,192,172195,128,0,172281:0:0:0:0:
448,192,172281,128,0,172452:0:0:0:0:
64,192,172367,128,0,172624:0:0:0:0:
192,192,172452,1,0,0:0:0:0:
448,192,172538,1,0,0:0:0:0:
320,192,172538,128,0,172795:0:0:0:0:
64,192,172709,1,0,0:0:0:0:
192,192,172709,1,0,0:0:0:0:
448,192,172709,128,0,172967:0:0:0:0:
192,192,172881,128,0,173052:0:0:0:0:
320,192,172881,1,0,0:0:0:0:
64,192,173052,1,0,0:0:0:0:
320,192,173052,128,0,173309:0:0:0:0:
448,192,173138,128,0,173224:0:0:0:0:
192,192,173224,128,0,173395:0:0:0:0:
64,192,173309,128,0,173652:0:0:0:0:
448,192,173395,1,0,0:0:0:0:
320,192,173395,1,0,0:0:0:0:
192,192,173567,128,0,173738:0:0:0:0:
320,192,173652,128,0,173909:0:0:0:0:
448,192,173738,128,0,173824:0:0:0:0:
192,192,173824,128,0,173995:0:0:0:0:
64,192,173909,128,0,174081:0:0:0:0:
448,192,173909,1,0,0:0:0:0:
448,192,174081,1,0,0:0:0:0:
320,192,174081,128,0,174338:0:0:0:0:
192,192,174252,128,0,174509:0:0:0:0:
64,192,174424,128,0,174681:0:0:0:0:
448,192,174424,128,0,174681:0:0:0:0:
320,192,174595,128,0,174852:0:0:0:0:
448,192,174767,128,0,175024:0:0:0:0:
192,192,174767,1,0,0:0:0:0:
64,192,174852,128,0,175109:0:0:0:0:
192,192,174938,128,0,175109:0:0:0:0:
320,192,175109,128,0,175367:0:0:0:0:
448,192,175281,1,0,0:0:0:0:
192,192,175281,128,0,175538:0:0:0:0:
64,192,175452,1,0,0:0:0:0:
448,192,175452,128,0,175709:0:0:0:0:
320,192,175452,1,0,0:0:0:0:
320,192,175624,128,0,175881:0:0:0:0:
64,192,175624,128,0,175709:0:0:0:0:
448,192,175795,1,0,0:0:0:0:
192,192,175795,128,0,176052:0:0:0:0:
64,192,175881,128,0,175967:0:0:0:0:
320,192,175967,128,0,176138:0:0:0:0:
448,192,176052,128,0,176395:0:0:0:0:
64,192,176138,1,0,0:0:0:0:
192,192,176138,1,0,0:0:0:0:
320,192,176309,128,0,176481:0:0:0:0:
192,192,176395,128,0,176652:0:0:0:0:
64,192,176481,128,0,176567:0:0:0:0:
320,192,176567,128,0,176738:0:0:0:0:
448,192,176652,128,0,176824:0:0:0:0:
64,192,176652,1,0,0:0:0:0:
64,192,176824,1,0,0:0:0:0:
192,192,176824,128,0,177081:0:0:0:0:
320,192,176995,128,0,177252:0:0:0:0:
448,192,177167,128,0,177424:0:0:0:0:
64,192,177167,128,0,177424:0:0:0:0:
192,192,177338,128,0,177595:0:0:0:0:
320,192,177509,1,0,0:0:0:0:
64,192,177509,128,0,177595:0:0:0:0:
448,192,177595,128,0,177852:0:0:0:0:
320,192,177681,128,0,177852:0:0:0:0:
64,192,177681,1,0,0:0:0:0:
64,192,177852,1,0,0:0:0:0:
192,192,177852,1,0,0:0:0:0:
320,192,178024,1,0,0:0:0:0:
448,192,178024,1,0,0:0:0:0:
64,192,178195,1,0,0:0:0:0:
192,192,178195,1,0,0:0:0:0:
192,192,178367,1,0,0:0:0:0:
320,192,178367,1,0,0:0:0:0:
64,192,178538,1,0,0:0:0:0:
448,192,178538,1,0,0:0:0:0:
192,192,178624,1,0,0:0:0:0:
320,192,178709,1,0,0:0:0:0:
448,192,178795,1,0,0:0:0:0:
192,192,178881,1,0,0:0:0:0:
64,192,178881,1,0,0:0:0:0:
448,192,178967,1,0,0:0:0:0:
320,192,179052,1,0,0:0:0:0:
192,192,179138,1,0,0:0:0:0:
64,192,179224,1,0,0:0:0:0:
320,192,179309,1,0,0:0:0:0:
448,192,179395,1,0,0:0:0:0:
64,192,179395,1,0,0:0:0:0:
192,192,179481,1,0,0:0:0:0:
448,192,179567,1,0,0:0:0:0:
320,192,179567,1,0,0:0:0:0:
192,192,179652,1,0,0:0:0:0:
64,192,179738,1,0,0:0:0:0:
320,192,179824,1,0,0:0:0:0:
64,192,179909,1,0,0:0:0:0:
448,192,179909,1,0,0:0:0:0:
192,192,179995,1,0,0:0:0:0:
320,192,180081,1,0,0:0:0:0:
448,192,180167,1,0,0:0:0:0:
192,192,180252,1,0,0:0:0:0:
64,192,180252,1,0,0:0:0:0:
448,192,180338,1,0,0:0:0:0:
320,192,180424,1,0,0:0:0:0:
192,192,180509,1,0,0:0:0:0:
64,192,180595,1,0,0:0:0:0:
448,192,180595,1,0,0:0:0:0:
320,192,180681,1,0,0:0:0:0:
192,192,180767,1,0,0:0:0:0:
64,192,180767,1,0,0:0:0:0:
320,192,180852,1,0,0:0:0:0:
448,192,180938,1,0,0:0:0:0:
64,192,180938,1,0,0:0:0:0:
192,192,181024,1,0,0:0:0:0:
320,192,181109,1,0,0:0:0:0:
192,192,181195,1,0,0:0:0:0:
64,192,181281,1,0,0:0:0:0:
448,192,181281,1,0,0:0:0:0:
192,192,181367,1,0,0:0:0:0:
320,192,181452,1,0,0:0:0:0:
448,192,181538,1,0,0:0:0:0:
192,192,181624,1,0,0:0:0:0:
64,192,181624,1,0,0:0:0:0:
448,192,181709,1,0,0:0:0:0:
320,192,181795,1,0,0:0:0:0:
192,192,181881,1,0,0:0:0:0:
64,192,181967,1,0,0:0:0:0:
320,192,182052,1,0,0:0:0:0:
448,192,182138,1,0,0:0:0:0:
64,192,182138,1,0,0:0:0:0:
192,192,182224,1,0,0:0:0:0:
448,192,182309,1,0,0:0:0:0:
320,192,182309,1,0,0:0:0:0:
192,192,182395,1,0,0:0:0:0:
64,192,182481,1,0,0:0:0:0:
448,192,182567,1,0,0:0:0:0:
64,192,182652,1,0,0:0:0:0:
192,192,182652,1,0,0:0:0:0:
320,192,182738,1,0,0:0:0:0:
448,192,182738,1,0,0:0:0:0:
64,192,182824,1,0,0:0:0:0:
192,192,182909,1,0,0:0:0:0:
320,192,182995,1,0,0:0:0:0:
64,192,183081,1,0,0:0:0:0:
320,192,183167,1,0,0:0:0:0:
448,192,183167,1,0,0:0:0:0:
192,192,183252,1,0,0:0:0:0:
64,192,183252,1,0,0:0:0:0:
448,192,183338,1,0,0:0:0:0:
320,192,183424,1,0,0:0:0:0:
64,192,183509,1,0,0:0:0:0:
192,192,183595,1,0,0:0:0:0:
448,192,183681,1,0,0:0:0:0:
320,192,183681,1,0,0:0:0:0:
192,192,183852,1,0,0:0:0:0:
64,192,184024,1,0,0:0:0:0:
320,192,184024,1,0,0:0:0:0:
448,192,184024,1,0,0:0:0:0:
448,192,184195,1,0,0:0:0:0:
64,192,184367,1,0,0:0:0:0:
320,192,184367,1,0,0:0:0:0:
192,192,184367,128,0,184709:0:0:0:0:
64,192,184538,1,0,0:0:0:0:
320,192,184709,1,0,0:0:0:0:
448,192,184709,128,0,184967:0:0:0:0:
64,192,184881,1,0,0:0:0:0:
192,192,184881,1,0,0:0:0:0:
320,192,185052,1,0,0:0:0:0:
64,192,185052,128,0,185652:0:0:0:0:
448,192,185052,1,0,0:0:0:0:
192,192,185138,1,0,0:0:0:0:
448,192,185224,1,0,0:0:0:0:
320,192,185309,1,0,0:0:0:0:
192,192,185395,1,0,0:0:0:0:
448,192,185395,1,0,0:0:0:0:
192,192,185567,1,0,0:0:0:0:
64,192,185738,1,0,0:0:0:0:
448,192,185738,128,0,186252:0:0:0:0:
320,192,185738,1,0,0:0:0:0:
192,192,185824,1,0,0:0:0:0:
320,192,185909,1,0,0:0:0:0:
64,192,185995,1,0,0:0:0:0:
192,192,186081,1,0,0:0:0:0:
320,192,186167,1,0,0:0:0:0:
192,192,186252,1,0,0:0:0:0:
64,192,186252,1,0,0:0:0:0:
320,192,186338,1,0,0:0:0:0:
64,192,186424,1,0,0:0:0:0:
192,192,186424,128,0,186938:0:0:0:0:
448,192,186424,1,0,0:0:0:0:
448,192,186595,1,0,0:0:0:0:
320,192,186767,1,0,0:0:0:0:
64,192,186767,1,0,0:0:0:0:
448,192,186852,1,0,0:0:0:0:
320,192,186938,1,0,0:0:0:0:
192,192,187024,1,0,0:0:0:0:
64,192,187109,1,0,0:0:0:0:
448,192,187109,1,0,0:0:0:0:
320,192,187109,128,0,187452:0:0:0:0:
192,192,187195,1,0,0:0:0:0:
64,192,187281,1,0,0:0:0:0:
192,192,187367,1,0,0:0:0:0:
64,192,187452,128,0,187709:0:0:0:0:
448,192,187452,1,0,0:0:0:0:
448,192,187624,1,0,0:0:0:0:
320,192,187624,1,0,0:0:0:0:
64,192,187795,1,0,0:0:0:0:
448,192,187795,128,0,188395:0:0:0:0:
320,192,187795,1,0,0:0:0:0:
192,192,187881,1,0,0:0:0:0:
64,192,187967,1,0,0:0:0:0:
320,192,188052,1,0,0:0:0:0:
192,192,188138,1,0,0:0:0:0:
64,192,188138,1,0,0:0:0:0:
320,192,188224,1,0,0:0:0:0:
64,192,188309,1,0,0:0:0:0:
192,192,188395,1,0,0:0:0:0:
320,192,188481,1,0,0:0:0:0:
64,192,188481,128,0,189081:0:0:0:0:
448,192,188481,1,0,0:0:0:0:
192,192,188567,1,0,0:0:0:0:
448,192,188652,1,0,0:0:0:0:
320,192,188738,1,0,0:0:0:0:
192,192,188824,1,0,0:0:0:0:
448,192,188909,1,0,0:0:0:0:
192,192,188995,1,0,0:0:0:0:
320,192,188995,1,0,0:0:0:0:
448,192,189081,1,0,0:0:0:0:
64,192,189167,1,0,0:0:0:0:
192,192,189167,1,0,0:0:0:0:
320,192,189167,128,0,189852:0:0:0:0:
448,192,189252,1,0,0:0:0:0:
64,192,189338,1,0,0:0:0:0:
192,192,189424,1,0,0:0:0:0:
64,192,189509,1,0,0:0:0:0:
448,192,189509,1,0,0:0:0:0:
192,192,189681,1,0,0:0:0:0:
448,192,189852,1,0,0:0:0:0:
64,192,189852,1,0,0:0:0:0:
192,192,189852,128,0,190195:0:0:0:0:
320,192,190024,1,0,0:0:0:0:
448,192,190195,1,0,0:0:0:0:
64,192,190195,128,0,190452:0:0:0:0:
192,192,190367,1,0,0:0:0:0:
448,192,190367,1,0,0:0:0:0:
448,192,190538,1,0,0:0:0:0:
320,192,190538,128,0,191138:0:0:0:0:
64,192,190538,1,0,0:0:0:0:
192,192,190624,1,0,0:0:0:0:
64,192,190709,1,0,0:0:0:0:
192,192,190795,1,0,0:0:0:0:
448,192,190881,1,0,0:0:0:0:
64,192,190881,1,0,0:0:0:0:
192,192,190967,1,0,0:0:0:0:
448,192,191052,1,0,0:0:0:0:
192,192,191138,1,0,0:0:0:0:
64,192,191224,1,0,0:0:0:0:
320,192,191224,1,0,0:0:0:0:
448,192,191224,128,0,191824:0:0:0:0:
192,192,191309,1,0,0:0:0:0:
64,192,191395,1,0,0:0:0:0:
320,192,191481,1,0,0:0:0:0:
192,192,191567,1,0,0:0:0:0:
320,192,191652,1,0,0:0:0:0:
192,192,191738,1,0,0:0:0:0:
64,192,191738,1,0,0:0:0:0:
320,192,191824,1,0,0:0:0:0:
448,192,191909,1,0,0:0:0:0:
64,192,191909,128,0,192252:0:0:0:0:
192,192,191909,128,0,192252:0:0:0:0:
320,192,192252,1,0,0:0:0:0:
448,192,192252,1,0,0:0:0:0:
64,192,192338,1,0,0:0:0:0:
448,192,192424,1,0,0:0:0:0:
320,192,192424,1,0,0:0:0:0:
64,192,192509,1,0,0:0:0:0:
320,192,192595,1,0,0:0:0:0:
448,192,192595,1,0,0:0:0:0:
192,192,192681,1,0,0:0:0:0:
448,192,192767,1,0,0:0:0:0:
320,192,192767,1,0,0:0:0:0:
192,192,192852,1,0,0:0:0:0:
64,192,192938,1,0,0:0:0:0:
448,192,192938,1,0,0:0:0:0:
192,192,193024,1,0,0:0:0:0:
64,192,193109,1,0,0:0:0:0:
448,192,193109,1,0,0:0:0:0:
320,192,193195,1,0,0:0:0:0:
448,192,193281,1,0,0:0:0:0:
64,192,193281,1,0,0:0:0:0:
192,192,193367,1,0,0:0:0:0:
448,192,193452,1,0,0:0:0:0:
64,192,193452,1,0,0:0:0:0:
320,192,193538,1,0,0:0:0:0:
192,192,193624,1,0,0:0:0:0:
64,192,193624,1,0,0:0:0:0:
448,192,193709,1,0,0:0:0:0:
320,192,193795,1,0,0:0:0:0:
192,192,193795,1,0,0:0:0:0:
64,192,193881,1,0,0:0:0:0:
448,192,193881,1,0,0:0:0:0:
192,192,193967,1,0,0:0:0:0:
320,192,194052,1,0,0:0:0:0:
64,192,194138,1,0,0:0:0:0:
320,192,194224,1,0,0:0:0:0:
448,192,194309,1,0,0:0:0:0:
192,192,194309,1,0,0:0:0:0:
64,192,194395,1,0,0:0:0:0:
320,192,194395,1,0,0:0:0:0:
448,192,194481,1,0,0:0:0:0:
192,192,194567,1,0,0:0:0:0:
64,192,194652,1,0,0:0:0:0:
320,192,194652,1,0,0:0:0:0:
448,192,194738,1,0,0:0:0:0:
192,192,194824,1,0,0:0:0:0:
64,192,194824,1,0,0:0:0:0:
192,192,194995,128,0,195595:0:0:0:0:
64,192,194995,1,0,0:0:0:0:
448,192,194995,128,0,195252:0:0:0:0:
320,192,195167,1,0,0:0:0:0:
320,192,195338,128,0,195509:0:0:0:0:
64,192,195338,128,0,195681:0:0:0:0:
448,192,195338,1,0,0:0:0:0:
448,192,195681,128,0,195852:0:0:0:0:
320,192,195681,1,0,0:0:0:0:
192,192,195852,128,0,196024:0:0:0:0:
64,192,195852,1,0,0:0:0:0:
64,192,196024,1,0,0:0:0:0:
320,192,196024,1,0,0:0:0:0:
448,192,196024,128,0,196195:0:0:0:0:
192,192,196195,128,0,196367:0:0:0:0:
320,192,196367,128,0,196709:0:0:0:0:
448,192,196367,1,0,0:0:0:0:
64,192,196367,128,0,196624:0:0:0:0:
192,192,196538,1,0,0:0:0:0:
192,192,196709,128,0,196881:0:0:0:0:
448,192,196709,128,0,197052:0:0:0:0:
64,192,196709,1,0,0:0:0:0:
320,192,196881,128,0,197052:0:0:0:0:
192,192,197052,128,0,197224:0:0:0:0:
64,192,197052,1,0,0:0:0:0:
448,192,197224,128,0,197395:0:0:0:0:
320,192,197224,1,0,0:0:0:0:
192,192,197395,1,0,0:0:0:0:
320,192,197395,1,0,0:0:0:0:
64,192,197395,128,0,197567:0:0:0:0:
192,192,197567,128,0,197738:0:0:0:0:
320,192,197738,128,0,198338:0:0:0:0:
448,192,197738,1,0,0:0:0:0:
64,192,197738,128,0,197995:0:0:0:0:
192,192,197909,1,0,0:0:0:0:
192,192,198081,128,0,198252:0:0:0:0:
448,192,198081,128,0,198424:0:0:0:0:
64,192,198081,1,0,0:0:0:0:
64,192,198424,128,0,198595:0:0:0:0:
192,192,198424,1,0,0:0:0:0:
320,192,198595,128,0,198767:0:0:0:0:
448,192,198595,1,0,0:0:0:0:
448,192,198767,1,0,0:0:0:0:
192,192,198767,1,0,0:0:0:0:
64,192,198767,128,0,198938:0:0:0:0:
320,192,198938,128,0,199109:0:0:0:0:
192,192,199109,128,0,199452:0:0:0:0:
64,192,199109,1,0,0:0:0:0:
448,192,199109,128,0,199367:0:0:0:0:
320,192,199281,1,0,0:0:0:0:
320,192,199452,128,0,199624:0:0:0:0:
64,192,199452,128,0,199795:0:0:0:0:
448,192,199452,1,0,0:0:0:0:
192,192,199624,128,0,199795:0:0:0:0:
448,192,199795,1,0,0:0:0:0:
320,192,199795,128,0,200052:0:0:0:0:
192,192,199967,1,0,0:0:0:0:
64,192,199967,128,0,200224:0:0:0:0:
320,192,200138,1,0,0:0:0:0:
448,192,200138,128,0,200395:0:0:0:0:
192,192,200138,128,0,200224:0:0:0:0:
320,192,200309,128,0,200395:0:0:0:0:
64,192,200309,1,0,0:0:0:0:
192,192,200481,1,0,0:0:0:0:
64,192,200481,1,0,0:0:0:0:
448,192,200481,1,0,0:0:0:0:
192,192,200652,1,0,0:0:0:0:
64,192,200652,1,0,0:0:0:0:
320,192,200824,1,0,0:0:0:0:
448,192,200824,1,0,0:0:0:0:
64,192,200824,1,0,0:0:0:0:
448,192,200995,1,0,0:0:0:0:
320,192,200995,1,0,0:0:0:0:
64,192,201167,1,0,0:0:0:0:
320,192,201167,1,0,0:0:0:0:
320,192,201338,1,0,0:0:0:0:
64,192,201338,1,0,0:0:0:0:
192,192,201338,1,0,0:0:0:0:
192,192,201509,1,0,0:0:0:0:
448,192,201509,1,0,0:0:0:0:
448,192,201681,1,0,0:0:0:0:
192,192,201681,1,0,0:0:0:0:
320,192,201852,1,0,0:0:0:0:
64,192,201852,1,0,0:0:0:0:
448,192,201852,1,0,0:0:0:0:
192,192,202024,1,0,0:0:0:0:
320,192,202024,1,0,0:0:0:0:
192,192,202195,1,0,0:0:0:0:
448,192,202195,1,0,0:0:0:0:
320,192,202367,1,0,0:0:0:0:
64,192,202367,1,0,0:0:0:0:
448,192,202367,1,0,0:0:0:0:
320,192,202538,1,0,0:0:0:0:
448,192,202538,1,0,0:0:0:0:
192,192,202709,1,0,0:0:0:0:
64,192,202709,1,0,0:0:0:0:
192,192,202881,1,0,0:0:0:0:
448,192,202881,1,0,0:0:0:0:
320,192,202881,1,0,0:0:0:0:
448,192,203052,1,0,0:0:0:0:
64,192,203052,1,0,0:0:0:0:
192,192,203224,1,0,0:0:0:0:
64,192,203224,1,0,0:0:0:0:
320,192,203309,1,0,0:0:0:0:
448,192,203395,1,0,0:0:0:0:
64,192,203395,1,0,0:0:0:0:
192,192,203481,1,0,0:0:0:0:
320,192,203567,1,0,0:0:0:0:
448,192,203567,1,0,0:0:0:0:
192,192,203652,1,0,0:0:0:0:
320,192,203738,1,0,0:0:0:0:
64,192,203738,1,0,0:0:0:0:
448,192,203824,1,0,0:0:0:0:
192,192,203909,1,0,0:0:0:0:
64,192,203909,1,0,0:0:0:0:
448,192,203995,1,0,0:0:0:0:
320,192,204081,1,0,0:0:0:0:
192,192,204081,1,0,0:0:0:0:
64,192,204167,1,0,0:0:0:0:
320,192,204252,1,0,0:0:0:0:
448,192,204252,1,0,0:0:0:0:
64,192,204338,1,0,0:0:0:0:
192,192,204424,1,0,0:0:0:0:
448,192,204424,1,0,0:0:0:0:
320,192,204509,1,0,0:0:0:0:
192,192,204595,1,0,0:0:0:0:
64,192,204595,1,0,0:0:0:0:
448,192,204681,1,0,0:0:0:0:
64,192,204767,1,0,0:0:0:0:
192,192,204767,1,0,0:0:0:0:
320,192,204852,1,0,0:0:0:0:
448,192,204852,1,0,0:0:0:0:
192,192,204938,1,0,0:0:0:0:
64,192,205024,1,0,0:0:0:0:
448,192,205109,1,0,0:0:0:0:
192,192,205195,1,0,0:0:0:0:
320,192,205281,1,0,0:0:0:0:
64,192,205281,1,0,0:0:0:0:
448,192,205367,1,0,0:0:0:0:
192,192,205367,1,0,0:0:0:0:
320,192,205452,1,0,0:0:0:0:
64,192,205538,1,0,0:0:0:0:
192,192,205624,1,0,0:0:0:0:
448,192,205624,1,0,0:0:0:0:
320,192,205709,1,0,0:0:0:0:
192,192,205795,1,0,0:0:0:0:
64,192,205795,1,0,0:0:0:0:
320,192,205967,1,0,0:0:0:0:
448,192,205967,128,0,207338:0:0:0:0:
64,192,205967,128,0,207338:0:0:0:0:
192,192,205967,1,0,0:0:0:0:
