osu file format v14

[General]
AudioFilename: audio.mp3
AudioLeadIn: 0
PreviewTime: 63854
Countdown: 0
SampleSet: Soft
StackLeniency: 0.7
Mode: 0
LetterboxInBreaks: 0
WidescreenStoryboard: 1

[Editor]
Bookmarks: 22447,44516,66585,88654,110723,132792,154861,176930,198999,221068,243137
DistanceSpacing: 0.4
BeatDivisor: 4
GridSize: 32
TimelineZoom: 1.6

[Metadata]
Title:Start Again (Lexurus & Dualistic Remix)
TitleUnicode:Start Again (Lexurus & Dualistic Remix)
Artist:MUZZ
ArtistUnicode:MUZZ
Creator:Asphyxia
Version:Collab Extra
Source:
Tags:dnb drum and bass liquicity zer0- cbh come[back]home tycani kyshiro collab collaboration electronic english fuiba fuyu muzzy n zero come back home fa featured artist
BeatmapID:3568143
BeatmapSetID:1724649

[Difficulty]
HPDrainRate:5
CircleSize:4.2
OverallDifficulty:8.3
ApproachRate:9.1
SliderMultiplier:1.9
SliderTickRate:1

[Events]
//Background and Video events
0,0,"96732467_p0.jpg",0,0
//Break Periods
//Storyboard Layer 0 (Background)
//Storyboard Layer 1 (Fail)
//Storyboard Layer 2 (Pass)
//Storyboard Layer 3 (Foreground)
//Storyboard Layer 4 (Overlay)
//Storyboard Sound Samples

[TimingPoints]
320,344.827586206897,4,2,1,45,1,0
21354,-142.857142857143,4,2,1,45,0,0
21699,-250,4,2,1,45,0,0
22044,-1000,4,2,1,45,0,0
22388,-1000,4,2,1,60,0,0
23078,-100,4,2,1,60,0,0
46699,-125,4,2,1,60,0,0
49285,-333.333333333333,4,2,1,60,0,0
49975,-100,4,2,1,60,0,0
52216,-125,4,2,1,60,0,0
54802,-333.333333333333,4,2,1,60,0,0
55492,-100,4,2,2,60,0,0
66526,-83.3333333333333,4,2,3,90,0,0
131354,-125,4,2,1,90,0,0
132733,-100,4,2,1,60,0,0
142733,-125,4,2,1,60,0,0
143768,-100,4,2,1,60,0,0
154802,-125,4,2,1,60,0,0
165837,-100,4,2,2,60,0,0
176871,-83.3333333333333,4,2,3,90,0,0
241699,-125,4,2,1,70,0,0
242388,-125,4,2,1,50,0,0
242733,-125,4,2,1,30,0,0

[Colours]
Combo1 : 255,219,111
Combo2 : 255,139,83
Combo3 : 164,255,164
Combo4 : 248,118,137

[HitObjects]
39,318,320,6,0,P|62:277|198:280,1,190,4|0,1:2|1:0,0:0:0:0:
238,345,837,1,0,1:0:0:0:
246,357,923,2,0,L|401:341,1,142.5
475,334,1354,1,0,1:0:0:0:
420,265,1526,6,0,B|382:224|382:224|378:119|466:72|466:72|513:136|471:216,2,380,0|0|0,0:0|1:0|1:0,0:0:0:0:
297,152,3078,2,0,P|261:195|165:172,1,142.5,0|0,1:0|0:0,0:0:0:0:
171,178,3423,2,0,P|190:129|175:74,2,95,0|0|0,1:0|1:0|1:0,0:0:0:0:
114,126,4113,2,0,P|92:77|43:49,2,95,0|0|0,1:0|1:0|1:0,0:0:0:0:
133,264,4802,6,0,P|84:245|28:260,2,95,0|0|0,1:0|0:0|1:0,0:0:0:0:
434,191,5320,1,2,1:2:0:0:
345,129,5492,1,2,1:2:0:0:
442,200,5664,1,2,0:2:0:0:
458,74,5837,2,0,P|408:84|244:64,1,190,0|2,1:0|1:2,0:0:0:0:
179,43,6354,1,0,0:0:0:0:
167,53,6440,2,0,P|143:95|132:221,1,142.5
131,282,6871,1,0,1:0:0:0:
203,221,7044,6,0,B|249:293|192:353|192:353|270:293|338:305|338:305|329:339|276:369,2,380
155,113,8595,2,0,B|271:78|223:159|347:126,1,190,0|0,1:0|1:0,0:0:0:0:
317,52,9113,1,0,0:0:0:0:
478,158,9285,2,0,P|397:194|337:129,1,190,2|0,0:0|1:0,0:0:0:0:
419,61,9802,1,0,0:0:0:0:
499,9,9975,6,0,P|453:20|199:6,1,285,2|0,0:0|0:0,0:0:0:0:
33,8,10664,1,0,1:0:0:0:
48,99,10837,1,0,1:0:0:0:
139,109,11009,1,0,1:0:0:0:
24,97,11182,1,0,0:0:0:0:
69,223,11354,6,0,P|116:214|267:232,1,190,0|0,1:0|1:0,0:0:0:0:
324,300,11871,2,0,P|345:254|441:263,1,142.5
442,257,12216,1,2,0:0:0:0:
481,183,12388,1,2,1:2:0:0:
427,85,12561,1,2,0:2:0:0:
422,74,12733,5,0,0:0:0:0:
387,197,12906,1,0,1:0:0:0:
285,104,13078,1,0,1:0:0:0:
418,62,13251,1,0,0:0:0:0:
444,275,13423,2,0,B|353:260|353:260|285:319|285:319|164:346,1,285
45,384,14113,6,0,B|13:333|13:333|49:190,1,190,2|2,1:2|1:2,0:0:0:0:
71,114,14630,1,0,0:0:0:0:
299,20,14802,1,2,0:0:0:0:
256,105,14975,1,2,0:0:0:0:
202,26,15147,1,2,1:2:0:0:
316,15,15320,6,0,P|289:64|267:213,1,190,2|0,0:0|0:0,0:0:0:0:
169,188,15837,2,0,P|196:237|220:360,1,142.5,0|0,1:0|0:0,0:0:0:0:
220,335,16182,1,0,1:0:0:0:
113,349,16354,1,0,1:0:0:0:
234,334,16526,1,0,1:0:0:0:
382,316,16699,1,2,0:0:0:0:
443,161,16871,6,0,B|392:244|518:244|465:360,1,190,2|2,1:2|1:2,0:0:0:0:
382,316,17388,1,2,0:0:0:0:
369,306,17475,2,0,L|313:318,1,47.5
145,349,17733,1,0,0:0:0:0:
130,255,17906,1,0,1:0:0:0:
218,287,18078,1,0,0:0:0:0:
55,314,18251,6,0,P|35:263|53:210,1,95,0|0,0:0|1:0,0:0:0:0:
80,138,18595,2,0,P|129:155|243:78,1,190,0|0,1:0|0:0,0:0:0:0:
280,4,19113,1,0,0:0:0:0:
336,83,19285,2,0,L|351:235,1,142.5,0|0,1:0|0:0,0:0:0:0:
352,239,19630,5,2,1:2:0:0:
446,215,19802,1,2,0:2:0:0:
337,244,19975,1,2,1:2:0:0:
414,317,20147,1,2,0:2:0:0:
474,128,20320,5,2,0:2:0:0:
453,202,20492,1,2,0:2:0:0:
472,136,20664,1,2,1:2:0:0:
456,192,20837,1,2,0:0:0:0:
382,142,21009,6,0,L|289:159,1,95,2|0,0:0|0:0,0:0:0:0:
362,221,21354,2,0,L|294:233,1,66.4999979705811,0|0,1:0|0:0,0:0:0:0:
348,299,21699,2,0,L|297:310,1,38
343,375,22044,2,0,L|331:378,1,9.5,0|0,1:0|0:0,0:0:0:0:
482,312,22388,5,0,0:0:0:0:
482,312,23078,1,2,0:0:0:0:
472,223,23251,1,0,0:0:0:0:
484,326,23423,1,2,1:2:0:0:
379,287,23595,1,0,0:0:0:0:
512,160,23768,6,0,P|465:179|356:190,1,142.5,2|0,0:0|0:0,0:0:0:0:
360,189,24113,2,0,P|321:155|262:163,1,95,0|2,0:0|0:0,0:0:0:0:
85,134,24457,2,0,P|113:217|201:207,1,190,0|0,0:0|1:0,0:0:0:0:
332,21,24975,6,0,B|213:153|380:153|281:283,1,285,2|0,0:0|1:0,0:0:0:0:
232,361,25664,1,2,0:0:0:0:
338,347,25837,1,2,0:0:0:0:
213,364,26009,1,0,0:0:0:0:
51,382,26182,2,0,P|74:339|79:281,1,95,2|0,1:2|0:0,0:0:0:0:
53,113,26526,6,0,P|88:145|187:123,1,142.5,2|0,0:0|0:0,0:0:0:0:
188,125,26871,2,0,L|174:225,1,95,2|0,1:2|0:0,0:0:0:0:
252,52,27216,2,0,B|296:94|296:94|274:257|274:257|328:306,1,285,2|2,0:0|0:0,0:0:0:0:
404,352,27906,5,0,0:0:0:0:
404,352,28423,1,2,0:0:0:0:
431,256,28595,1,2,0:0:0:0:
501,328,28768,1,0,0:0:0:0:
419,240,28940,1,2,1:2:0:0:
384,356,29113,1,0,0:0:0:0:
498,177,29285,6,0,P|444:145|357:151,1,142.5,2|0,0:0|0:0,0:0:0:0:
316,195,29630,2,0,P|245:199|184:165,1,142.5,2|0,1:2|0:0,0:0:0:0:
194,97,29975,2,0,P|171:42|112:188,1,380,2|0,0:0|0:0,0:0:0:0:
246,309,31009,5,2,1:2:0:0:
312,361,31182,2,0,P|357:333|499:308,1,190,2|0,0:0|0:0,0:0:0:0:
230,301,31699,2,0,P|186:283|133:274,1,95,2|0,1:2|0:0,0:0:0:0:
257,228,32044,2,0,P|213:210|160:201,1,95,2|2,0:0|0:0,0:0:0:0:
338,144,32388,2,0,P|382:126|435:117,1,95,2|0,1:2|0:0,0:0:0:0:
510,253,32733,2,0,P|475:213|350:253,1,190,2|0,0:0|1:0,0:0:0:0:
124,346,33423,5,6,1:2:0:0:
114,252,33595,1,0,0:0:0:0:
124,358,33768,1,2,1:2:0:0:
211,297,33940,1,2,3:0:0:0:
211,297,34026,1,2,3:0:0:0:
211,297,34113,2,0,P|230:249|263:202,1,95,2|0,3:0|0:0,0:0:0:0:
343,245,34457,2,0,P|325:290|300:330,1,95,2|2,1:2|0:0,0:0:0:0:
114,252,34802,6,0,P|133:204|219:86,1,190,2|0,0:0|1:0,0:0:0:0:
274,20,35320,1,0,1:0:0:0:
430,123,35492,1,2,0:0:0:0:
387,207,35664,1,0,0:0:0:0:
336,126,35837,1,2,1:2:0:0:
379,42,36009,1,0,0:0:0:0:
379,42,36095,1,0,0:0:0:0:
379,42,36182,5,2,1:2:0:0:
473,28,36354,1,0,0:0:0:0:
359,46,36526,1,2,0:0:0:0:
186,71,36699,1,0,1:0:0:0:
258,135,36871,2,0,P|197:118|58:105,1,190,2|2,0:0|0:0,0:0:0:0:
291,235,37388,1,0,0:0:0:0:
303,239,37561,6,0,P|364:222|503:209,1,190,2|0,0:0|1:0,0:0:0:0:
187,315,38251,1,2,0:0:0:0:
173,212,38423,1,2,0:0:0:0:
69,214,38595,1,2,1:2:0:0:
83,317,38767,1,2,1:2:0:0:
83,317,38854,1,0,0:0:0:0:
83,317,38940,5,2,1:2:0:0:
185,198,39113,1,2,0:0:0:0:
115,59,39285,1,2,0:0:0:0:
13,178,39458,1,2,3:0:0:0:
13,178,39544,1,2,3:0:0:0:
13,178,39630,2,0,B|122:145|85:227|196:198,1,190,2|2,3:0|1:2,0:0:0:0:
379,51,40147,1,2,0:0:0:0:
461,2,40320,6,0,B|479:57|479:57|459:114|459:114|482:194,1,190,2|0,0:0|0:0,0:0:0:0:
260,317,41009,1,2,0:0:0:0:
241,214,41182,1,0,1:0:0:0:
342,187,41354,1,2,1:2:0:0:
361,290,41527,1,0,1:0:0:0:
361,290,41613,1,0,0:0:0:0:
361,290,41699,5,2,1:2:0:0:
222,202,41871,1,2,0:0:0:0:
319,67,42044,1,2,1:2:0:0:
458,155,42216,1,2,1:2:0:0:
282,257,42388,2,0,P|219:243|88:234,1,190,2|2,0:0|0:0,0:0:0:0:
320,169,42906,1,0,0:0:0:0:
322,162,43078,6,0,P|415:143|509:138,1,190,2|0,0:0|1:0,0:0:0:0:
177,59,43595,1,0,1:0:0:0:
178,73,43940,1,0,1:0:0:0:
323,44,44113,1,0,1:0:0:0:
337,43,44457,6,0,P|393:115|262:125,1,285,6|2,0:0|0:0,0:0:0:0:
260,113,45061,1,2,0:0:0:0:
258,99,45147,2,0,B|144:138|191:69|57:108,1,190
122,194,45664,1,2,0:1:0:0:
450,329,46699,1,2,0:0:0:0:
420,138,46871,1,2,0:0:0:0:
418,129,47216,6,0,B|311:204|311:80|190:178,1,228,2|0,0:0|0:0,0:0:0:0:
130,220,47906,2,0,P|98:241|77:126,1,228,2|0,0:0|0:0,0:0:0:0:
165,133,48595,2,0,P|218:153|395:155,1,228,2|0,0:0|0:0,0:0:0:0:
504,138,49285,6,0,P|483:153|469:219,1,85.4999973907472,2|0,0:0|0:0,0:0:0:0:
479,330,49975,6,0,B|435:306|435:306|375:320,2,95,2|0|0,0:0|0:0|0:0,0:0:0:0:
288,340,50492,1,2,0:0:0:0:
285,333,50578,2,0,L|292:276,1,47.5,2|0,0:0|0:0,0:0:0:0:
304,112,50837,1,0,0:0:0:0:
395,139,51009,1,2,0:0:0:0:
371,52,51182,1,2,0:1:0:0:
129,116,52216,1,2,0:0:0:0:
204,160,52388,1,2,0:0:0:0:
204,73,52561,1,0,0:0:0:0:
128,197,52733,6,0,P|142:269|139:349,1,152,2|0,0:0|0:0,0:0:0:0:
208,155,53251,1,0,0:0:0:0:
208,155,53423,2,0,P|194:83|197:3,1,152,2|0,0:0|0:0,0:0:0:0:
202,237,53940,1,0,0:0:0:0:
202,237,54113,2,0,P|274:223|354:226,1,152,2|0,0:0|0:0,0:0:0:0:
128,197,54630,1,0,0:0:0:0:
128,197,54803,6,0,P|89:209|43:210,1,85.4999973907472,2|0,0:0|0:0,0:0:0:0:
154,38,55492,6,0,B|202:23|202:23|254:46,1,95,6|0,1:2|0:0,0:0:0:0:
199,123,55837,2,0,L|205:217,1,95,0|2,1:0|0:0,0:0:0:0:
207,232,56095,1,2,0:0:0:0:
208,247,56182,1,0,1:0:0:0:
249,339,56354,2,0,B|201:354|201:354|149:331,2,95,0|2|2,0:0|1:2|0:1,0:0:0:0:
441,303,56871,6,0,P|454:258|478:217,1,95,0|0,1:0|0:0,0:0:0:0:
349,170,57216,2,0,P|326:211|313:257,1,95,0|0,1:0|0:0,0:0:0:0:
144,207,57561,2,0,P|157:161|235:37,1,190,0|2,1:0|1:2,0:0:0:0:
196,285,58251,6,0,B|108:342|110:244|4:312,1,190,2|0,1:2|1:0,0:0:0:0:
144,207,58768,1,0,0:0:0:0:
158,203,58940,2,0,P|198:158|106:98,1,190,2|0,1:2|1:0,0:0:0:0:
61,169,59457,1,0,0:0:0:0:
283,138,59630,6,0,P|342:119|482:111,1,190,2|0,1:2|1:0,0:0:0:0:
244,224,60147,1,2,0:0:0:0:
231,219,60320,2,0,P|172:200|32:192,1,190,2|0,1:2|1:0,0:0:0:0:
389,306,61009,5,2,1:2:0:0:
371,212,61182,1,0,1:0:0:0:
393,326,61354,1,2,1:2:0:0:
505,293,61526,1,0,1:0:0:0:
483,179,61698,1,2,1:2:0:0:
396,342,61871,1,0,1:0:0:0:
245,235,62044,1,2,1:2:0:0:
332,72,62217,1,2,1:2:0:0:
499,190,62388,5,2,1:2:0:0:
426,252,62561,1,0,1:0:0:0:
411,157,62733,1,2,1:2:0:0:
511,275,62906,1,2,1:2:0:0:
372,343,63078,1,2,1:2:0:0:
272,225,63251,1,0,1:0:0:0:
492,273,63423,1,2,1:2:0:0:
425,59,63595,1,0,1:0:0:0:
373,252,63768,5,0,1:0:0:0:
373,252,63854,1,0,1:0:0:0:
373,252,63940,2,0,L|379:322,1,47.5,2|0,1:2|1:0,0:0:0:0:
279,149,64113,5,2,1:2:0:0:
279,149,64199,1,0,1:0:0:0:
279,149,64285,2,0,L|273:79,1,47.5,2|0,1:2|1:0,0:0:0:0:
194,312,64457,5,2,1:2:0:0:
194,312,64543,1,0,1:0:0:0:
194,312,64629,2,0,L|200:382,1,47.5,2|0,1:2|1:0,0:0:0:0:
45,116,64802,5,2,1:2:0:0:
45,116,64888,1,0,1:0:0:0:
45,116,64974,2,0,L|39:46,1,47.5,2|0,1:2|1:0,0:0:0:0:
56,240,65147,5,6,1:2:0:0:
60,338,66526,6,0,L|249:308,1,170.999994781494,4|0,3:2|0:0,0:0:0:0:
242,308,66871,1,8,0:0:0:0:
342,360,67044,1,0,0:0:0:0:
342,360,67130,1,2,0:0:0:0:
342,360,67216,1,0,0:0:0:0:
434,180,67388,2,0,L|359:163,1,56.9999982604981,2|0,3:2|0:0,0:0:0:0:
325,89,67561,2,0,L|269:101,1,56.9999982604981,10|0,0:0|0:0,0:0:0:0:
420,64,67733,1,2,0:0:0:0:
270,194,67906,5,2,3:2:0:0:
167,176,68078,1,2,0:0:0:0:
159,281,68251,1,8,0:0:0:0:
262,299,68423,1,0,0:0:0:0:
284,296,68509,1,0,0:0:0:0:
306,293,68595,1,0,0:0:0:0:
328,290,68682,1,0,0:0:0:0:
350,287,68768,1,0,3:0:0:0:
463,275,68940,1,8,0:0:0:0:
403,142,69113,2,0,L|397:198,1,56.9999982604981
378,371,69285,5,2,3:2:0:0:
378,371,69371,1,2,0:0:0:0:
378,371,69457,1,2,0:0:0:0:
268,341,69630,1,8,0:0:0:0:
285,325,69716,1,0,0:0:0:0:
293,303,69802,1,0,0:0:0:0:
294,280,69888,1,0,0:0:0:0:
289,257,69975,1,0,0:0:0:0:
178,281,70147,2,0,P|158:248|150:205,1,56.9999982604981,2|0,3:2|0:0,0:0:0:0:
72,178,70320,2,0,P|60:204|55:232,1,56.9999982604981,10|0,0:0|0:0,0:0:0:0:
10,112,70492,2,0,P|34:96|61:87,1,56.9999982604981,2|0,0:0|0:0,0:0:0:0:
212,95,70664,5,2,3:2:0:0:
375,119,70837,1,2,0:0:0:0:
252,176,71009,1,10,0:0:0:0:
337,236,71182,1,2,0:0:0:0:
337,236,71268,1,0,0:0:0:0:
337,236,71354,1,0,0:0:0:0:
285,303,71526,1,0,3:0:0:0:
356,357,71699,1,8,0:0:0:0:
378,354,71785,1,0,0:0:0:0:
400,351,71871,1,0,0:0:0:0:
422,349,71957,1,0,0:0:0:0:
444,347,72044,6,0,B|490:307|490:307|475:183,1,170.999994781494,0|0,3:0|0:0,0:0:0:0:
475,181,72388,1,8,0:0:0:0:
410,17,72561,1,0,0:0:0:0:
410,17,72647,1,2,0:0:0:0:
410,17,72733,1,0,0:0:0:0:
273,121,72906,2,0,L|216:128,1,56.9999982604981,2|0,3:2|0:0,0:0:0:0:
204,240,73078,2,0,L|260:232,1,56.9999982604981,10|0,0:2|0:0,0:0:0:0:
117,113,73251,2,0,L|124:169,1,56.9999982604981,2|0,0:2|0:0,0:0:0:0:
146,364,73423,5,2,3:2:0:0:
327,344,73595,1,2,0:0:0:0:
129,368,73768,1,8,0:0:0:0:
234,289,73940,1,0,0:0:0:0:
234,289,74027,1,0,0:0:0:0:
234,289,74113,1,0,0:0:0:0:
117,241,74285,1,0,3:0:0:0:
219,158,74457,1,8,0:0:0:0:
241,155,74544,1,0,0:0:0:0:
263,152,74630,1,0,0:0:0:0:
285,150,74716,1,0,0:0:0:0:
307,148,74802,6,0,L|372:141,2,56.9999982604981,2|2|2,3:2|0:2|0:2,0:0:0:0:
471,73,75147,1,8,0:0:0:0:
468,95,75233,1,0,0:0:0:0:
465,117,75320,1,0,0:0:0:0:
461,139,75406,1,0,0:0:0:0:
458,161,75492,1,0,0:0:0:0:
432,332,75664,2,0,L|367:341,1,56.9999982604981,2|0,3:2|0:0,0:0:0:0:
304,251,75837,2,0,L|360:243,1,56.9999982604981,10|0,0:0|0:0,0:0:0:0:
384,99,76009,2,0,L|319:108,1,56.9999982604981,2|0,0:0|0:0,0:0:0:0:
141,128,76182,5,2,3:1:0:0:
165,272,76354,1,0,3:0:0:0:
138,110,76526,1,10,0:0:0:0:
138,110,76613,1,0,0:0:0:0:
138,110,76699,1,0,0:0:0:0:
29,245,76871,1,2,0:0:0:0:
185,192,77044,1,2,3:2:0:0:
295,312,77216,1,10,0:0:0:0:
139,365,77389,1,2,0:0:0:0:
294,191,77561,6,0,B|354:198|354:198|390:231|390:231|452:239,1,170.999994781494,4|0,3:2|0:0,0:0:0:0:
469,242,77906,1,8,0:0:0:0:
475,115,78078,1,0,0:0:0:0:
475,115,78164,1,2,0:0:0:0:
475,115,78251,1,0,0:0:0:0:
331,125,78423,2,0,L|274:134,1,56.9999982604981,2|0,3:2|0:0,0:0:0:0:
200,57,78595,2,0,L|256:47,1,56.9999982604981,10|0,0:2|0:0,0:0:0:0:
388,27,78768,1,2,0:2:0:0:
411,219,78940,5,2,3:2:0:0:
303,258,79113,1,2,0:0:0:0:
424,212,79285,1,8,0:0:0:0:
405,340,79457,1,0,0:0:0:0:
382,343,79544,1,0,0:0:0:0:
359,346,79630,1,0,0:0:0:0:
336,350,79716,1,0,0:0:0:0:
313,354,79802,1,0,3:0:0:0:
200,374,79975,1,8,0:0:0:0:
234,264,80147,2,0,L|227:201,1,56.9999982604981
210,41,80320,5,2,3:2:0:0:
210,41,80406,1,2,0:2:0:0:
210,41,80492,1,2,0:2:0:0:
317,79,80664,1,8,0:0:0:0:
334,94,80751,1,0,0:0:0:0:
355,100,80837,1,0,0:0:0:0:
377,102,80923,1,0,0:0:0:0:
399,100,81009,1,0,0:0:0:0:
459,198,81182,2,0,P|489:214|518:246,1,56.9999982604981,2|0,3:2|0:0,0:0:0:0:
449,331,81354,2,0,P|447:302|439:276,1,56.9999982604981,10|0,0:0|0:0,0:0:0:0:
368,321,81526,2,0,P|355:346|336:367,1,56.9999982604981,2|0,0:0|0:0,0:0:0:0:
114,364,81699,5,2,3:2:0:0:
253,275,81871,1,2,0:0:0:0:
136,214,82044,1,8,0:0:0:0:
220,146,82216,1,0,0:0:0:0:
220,146,82302,1,0,0:0:0:0:
220,146,82388,1,0,0:0:0:0:
161,84,82561,1,0,3:0:0:0:
227,28,82733,1,8,0:0:0:0:
249,25,82820,1,0,0:0:0:0:
271,22,82906,1,0,0:0:0:0:
293,19,82992,1,0,0:0:0:0:
315,16,83078,6,0,P|378:44|506:33,1,170.999994781494,0|0,3:0|0:0,0:0:0:0:
498,31,83423,1,8,0:0:0:0:
490,151,83595,1,0,0:0:0:0:
490,151,83682,1,2,0:0:0:0:
490,151,83768,1,0,0:0:0:0:
434,263,83940,2,0,P|395:268|353:288,1,56.9999982604981,2|0,3:2|0:0,0:0:0:0:
355,181,84113,2,0,P|382:173|411:171,1,56.9999982604981,10|0,0:0|0:0,0:0:0:0:
399,78,84285,2,0,P|370:80|343:88,1,56.9999982604981,2|0,0:0|0:0,0:0:0:0:
123,137,84457,5,2,3:2:0:0:
143,250,84630,1,2,0:0:0:0:
120,122,84802,1,8,0:0:0:0:
242,167,84975,1,0,0:0:0:0:
242,167,85061,1,0,0:0:0:0:
242,167,85147,1,0,0:0:0:0:
63,200,85320,1,0,3:0:0:0:
125,31,85492,1,8,0:0:0:0:
147,29,85578,1,0,0:0:0:0:
169,28,85664,1,0,0:0:0:0:
191,27,85751,1,0,0:0:0:0:
213,26,85837,6,0,L|205:92,2,56.9999982604981,2|2|2,3:2|0:2|0:2,0:0:0:0:
323,57,86182,1,8,0:0:0:0:
345,55,86268,1,0,0:0:0:0:
367,54,86354,1,0,0:0:0:0:
389,53,86441,1,0,0:0:0:0:
411,52,86526,1,0,0:0:0:0:
316,185,86699,2,0,L|309:242,1,56.9999982604981,2|0,3:2|0:0,0:0:0:0:
220,169,86872,2,0,L|213:113,1,56.9999982604981,10|0,0:2|0:0,0:0:0:0:
96,259,87044,2,0,L|88:315,1,56.9999982604981,2|0,0:0|0:0,0:0:0:0:
241,276,87216,5,2,3:2:0:0:
385,295,87388,1,2,3:2:0:0:
223,274,87561,1,10,0:0:0:0:
28,248,87733,1,2,0:2:0:0:
14,247,87820,2,0,L|27:182,1,56.9999982604981,8|2,0:0|0:0,0:0:0:0:
181,146,88078,1,0,3:0:0:0:
177,124,88164,1,0,3:0:0:0:
174,102,88251,1,8,0:0:0:0:
174,102,88423,1,0,1:0:0:0:
160,244,88595,6,0,L|364:231,1,170.999994781494,6|0,3:2|0:0,0:0:0:0:
348,231,88940,1,8,0:0:0:0:
487,317,89113,2,0,B|436:342|436:342|375:314,2,113.999996520996,2|0|2,0:0|0:0|3:2,0:0:0:0:
436,215,89630,2,0,P|409:153|431:51,1,170.999994781494,10|0,0:0|0:0,0:0:0:0:
436,39,89975,6,0,B|384:15|384:15|333:40,1,113.999996520996,0|0,3:0|0:0,0:0:0:0:
239,107,90320,1,8,0:0:0:0:
242,129,90406,1,0,0:0:0:0:
245,151,90492,1,0,0:0:0:0:
248,173,90578,1,0,0:0:0:0:
251,195,90664,1,0,0:0:0:0:
274,306,90837,1,2,3:2:0:0:
352,225,91009,1,10,0:0:0:0:
168,266,91182,1,0,0:0:0:0:
168,266,91268,1,0,0:0:0:0:
168,266,91354,6,0,L|33:254,1,113.999996520996,2|0,3:2|0:0,0:0:0:0:
245,351,91699,2,0,L|380:339,1,113.999996520996,8|2,0:0|0:0,0:0:0:0:
473,332,92044,1,2,0:0:0:0:
470,309,92130,1,0,0:0:0:0:
467,286,92216,2,0,L|461:223,1,56.9999982604981,0|0,3:0|0:0,0:0:0:0:
351,122,92388,2,0,L|362:241,1,113.999996520996,8|2,0:0|0:0,0:0:0:0:
406,58,92733,6,0,B|360:26|360:26|296:48,1,113.999996520996,2|0,3:2|0:0,0:0:0:0:
258,102,92992,1,0,0:0:0:0:
258,102,93078,1,8,0:0:0:0:
177,11,93251,1,2,0:0:0:0:
76,104,93423,2,0,L|67:161,1,56.9999982604981,2|0,0:0|0:0,0:0:0:0:
160,193,93595,2,0,L|169:136,1,56.9999982604981,0|0,3:0|0:0,0:0:0:0:
271,267,93768,2,0,L|160:290,1,113.999996520996,8|0,0:0|0:0,0:0:0:0:
25,317,94113,6,0,B|87:328|87:328|115:362|115:362|189:381,1,170.999994781494,2|0,3:2|0:0,0:0:0:0:
198,369,94457,1,8,0:0:0:0:
336,244,94630,1,2,0:0:0:0:
336,244,94716,1,2,0:0:0:0:
336,244,94802,2,0,L|447:221,1,113.999996520996,0|2,0:0|3:2,0:0:0:0:
309,347,95147,2,0,L|197:369,1,113.999996520996,10|2,0:0|0:1,0:0:0:0:
235,218,95492,6,0,B|208:184|208:184|251:34,1,170.999994781494,0|0,3:0|0:0,0:0:0:0:
253,40,95837,1,8,0:0:0:0:
424,149,96009,1,0,0:0:0:0:
434,16,96182,1,0,0:0:0:0:
424,149,96354,2,0,L|292:174,1,113.999996520996,2|10,3:2|0:0,0:0:0:0:
137,109,96699,1,0,0:0:0:0:
137,109,96785,1,0,0:0:0:0:
137,109,96871,6,0,B|114:90|114:90|129:2,1,113.999996520996,2|0,3:2|0:0,0:0:0:0:
364,78,97216,1,8,0:0:0:0:
364,78,97388,1,2,0:0:0:0:
198,211,97561,2,0,B|221:230|221:230|206:318,1,113.999996520996,2|0,0:0|3:0,0:0:0:0:
26,359,97906,1,8,0:0:0:0:
26,359,98078,1,2,0:0:0:0:
110,291,98251,5,2,3:2:0:0:
248,382,98423,1,0,3:0:0:0:
281,174,98595,1,8,0:0:0:0:
206,312,98768,1,2,0:0:0:0:
49,235,98940,2,0,L|72:124,2,113.999996520996,2|0|8,0:2|3:0|0:0,0:0:0:0:
13,39,99457,1,0,0:0:0:0:
13,39,99544,1,0,0:0:0:0:
13,39,99630,6,0,P|43:84|158:65,1,170.999994781494,6|0,3:2|0:0,0:0:0:0:
158,55,99975,1,8,0:0:0:0:
291,173,100147,1,2,0:0:0:0:
291,173,100233,1,2,0:0:0:0:
291,173,100320,2,0,L|267:35,1,113.999996520996,0|2,0:0|3:2,0:0:0:0:
403,207,100664,2,0,B|425:262|425:262|392:316,1,113.999996520996,10|2,0:0|0:1,0:0:0:0:
188,360,101009,6,0,L|75:340,1,113.999996520996,0|0,3:0|0:0,0:0:0:0:
15,221,101354,1,8,0:0:0:0:
37,223,101440,1,0,0:0:0:0:
59,218,101526,1,0,0:0:0:0:
80,209,101613,1,0,0:0:0:0:
96,193,101699,1,0,0:0:0:0:
38,75,101871,1,2,3:2:0:0:
170,13,102044,2,0,P|220:38|277:39,1,113.999996520996,10|0,0:0|0:0,0:0:0:0:
384,8,102388,5,2,3:2:0:0:
405,15,102475,1,0,0:0:0:0:
424,26,102561,1,0,0:0:0:0:
440,42,102647,1,0,0:0:0:0:
448,62,102733,1,8,0:0:0:0:
383,131,102906,1,2,0:0:0:0:
438,286,103078,1,2,0:0:0:0:
459,279,103165,1,0,0:0:0:0:
478,268,103251,1,0,3:0:0:0:
494,252,103337,1,0,0:0:0:0:
502,232,103423,1,8,0:0:0:0:
306,151,103595,1,2,0:0:0:0:
235,348,103768,6,0,L|178:357,1,56.9999982604981,2|0,3:2|0:0,0:0:0:0:
186,275,103940,2,0,L|129:284,1,56.9999982604981
221,196,104113,1,8,0:0:0:0:
72,79,104285,1,2,0:0:0:0:
268,29,104457,2,0,L|325:38,1,56.9999982604981,2|0,0:0|0:0,0:0:0:0:
306,151,104630,2,0,L|363:160,1,56.9999982604981,0|0,3:0|0:0,0:0:0:0:
460,176,104802,2,0,L|435:36,1,113.999996520996,8|0,0:0|0:0,0:0:0:0:
504,16,105061,1,0,0:0:0:0:
504,16,105147,6,0,B|483:28|483:28|373:15,1,113.999996520996,2|0,3:2|0:0,0:0:0:0:
84,35,105492,2,0,B|105:23|105:23|215:36,1,113.999996520996,10|0,0:0|0:0,0:0:0:0:
362,159,105837,2,0,B|279:173|279:173|254:230|254:230|157:247,1,227.999993041992,2|10,0:0|0:0,0:0:0:0:
80,134,106354,1,2,0:0:0:0:
73,326,106526,6,0,L|211:347,1,113.999996520996,2|0,3:2|0:0,0:0:0:0:
472,268,106871,2,0,L|359:250,1,113.999996520996,10|2,0:0|0:0,0:0:0:0:
340,249,107130,1,0,0:0:0:0:
340,249,107216,1,2,0:0:0:0:
385,379,107388,1,0,3:0:0:0:
472,268,107561,1,8,0:0:0:0:
416,175,107733,1,0,0:0:0:0:
512,54,107906,5,0,3:0:0:0:
329,108,108078,2,0,L|205:133,1,113.999996520996,2|10,0:0|0:0,0:0:0:0:
256,35,108423,1,0,0:0:0:0:
216,233,108595,2,0,L|193:344,1,113.999996520996,2|0,0:0|3:0,0:0:0:0:
41,34,108940,2,0,L|152:56,1,113.999996520996,10|2,0:0|0:0,0:0:0:0:
179,63,109199,1,0,0:0:0:0:
179,63,109285,5,10,0:2:0:0:
60,178,109457,2,0,L|4:189,2,56.9999982604981,2|2|8,0:0|0:0|0:0,0:0:0:0:
346,121,109802,1,2,0:1:0:0:
346,121,109888,1,2,0:1:0:0:
346,121,109975,1,8,0:0:0:0:
164,291,110147,2,0,L|152:346,1,56.9999982604981,0|0,1:0|0:0,0:0:0:0:
323,384,110320,2,0,L|334:328,1,56.9999982604981,0|0,1:0|0:0,0:0:0:0:
225,238,110492,1,8,1:3:0:0:
461,213,110664,6,0,L|431:24,1,170.999994781494,4|0,3:2|0:0,0:0:0:0:
429,21,111009,1,8,0:0:0:0:
315,105,111182,1,0,0:0:0:0:
315,105,111268,1,2,0:0:0:0:
315,105,111354,1,0,0:0:0:0:
165,2,111526,2,0,L|221:10,1,56.9999982604981,2|0,3:2|0:0,0:0:0:0:
143,110,111699,2,0,L|86:118,1,56.9999982604981,10|0,0:2|0:0,0:0:0:0:
230,167,111871,1,2,0:2:0:0:
66,341,112044,5,2,3:2:0:0:
198,308,112216,1,2,0:2:0:0:
103,209,112388,1,8,0:0:0:0:
313,261,112560,1,0,0:0:0:0:
313,261,112647,1,0,0:0:0:0:
313,261,112733,1,0,0:0:0:0:
313,261,112819,1,0,0:0:0:0:
313,261,112905,1,0,3:0:0:0:
230,167,113078,1,8,0:0:0:0:
330,60,113251,2,0,L|386:66,1,56.9999982604981
474,83,113423,5,2,3:2:0:0:
474,83,113509,1,2,0:2:0:0:
474,83,113595,1,2,0:2:0:0:
501,279,113768,2,0,P|454:310|389:301,1,113.999996520996,8|0,0:0|0:0,0:0:0:0:
251,177,114113,2,0,P|306:172|353:203,1,113.999996520996,0|0,0:0|3:0,0:0:0:0:
302,321,114458,2,0,P|290:347|285:375,1,56.9999982604981,8|0,0:0|0:0,0:0:0:0:
199,282,114630,2,0,P|223:266|250:257,1,56.9999982604981
398,305,114802,5,0,3:0:0:0:
375,119,114975,1,0,0:0:0:0:
252,176,115147,1,8,0:0:0:0:
337,236,115320,1,0,0:0:0:0:
337,236,115406,1,0,0:0:0:0:
337,236,115492,1,0,0:0:0:0:
179,99,115664,1,0,3:0:0:0:
112,265,115837,2,0,L|-1:247,1,113.999996520996,8|0,0:0|0:0,0:0:0:0:
101,92,116182,6,0,P|135:35|244:58,1,170.999994781494,0|0,3:0|0:0,0:0:0:0:
243,60,116526,1,8,0:0:0:0:
104,182,116699,1,0,0:0:0:0:
104,182,116785,1,2,0:0:0:0:
104,182,116871,1,0,0:0:0:0:
305,145,117044,2,0,L|362:152,1,56.9999982604981,2|0,3:2|0:0,0:0:0:0:
348,238,117216,2,0,L|404:246,1,56.9999982604981,10|0,0:0|0:0,0:0:0:0:
466,125,117389,2,0,L|473:181,1,56.9999982604981,2|0,0:0|0:0,0:0:0:0:
491,347,117561,5,2,3:2:0:0:
491,347,117733,1,2,0:0:0:0:
329,377,117906,1,8,0:0:0:0:
269,297,118078,1,0,0:0:0:0:
269,297,118165,1,0,0:0:0:0:
269,297,118251,1,0,0:0:0:0:
348,238,118423,1,0,3:0:0:0:
199,164,118595,1,8,0:0:0:0:
202,142,118682,1,0,0:0:0:0:
205,120,118768,1,0,0:0:0:0:
207,98,118854,1,0,0:0:0:0:
209,76,118940,6,0,L|216:11,2,56.9999982604981,2|2|2,3:2|0:2|0:2,0:0:0:0:
401,52,119285,1,8,0:0:0:0:
304,129,119457,1,0,0:0:0:0:
399,232,119630,2,0,B|416:242|416:242|513:232,1,113.999996520996,2|0,0:0|3:0,0:0:0:0:
304,129,119975,1,8,0:0:0:0:
246,343,120147,2,0,B|152:333|152:333|135:343,1,113.999996520996,2|2,0:0|3:2,0:0:0:0:
135,342,120492,1,0,0:0:0:0:
0,181,120664,6,0,L|56:187,1,56.9999982604981,10|0,0:0|0:0,0:0:0:0:
119,244,120837,2,0,B|148:195|148:195|122:131,1,113.999996520996,2|0,0:0|0:0,0:0:0:0:
252,43,121182,1,0,3:0:0:0:
252,43,121268,1,0,0:0:0:0:
252,43,121354,2,0,B|362:37|306:103|408:106,1,170.999994781494,8|0,0:0|0:0,0:0:0:0:
459,51,121699,6,0,B|489:77|489:77|462:227,1,170.999994781494,4|0,3:2|0:0,0:0:0:0:
460,228,122044,1,8,0:0:0:0:
298,276,122216,1,0,0:0:0:0:
298,276,122302,1,2,0:0:0:0:
298,276,122388,1,0,0:0:0:0:
512,317,122561,2,0,L|455:308,1,56.9999982604981,2|0,3:2|0:0,0:0:0:0:
313,357,122733,2,0,L|257:367,1,56.9999982604981,10|0,0:2|0:0,0:0:0:0:
160,320,122906,1,2,0:2:0:0:
207,153,123078,5,2,3:2:0:0:
157,336,123251,1,2,0:2:0:0:
105,185,123423,1,8,0:0:0:0:
21,369,123595,1,0,0:0:0:0:
8,349,123682,1,0,0:0:0:0:
3,326,123768,1,0,0:0:0:0:
2,303,123854,1,0,0:0:0:0:
7,280,123940,1,0,3:0:0:0:
174,237,124113,1,8,0:0:0:0:
24,115,124285,2,0,L|17:52,1,56.9999982604981
84,4,124458,5,2,3:2:0:0:
84,4,124544,1,2,0:2:0:0:
84,4,124630,1,2,0:2:0:0:
227,109,124802,2,0,P|286:108|343:136,1,113.999996520996,8|0,0:0|0:0,0:0:0:0:
397,44,125147,1,0,0:0:0:0:
474,124,125320,1,0,3:0:0:0:
338,243,125492,1,10,0:0:0:0:
338,243,125664,6,0,P|286:265|229:264,1,113.999996520996,2|0,0:0|3:0,0:0:0:0:
335,130,126009,1,0,0:0:0:0:
129,286,126182,2,0,L|153:148,1,113.999996520996,8|0,0:0|0:0,0:0:0:0:
40,117,126526,1,0,0:0:0:0:
41,355,126699,1,0,3:0:0:0:
41,355,126785,1,0,0:0:0:0:
41,355,126871,1,8,0:0:0:0:
129,286,127044,1,0,0:0:0:0:
254,364,127216,6,0,B|318:352|318:352|345:314|345:314|410:298,1,170.999994781494,0|0,3:0|0:0,0:0:0:0:
424,293,127561,1,8,0:0:0:0:
288,218,127733,1,0,0:0:0:0:
288,218,127820,1,2,0:0:0:0:
288,218,127906,1,0,0:0:0:0:
429,126,128078,2,0,P|401:117|373:115,1,56.9999982604981,2|0,3:2|0:0,0:0:0:0:
483,67,128251,2,0,P|470:41|464:13,1,56.9999982604981,10|0,0:0|0:0,0:0:0:0:
379,3,128423,2,0,P|362:26|341:45,1,56.9999982604981,2|0,0:0|0:0,0:0:0:0:
283,105,128595,5,2,3:2:0:0:
119,70,128768,1,2,0:0:0:0:
268,101,128940,1,8,0:0:0:0:
169,214,129113,1,0,0:0:0:0:
169,214,129199,1,0,0:0:0:0:
169,214,129285,1,0,0:0:0:0:
284,280,129457,1,0,3:0:0:0:
352,233,129630,2,0,B|371:249|371:249|356:360,1,113.999996520996,8|0,0:0|0:0,0:0:0:0:
153,355,129975,6,0,L|96:361,2,56.9999982604981,2|2|2,3:2|0:2|0:2,0:0:0:0:
267,193,130320,1,8,0:0:0:0:
267,193,130406,1,0,0:0:0:0:
267,193,130492,1,0,0:0:0:0:
267,193,130578,1,0,0:0:0:0:
267,193,130664,1,0,0:0:0:0:
338,75,130837,2,0,L|331:132,1,56.9999982604981,0|0,3:0|0:0,0:0:0:0:
247,29,131009,2,0,L|240:86,1,56.9999982604981,8|0,0:0|0:0,0:0:0:0:
175,147,131182,1,0,0:0:0:0:
341,211,131354,6,0,P|383:219|444:226,1,76,0|0,3:0|0:0,0:0:0:0:
280,271,131699,2,0,P|288:313|295:374,1,76
292,345,132044,2,0,B|199:336|231:382|144:376,2,152,0|0|4,0:0|0:0|0:0,0:0:0:0:
489,352,133251,5,0,0:0:0:0:
489,352,133423,2,0,P|477:294|458:252,1,95,2|0,0:0|0:0,0:0:0:0:
384,225,133768,2,0,P|396:167|415:125,1,95,2|2,0:0|0:0,0:0:0:0:
477,97,134113,1,2,0:0:0:0:
368,0,134457,1,0,0:0:0:0:
356,75,134630,1,0,0:0:0:0:
409,134,134802,2,0,P|352:180|299:35,1,285,2|2,0:0|0:0,0:0:0:0:
356,75,135492,5,0,0:0:0:0:
10,78,135837,1,0,0:0:0:0:
75,13,136009,1,2,0:0:0:0:
75,13,136182,2,0,P|92:57|100:103,1,95,2|0,0:0|0:0,0:0:0:0:
100,103,136526,2,0,P|55:85|9:77,1,95,2|2,0:0|0:0,0:0:0:0:
56,183,136871,2,0,P|119:194|194:93,1,190,2|2,0:0|0:0,0:0:0:0:
289,86,137388,1,0,0:0:0:0:
289,86,137561,2,0,P|332:121|237:164,1,190,2|0,0:0|0:0,0:0:0:0:
423,125,138078,2,0,P|406:169|398:215,1,95,2|0,0:0|0:0,0:0:0:0:
397,215,138595,5,0,0:0:0:0:
472,273,138768,1,2,0:0:0:0:
387,315,138940,2,0,P|343:298|297:290,1,95,2|0,0:0|0:0,0:0:0:0:
218,343,139285,1,2,0:0:0:0:
218,343,139457,1,0,0:0:0:0:
256,192,139630,1,2,0:0:0:0:
68,51,139975,1,2,0:0:0:0:
256,192,140320,1,2,0:0:0:0:
256,192,141354,5,0,0:0:0:0:
321,153,141526,2,0,P|376:158|475:186,1,142.5,2|0,0:0|0:0,0:0:0:0:
460,180,141871,2,0,P|443:136|435:90,1,95,2|0,0:0|0:0,0:0:0:0:
483,30,142216,1,2,0:0:0:0:
342,113,142388,2,0,P|350:66|367:22,1,95,2|0,0:0|0:0,0:0:0:0:
342,113,142733,2,0,P|247:71|373:37,1,304,2|0,0:0|0:0,0:0:0:0:
183,150,143768,5,6,0:0:0:0:
187,246,143940,1,0,0:0:0:0:
262,181,144113,1,2,0:0:0:0:
108,210,144285,1,2,1:2:0:0:
108,210,144371,1,0,0:0:0:0:
108,210,144457,2,0,P|91:161|86:103,1,95,2|0,0:0|1:0,0:0:0:0:
262,181,144802,2,0,P|278:229|283:287,1,95,2|2,0:2|0:2,0:0:0:0:
168,314,145147,6,0,P|178:243|203:112,1,190,2|0,0:0|0:0,0:0:0:0:
151,69,145665,1,0,1:0:0:0:
279,14,145837,1,2,0:0:0:0:
311,94,146009,1,0,1:0:0:0:
373,39,146182,1,2,1:2:0:0:
374,160,146354,1,0,0:0:0:0:
374,160,146440,1,0,0:0:0:0:
374,160,146527,5,2,1:2:0:0:
436,106,146699,1,0,0:0:0:0:
372,182,146871,1,2,0:0:0:0:
432,243,147044,1,2,1:2:0:0:
496,174,147216,2,0,P|484:242|468:365,1,190,2|2,0:0|0:0,0:0:0:0:
432,243,147733,1,2,0:2:0:0:
383,345,147906,6,0,P|302:369|276:267,1,190,2|0,0:2|0:0,0:0:0:0:
316,223,148423,1,0,1:0:0:0:
268,131,148596,1,2,0:0:0:0:
152,169,148768,1,2,1:2:0:0:
176,305,148940,1,0,1:0:0:0:
263,290,149112,1,2,0:0:0:0:
263,290,149199,1,0,0:0:0:0:
263,290,149285,5,2,1:2:0:0:
150,379,149458,1,2,0:0:0:0:
43,252,149630,1,2,0:0:0:0:
157,173,149803,1,0,1:0:0:0:
157,173,149889,1,0,0:0:0:0:
157,173,149975,2,0,B|266:140|229:222|340:193,1,190,2|2,0:0|0:2,0:0:0:0:
370,289,150492,1,2,1:2:0:0:
370,289,150664,6,0,P|373:219|415:106,1,190,2|0,0:0|0:0,0:0:0:0:
473,58,151182,1,0,1:0:0:0:
352,12,151354,1,2,0:0:0:0:
326,94,151527,1,2,1:2:0:0:
356,172,151699,1,2,1:2:0:0:
434,230,151872,1,0,0:0:0:0:
434,230,151958,1,0,0:0:0:0:
434,230,152044,5,2,1:2:0:0:
309,249,152216,1,2,0:2:0:0:
326,94,152389,1,2,1:2:0:0:
453,135,152561,1,2,1:2:0:0:
309,249,152733,2,0,P|252:200|116:234,1,190,2|2,0:2|0:0,0:0:0:0:
180,301,153251,1,2,0:0:0:0:
117,94,153423,6,0,P|109:188|72:275,1,190,2|0,0:0|0:0,0:0:0:0:
71,275,153940,1,0,1:0:0:0:
256,288,154285,1,0,1:0:0:0:
256,384,154457,1,0,0:0:0:0:
256,384,154802,6,0,P|320:370|423:359,1,152,6|0,0:0|0:0,0:0:0:0:
494,371,155320,1,2,0:0:0:0:
494,371,155406,1,2,0:0:0:0:
494,371,155492,2,0,P|501:315|496:274,1,76
468,119,155837,1,0,0:0:0:0:
404,183,156009,2,0,P|403:220|409:258,1,76,2|0,0:1|0:0,0:0:0:0:
409,258,156871,1,0,0:0:0:0:
468,119,157044,1,2,0:0:0:0:
404,183,157216,2,0,P|353:200|319:202,1,76,2|0,0:0|0:0,0:0:0:0:
268,151,157561,6,0,P|234:101|156:205,1,228,2|0,0:0|0:0,0:0:0:0:
195,249,158251,2,0,P|161:299|83:195,1,228,2|0,0:0|0:0,0:0:0:0:
143,187,158940,2,0,P|205:203|386:220,1,228,2|0,0:0|0:0,0:0:0:0:
494,162,159630,2,0,P|432:146|251:129,1,228,2|0,0:0|0:0,0:0:0:0:
191,164,160320,6,0,P|151:115|189:34,1,152,2|0,0:0|0:0,0:0:0:0:
262,19,160837,1,2,0:0:0:0:
262,19,160923,1,2,0:0:0:0:
262,19,161009,2,0,P|311:28|363:37,1,76
444,0,161354,1,0,0:0:0:0:
408,131,161526,2,0,P|359:140|307:149,1,76,2|0,0:1|0:0,0:0:0:0:
333,144,162388,1,0,0:0:0:0:
382,227,162561,1,2,0:0:0:0:
408,131,162733,1,2,0:0:0:0:
452,199,162906,1,0,0:0:0:0:
306,221,163078,6,0,P|294:277|282:377,1,152,2|0,0:0|0:0,0:0:0:0:
223,215,163595,1,0,0:0:0:0:
223,215,163768,2,0,P|235:159|247:59,1,152,2|0,0:0|0:0,0:0:0:0:
342,128,164285,1,0,0:0:0:0:
342,128,164457,2,0,P|266:136|192:151,1,152,2|0,0:0|0:0,0:0:0:0:
72,287,164975,1,0,0:0:0:0:
72,287,165147,2,0,P|147:278|221:263,1,152,2|0,0:0|0:0,0:0:0:0:
221,262,165837,6,0,P|235:315|240:361,1,95,6|0,1:2|0:0,0:0:0:0:
348,219,166182,2,0,P|362:166|367:120,1,95,0|2,1:0|0:0,0:0:0:0:
243,137,166526,1,0,1:0:0:0:
446,226,166699,1,0,0:0:0:0:
416,39,166871,2,0,L|299:60,1,95,0|2,1:0|0:1,0:0:0:0:
171,14,167216,6,0,P|150:66|145:114,1,95,0|0,1:0|0:0,0:0:0:0:
45,270,167561,2,0,L|142:249,1,95,0|0,1:0|0:0,0:0:0:0:
270,366,167906,2,0,B|286:320|286:320|269:276,1,95,0|2,1:0|0:0,0:0:0:0:
260,91,168251,1,2,1:2:0:0:
392,223,168423,1,0,0:0:0:0:
234,178,168595,6,0,B|332:191|316:123|415:136,1,190,2|0,1:2|1:0,0:0:0:0:
135,128,169113,1,2,0:0:0:0:
259,268,169285,2,0,B|160:281|176:213|77:226,1,190,2|0,1:2|1:0,0:0:0:0:
337,347,169802,1,2,0:0:0:0:
354,147,169975,6,0,L|369:249,1,95,2|0,1:2|0:0,0:0:0:0:
154,306,170320,2,0,L|256:291,1,95,0|2,1:0|0:0,0:0:0:0:
236,89,170664,1,2,1:2:0:0:
188,194,170837,1,0,0:0:0:0:
122,100,171009,2,0,L|20:85,1,95,0|0,1:0|0:0,0:0:0:0:
56,278,171354,5,2,1:2:0:0:
56,278,171526,1,0,1:0:0:0:
267,213,171699,1,2,1:2:0:0:
81,180,171871,1,0,1:0:0:0:
165,255,172044,1,2,1:2:0:0:
165,255,172216,1,0,1:0:0:0:
1,113,172388,1,2,1:2:0:0:
184,147,172561,1,2,1:2:0:0:
71,207,172733,5,2,1:2:0:0:
71,207,172906,1,0,1:0:0:0:
285,104,173078,1,2,1:2:0:0:
189,42,173251,1,0,1:0:0:0:
280,217,173423,1,2,1:2:0:0:
280,217,173595,1,0,1:0:0:0:
184,147,173768,1,0,1:0:0:0:
384,171,173940,1,0,1:0:0:0:
106,250,174113,5,0,1:0:0:0:
106,250,174199,1,0,1:0:0:0:
106,250,174285,2,0,L|49:240,1,47.5,2|0,1:2|1:0,0:0:0:0:
191,154,174457,5,2,1:2:0:0:
191,154,174543,1,0,1:0:0:0:
191,154,174629,2,0,L|181:211,1,47.5,2|0,1:2|1:0,0:0:0:0:
270,249,174802,5,2,1:2:0:0:
270,249,174888,1,0,1:0:0:0:
270,249,174974,2,0,L|327:259,1,47.5,2|0,1:2|1:0,0:0:0:0:
185,345,175146,5,2,1:2:0:0:
185,345,175232,1,0,1:0:0:0:
185,345,175320,2,0,L|195:288,1,47.5,2|0,1:2|1:0,0:0:0:0:
243,71,175492,5,6,1:2:0:0:
61,317,176871,6,0,B|178:332|159:251|276:267,1,227.999993041992,4|8,3:2|0:0,0:0:0:0:
101,213,177388,1,0,0:0:0:0:
101,213,177475,1,2,0:0:0:0:
101,213,177561,1,0,0:0:0:0:
184,82,177733,2,0,L|197:144,1,56.9999982604981,2|0,3:2|0:0,0:0:0:0:
281,243,177906,2,0,L|292:187,1,56.9999982604981,10|0,0:2|0:0,0:0:0:0:
385,112,178078,1,2,0:2:0:0:
407,239,178251,5,2,3:2:0:0:
293,101,178423,1,2,0:0:0:0:
486,159,178595,1,8,0:0:0:0:
320,305,178768,1,0,0:0:0:0:
297,300,178854,1,0,0:0:0:0:
274,295,178940,1,0,0:0:0:0:
251,290,179026,1,0,0:0:0:0:
228,284,179113,1,0,3:0:0:0:
309,193,179285,1,8,0:0:0:0:
186,126,179457,2,0,L|206:195,1,56.9999982604981
123,345,179630,5,2,3:2:0:0:
70,239,179802,1,2,0:2:0:0:
228,284,179975,1,8,0:0:0:0:
21,334,180147,1,0,0:0:0:0:
62,140,180320,1,0,0:0:0:0:
143,274,180492,2,0,P|118:306|99:321,1,56.9999982604981,2|0,3:2|0:0,0:0:0:0:
222,174,180664,2,0,P|197:142|178:127,1,56.9999982604981,10|0,0:0|0:0,0:0:0:0:
41,238,180837,1,2,0:0:0:0:
246,353,181009,6,0,L|360:338,1,113.999996520996,2|2,3:2|0:0,0:0:0:0:
484,230,181354,1,8,0:0:0:0:
352,118,181526,1,0,0:0:0:0:
350,140,181613,1,0,0:0:0:0:
348,162,181699,1,0,0:0:0:0:
346,184,181785,1,0,0:0:0:0:
344,206,181871,1,0,3:0:0:0:
248,100,182044,2,0,L|237:32,1,56.9999982604981,8|0,0:0|0:0,0:0:0:0:
190,203,182216,2,0,L|180:259,1,56.9999982604981
133,95,182388,6,0,P|89:70|92:152,1,170.999994781494,0|0,3:0|0:0,0:0:0:0:
100,153,182733,1,8,0:0:0:0:
311,192,182906,1,0,0:0:0:0:
311,192,182992,1,2,0:0:0:0:
311,192,183078,1,0,0:0:0:0:
176,278,183251,2,0,L|113:271,1,56.9999982604981,2|0,3:2|0:0,0:0:0:0:
217,97,183423,2,0,L|210:160,1,56.9999982604981,10|0,0:2|0:0,0:0:0:0:
284,307,183595,1,2,0:2:0:0:
390,141,183768,5,2,3:2:0:0:
238,224,183940,1,2,0:2:0:0:
446,227,184113,1,8,0:0:0:0:
297,99,184285,1,0,0:0:0:0:
295,121,184371,1,0,0:0:0:0:
293,143,184457,1,0,0:0:0:0:
221,33,184630,1,0,3:0:0:0:
164,143,184802,1,8,0:0:0:0:
166,165,184888,1,0,0:0:0:0:
168,187,184975,1,0,0:0:0:0:
171,209,185061,1,0,0:0:0:0:
173,231,185147,6,0,L|111:243,2,56.9999982604981,2|2|2,3:2|0:2|0:2,0:0:0:0:
256,323,185492,1,8,0:0:0:0:
273,308,185578,1,0,0:0:0:0:
294,300,185664,1,0,0:0:0:0:
316,295,185751,1,0,0:0:0:0:
338,295,185837,1,0,0:0:0:0:
459,235,186009,2,0,P|420:220|395:202,1,56.9999982604981,2|0,3:2|0:0,0:0:0:0:
282,198,186182,2,0,P|314:171|342:159,1,56.9999982604981,10|0,0:0|0:0,0:0:0:0:
401,62,186354,2,0,P|407:103|404:133,1,56.9999982604981,2|0,0:0|0:0,0:0:0:0:
196,137,186526,5,2,3:1:0:0:
314,78,186699,1,0,3:0:0:0:
345,268,186871,1,10,0:0:0:0:
186,255,187044,1,0,0:0:0:0:
207,246,187130,1,0,0:0:0:0:
228,237,187216,1,2,0:2:0:0:
110,209,187388,1,2,3:2:0:0:
232,335,187561,1,10,0:0:0:0:
50,308,187733,1,2,0:0:0:0:
222,154,187906,6,0,B|237:216|237:216|213:254|213:254|229:320,1,170.999994781494,4|0,3:2|0:0,0:0:0:0:
232,335,188251,1,8,0:0:0:0:
352,257,188423,1,0,0:0:0:0:
348,279,188509,1,2,0:0:0:0:
344,301,188595,1,0,0:0:0:0:
463,258,188768,2,0,L|452:195,1,56.9999982604981,2|0,3:2|0:0,0:0:0:0:
330,107,188940,2,0,L|320:163,1,56.9999982604981,10|0,0:2|0:0,0:0:0:0:
503,103,189113,1,2,0:2:0:0:
249,60,189285,5,2,3:2:0:0:
397,29,189457,1,2,0:2:0:0:
231,62,189630,1,8,0:0:0:0:
408,161,189802,1,0,0:0:0:0:
405,183,189888,1,0,0:0:0:0:
402,205,189975,1,0,0:0:0:0:
321,78,190147,1,0,3:0:0:0:
269,187,190320,1,8,0:0:0:0:
271,209,190406,1,0,0:0:0:0:
273,231,190492,1,0,0:0:0:0:
275,253,190578,1,0,0:0:0:0:
278,275,190664,6,0,L|153:256,1,113.999996520996,2|2,3:2|0:2,0:0:0:0:
371,198,191009,1,8,0:0:0:0:
328,353,191182,2,0,L|390:339,1,56.9999982604981
496,314,191354,1,0,0:0:0:0:
284,178,191526,2,0,P|261:144|254:120,1,56.9999982604981,2|0,3:2|0:0,0:0:0:0:
367,39,191699,2,0,P|358:66|357:94,1,56.9999982604981,10|0,0:2|0:0,0:0:0:0:
455,158,191871,1,2,0:2:0:0:
270,45,192044,5,2,3:2:0:0:
164,132,192216,1,2,0:2:0:0:
308,191,192388,1,8,0:0:0:0:
167,30,192561,1,0,0:0:0:0:
167,30,192647,1,0,0:0:0:0:
167,30,192733,1,0,0:0:0:0:
348,109,192906,1,0,3:0:0:0:
219,234,193078,1,8,0:0:0:0:
212,212,193164,1,0,0:0:0:0:
208,189,193251,1,0,0:0:0:0:
206,166,193337,1,0,0:0:0:0:
207,143,193423,6,0,P|242:218|246:315,1,170.999994781494,0|0,3:0|0:0,0:0:0:0:
244,321,193768,1,8,0:0:0:0:
121,259,193940,1,0,0:0:0:0:
121,259,194026,1,2,0:0:0:0:
121,259,194113,1,0,0:0:0:0:
329,161,194285,2,0,L|325:231,1,56.9999982604981,2|0,3:2|0:0,0:0:0:0:
327,334,194457,2,0,L|389:302,1,56.9999982604981,10|0,0:2|0:0,0:0:0:0:
475,250,194630,2,0,L|416:211,1,56.9999982604981,2|0,0:0|0:0,0:0:0:0:
227,88,194802,5,2,3:2:0:0:
252,233,194975,1,2,0:0:0:0:
113,183,195147,1,8,0:0:0:0:
202,172,195320,1,0,0:0:0:0:
202,172,195406,1,0,0:0:0:0:
202,172,195492,1,0,0:0:0:0:
142,299,195664,1,0,3:0:0:0:
32,105,195837,1,8,0:0:0:0:
47,88,195923,1,0,0:0:0:0:
67,77,196009,1,0,0:0:0:0:
88,71,196095,1,0,0:0:0:0:
110,69,196182,6,0,L|106:134,2,56.9999982604981,2|2|2,3:2|0:2|0:2,0:0:0:0:
202,172,196526,1,8,0:0:0:0:
224,173,196613,1,0,0:0:0:0:
246,170,196699,1,0,0:0:0:0:
267,162,196785,1,0,0:0:0:0:
286,149,196871,1,0,0:0:0:0:
239,23,197044,2,0,P|223:64|220:90,1,56.9999982604981,2|0,3:2|0:0,0:0:0:0:
381,184,197216,2,0,P|365:143|362:117,1,56.9999982604981,10|0,0:2|0:0,0:0:0:0:
455,38,197388,1,2,0:0:0:0:
424,259,197561,5,2,3:2:0:0:
325,56,197733,1,2,3:2:0:0:
487,113,197906,2,0,L|477:176,1,56.9999982604981,8|0,0:0|0:0,0:0:0:0:
332,215,198078,1,2,0:0:0:0:
332,215,198164,2,0,L|342:278,1,56.9999982604981,8|2,0:0|0:0,0:0:0:0:
142,150,198423,1,0,3:0:0:0:
142,150,198509,1,0,3:0:0:0:
142,150,198595,2,0,P|173:142|211:142,1,56.9999982604981,8|2,0:0|0:0,0:0:0:0:
208,324,198768,2,0,L|219:257,1,56.9999982604981,0|0,1:0|0:0,0:0:0:0:
301,83,198940,6,0,P|285:161|322:250,1,170.999994781494,6|0,3:2|0:0,0:0:0:0:
332,258,199285,1,8,0:0:0:0:
204,216,199457,1,2,0:0:0:0:
185,202,199544,1,2,0:0:0:0:
164,192,199630,2,0,P|80:186|43:195,1,113.999996520996,0|2,0:0|3:2,0:0:0:0:
393,157,199975,2,0,P|477:163|514:154,1,113.999996520996,10|2,0:0|0:1,0:0:0:0:
362,38,200320,5,0,3:0:0:0:
289,215,200492,1,0,0:0:0:0:
228,119,200664,1,8,0:0:0:0:
350,308,200837,1,0,0:0:0:0:
350,308,200923,1,0,0:0:0:0:
350,308,201009,1,0,0:0:0:0:
426,228,201182,1,2,3:2:0:0:
273,211,201354,2,0,L|199:200,1,56.9999982604981,10|0,0:0|0:0,0:0:0:0:
362,131,201526,2,0,L|436:120,1,56.9999982604981
261,7,201699,6,0,L|274:132,1,113.999996520996,2|0,3:2|0:0,0:0:0:0:
241,299,202044,1,8,0:0:0:0:
121,191,202216,1,2,0:0:0:0:
334,242,202388,1,2,0:0:0:0:
334,242,202561,1,0,3:0:0:0:
161,356,202733,1,8,0:0:0:0:
402,321,202906,1,2,0:2:0:0:
240,191,203078,6,0,L|230:305,1,113.999996520996,2|0,3:2|0:0,0:0:0:0:
149,114,203423,1,8,0:0:0:0:
58,241,203595,1,2,0:0:0:0:
80,236,203682,1,0,0:0:0:0:
102,231,203768,1,2,0:0:0:0:
22,125,203940,1,0,3:0:0:0:
213,199,204113,1,8,0:0:0:0:
210,221,204199,1,0,0:0:0:0:
207,243,204285,1,0,0:0:0:0:
204,265,204371,1,0,0:0:0:0:
201,287,204457,6,0,B|256:323|256:323|371:290,1,170.999994781494,2|0,3:2|0:0,0:0:0:0:
374,288,204802,1,8,0:0:0:0:
303,178,204975,1,2,0:0:0:0:
303,178,205061,1,2,0:0:0:0:
303,178,205147,1,0,0:0:0:0:
416,100,205320,1,2,3:2:0:0:
498,215,205492,2,0,L|437:225,1,56.9999982604981,10|0,0:0|0:0,0:0:0:0:
322,85,205664,1,2,0:1:0:0:
269,251,205837,6,0,L|285:378,1,113.999996520996,0|0,3:0|0:0,0:0:0:0:
190,158,206182,1,8,0:0:0:0:
116,295,206354,1,0,0:0:0:0:
122,272,206440,1,0,0:0:0:0:
128,249,206526,1,0,0:0:0:0:
40,182,206699,1,2,3:2:0:0:
86,380,206871,2,0,L|168:363,1,56.9999982604981,10|0,0:0|0:0,0:0:0:0:
289,294,207044,2,0,L|207:277,1,56.9999982604981
29,283,207216,5,2,3:2:0:0:
219,186,207388,1,0,0:0:0:0:
79,149,207561,1,8,0:0:0:0:
310,155,207733,1,2,0:0:0:0:
332,150,207820,1,0,0:0:0:0:
354,145,207906,1,2,0:0:0:0:
234,91,208078,1,0,3:0:0:0:
293,256,208251,1,8,0:0:0:0:
136,215,208423,1,2,0:0:0:0:
386,233,208595,6,0,P|397:268|403:302,1,56.9999982604981,2|0,3:2|0:0,0:0:0:0:
447,132,208768,2,0,P|453:104|462:77,1,56.9999982604981,0|0,3:0|0:0,0:0:0:0:
491,235,208940,1,8,0:0:0:0:
333,137,209113,1,2,0:0:0:0:
310,142,209199,1,0,0:0:0:0:
290,153,209285,1,2,0:0:0:0:
271,165,209371,1,0,0:0:0:0:
255,181,209457,1,0,3:0:0:0:
80,73,209630,2,0,P|134:102|197:105,1,113.999996520996,8|0,0:0|0:0,0:0:0:0:
359,287,209975,6,0,B|307:290|277:265|277:265|262:304|215:321,1,170.999994781494,6|0,3:2|0:0,0:0:0:0:
199,323,210320,1,8,0:0:0:0:
39,261,210492,1,2,0:0:0:0:
39,261,210578,1,2,0:0:0:0:
39,261,210664,1,0,0:0:0:0:
233,181,210837,1,2,3:2:0:0:
141,266,211009,2,0,L|127:144,1,113.999996520996,10|2,0:0|0:1,0:0:0:0:
296,21,211354,5,0,3:0:0:0:
206,98,211526,1,0,0:0:0:0:
101,47,211699,1,8,0:0:0:0:
308,117,211871,1,0,0:0:0:0:
312,139,211957,1,0,0:0:0:0:
316,161,212044,1,0,0:0:0:0:
396,59,212216,1,2,3:2:0:0:
341,259,212388,2,0,P|281:254|237:219,1,113.999996520996,10|0,0:0|0:0,0:0:0:0:
9,346,212733,6,0,P|81:296|167:289,1,170.999994781494,2|0,3:2|0:0,0:0:0:0:
176,295,213078,1,8,0:0:0:0:
118,178,213251,1,2,0:0:0:0:
295,207,213423,2,0,L|281:339,1,113.999996520996,2|0,0:0|3:0,0:0:0:0:
217,134,213768,1,8,0:0:0:0:
377,269,213940,1,2,0:0:0:0:
460,116,214113,6,0,P|407:142|339:143,1,113.999996520996,2|0,3:2|0:0,0:0:0:0:
122,47,214457,1,8,0:0:0:0:
295,68,214630,1,2,0:0:0:0:
223,234,214802,2,0,L|201:111,1,113.999996520996,2|0,0:0|3:0,0:0:0:0:
102,314,215147,1,8,0:0:0:0:
102,314,215492,6,0,B|170:302|170:302|192:323|192:323|280:325,1,170.999994781494,2|0,3:2|0:0,0:0:0:0:
281,325,215837,1,10,0:0:0:0:
381,256,216009,1,0,0:0:0:0:
381,256,216095,1,0,0:0:0:0:
381,256,216182,1,2,0:0:0:0:
277,167,216354,1,0,3:0:0:0:
460,183,216526,2,0,L|481:309,1,113.999996520996,10|2,0:2|0:2,0:0:0:0:
280,267,216871,5,2,3:2:0:0:
373,117,217044,1,0,0:0:0:0:
374,331,217216,1,10,0:0:0:0:
186,214,217388,1,2,0:0:0:0:
374,223,217561,1,2,0:0:0:0:
240,331,217733,2,0,L|170:316,1,56.9999982604981,0|0,3:0|0:0,0:0:0:0:
281,240,217906,2,0,P|295:175|290:124,1,113.999996520996,8|0,0:0|0:0,0:0:0:0:
147,72,218251,5,0,3:0:0:0:
366,55,218423,2,0,L|377:122,1,56.9999982604981,2|0,0:0|0:0,0:0:0:0:
441,226,218595,2,0,L|450:169,1,56.9999982604981,10|0,0:0|0:0,0:0:0:0:
469,62,218768,1,2,0:0:0:0:
339,223,218940,2,0,L|358:339,1,113.999996520996,2|0,0:0|3:0,0:0:0:0:
256,136,219285,1,10,0:0:0:0:
256,136,219630,5,10,0:2:0:0:
175,237,219802,1,2,0:0:0:0:
152,231,219888,1,2,0:0:0:0:
129,225,219975,1,8,0:0:0:0:
291,268,220147,1,2,0:1:0:0:
307,251,220233,1,2,0:1:0:0:
324,234,220320,1,8,0:0:0:0:
217,336,220492,1,0,1:0:0:0:
223,358,220578,1,0,0:0:0:0:
229,381,220665,1,0,1:0:0:0:
100,330,220837,1,8,1:3:0:0:
101,131,221009,6,0,P|175:114|247:175,1,170.999994781494,4|0,3:2|0:0,0:0:0:0:
250,192,221354,1,8,0:0:0:0:
342,67,221527,1,0,0:0:0:0:
342,67,221613,1,2,0:0:0:0:
342,67,221699,1,0,0:0:0:0:
384,243,221871,2,0,L|392:299,1,56.9999982604981,2|0,3:2|0:0,0:0:0:0:
466,200,222044,2,0,L|458:143,1,56.9999982604981,10|0,0:0|0:0,0:0:0:0:
370,152,222216,1,2,0:0:0:0:
454,57,222389,5,2,3:2:0:0:
253,14,222561,1,2,0:0:0:0:
358,142,222733,1,8,0:0:0:0:
246,268,222905,1,0,0:0:0:0:
246,268,222992,1,0,0:0:0:0:
246,268,223078,1,0,0:0:0:0:
246,268,223164,1,0,0:0:0:0:
246,268,223250,1,0,3:0:0:0:
133,201,223423,1,8,0:0:0:0:
241,134,223595,1,0,0:0:0:0:
143,320,223768,5,2,3:2:0:0:
143,320,223854,1,2,0:2:0:0:
143,320,223940,1,2,0:2:0:0:
239,357,224113,2,0,P|293:370|351:379,1,113.999996520996,8|0,0:0|0:0,0:0:0:0:
168,238,224457,2,0,P|115:232|61:272,1,113.999996520996,0|0,0:0|3:0,0:0:0:0:
241,134,224802,2,0,P|232:77|219:22,1,113.999996520996,8|0,0:0|0:0,0:0:0:0:
109,34,225147,5,0,3:0:0:0:
109,34,225320,1,0,0:0:0:0:
319,2,225492,2,0,P|327:58|340:113,1,113.999996520996,8|0,0:0|0:0,0:0:0:0:
355,130,225751,1,0,0:0:0:0:
355,130,225837,1,0,0:0:0:0:
377,263,226009,1,0,3:0:0:0:
275,351,226182,2,0,P|222:357|168:317,1,113.999996520996,8|0,0:0|0:0,0:0:0:0:
52,232,226527,6,0,P|132:244|223:261,1,170.999994781494,0|0,3:0|0:0,0:0:0:0:
241,269,226871,1,8,0:0:0:0:
165,163,227044,1,0,0:0:0:0:
165,163,227130,1,2,0:0:0:0:
165,163,227216,1,0,0:0:0:0:
356,189,227389,2,0,P|388:186|413:180,1,56.9999982604981,2|0,3:2|0:0,0:0:0:0:
446,104,227561,2,0,P|427:76|409:59,1,56.9999982604981,10|0,0:2|0:0,0:0:0:0:
328,72,227733,2,0,P|313:101|307:125,1,56.9999982604981,2|0,0:2|0:0,0:0:0:0:
496,172,227906,5,2,3:2:0:0:
480,253,228078,1,2,0:2:0:0:
356,189,228251,1,8,0:0:0:0:
451,359,228423,1,0,0:0:0:0:
451,359,228510,1,0,0:0:0:0:
451,359,228596,1,0,0:0:0:0:
273,379,228768,1,0,3:0:0:0:
394,268,228940,2,0,P|338:276|283:289,1,113.999996520996,8|0,0:0|0:0,0:0:0:0:
262,301,229199,1,0,0:0:0:0:
244,314,229285,6,0,L|237:379,2,56.9999982604981,2|2|2,3:2|0:2|0:2,0:0:0:0:
156,274,229630,1,8,0:0:0:0:
288,168,229802,1,0,0:0:0:0:
126,123,229975,2,0,B|152:72|152:72|127:11,1,113.999996520996,2|0,0:0|3:0,0:0:0:0:
245,33,230320,1,8,0:0:0:0:
10,185,230492,6,0,P|18:129|31:74,1,113.999996520996,2|2,0:0|3:2,0:0:0:0:
213,128,230837,1,2,0:0:0:0:
285,298,231009,2,0,L|229:304,1,56.9999982604981,10|0,0:0|0:0,0:0:0:0:
166,360,231182,2,0,B|137:311|137:311|163:247,1,113.999996520996
363,65,231527,1,0,3:0:0:0:
363,65,231613,1,0,0:0:0:0:
363,65,231699,2,0,B|253:59|309:125|207:128,1,170.999994781494,10|0,0:0|0:0,0:0:0:0:
134,120,232044,6,0,P|147:64|155:8,1,113.999996520996,4|0,3:2|0:0,0:0:0:0:
285,190,232389,1,8,0:0:0:0:
158,258,232561,1,0,0:0:0:0:
158,258,232647,1,2,0:0:0:0:
158,258,232733,1,0,0:0:0:0:
322,294,232906,2,0,L|379:303,1,56.9999982604981,2|0,3:2|0:0,0:0:0:0:
474,361,233078,2,0,L|418:371,1,56.9999982604981,10|0,0:2|0:0,0:0:0:0:
512,275,233251,1,2,0:2:0:0:
395,195,233423,5,2,3:2:0:0:
423,75,233596,1,2,0:0:0:0:
316,181,233768,1,8,0:0:0:0:
351,36,233940,1,0,0:0:0:0:
236,171,234113,1,0,0:0:0:0:
287,0,234285,1,0,3:0:0:0:
160,187,234458,1,8,0:0:0:0:
218,69,234630,2,0,L|211:6,1,56.9999982604981
124,21,234803,5,2,3:2:0:0:
124,21,234889,1,2,0:2:0:0:
124,21,234975,1,2,0:2:0:0:
236,171,235147,2,0,P|287:193|344:192,1,113.999996520996,8|0,0:0|0:0,0:0:0:0:
389,81,235492,1,0,0:0:0:0:
487,207,235665,1,0,3:0:0:0:
376,303,235837,1,8,0:0:0:0:
376,303,236009,6,0,P|324:325|267:324,1,113.999996520996,2|2,0:0|3:2,0:0:0:0:
236,171,236354,1,0,0:0:0:0:
153,273,236526,2,0,P|140:329|132:385,1,113.999996520996,8|0,0:0|0:0,0:0:0:0:
69,238,236871,1,0,0:0:0:0:
14,382,237044,1,0,3:0:0:0:
14,382,237130,1,0,0:0:0:0:
14,382,237216,1,8,0:0:0:0:
153,273,237389,1,0,0:0:0:0:
31,124,237561,6,0,B|88:138|88:138|115:176|115:176|179:188,1,170.999994781494,0|0,3:0|0:0,0:0:0:0:
201,194,237906,1,8,0:0:0:0:
184,94,238078,1,0,0:0:0:0:
184,94,238165,1,2,0:0:0:0:
184,94,238251,1,0,0:0:0:0:
485,140,238423,2,0,P|456:142|429:151,1,56.9999982604981,2|0,3:2|0:0,0:0:0:0:
395,266,238596,2,0,P|382:240|376:212,1,56.9999982604981,10|0,0:2|0:0,0:0:0:0:
398,52,238768,2,0,P|381:75|360:94,1,56.9999982604981,2|0,0:2|0:0,0:0:0:0:
311,164,238940,5,2,3:2:0:0:
181,266,239113,1,2,0:0:0:0:
227,107,239285,1,8,0:0:0:0:
147,169,239458,1,0,0:0:0:0:
147,169,239544,1,0,0:0:0:0:
147,169,239630,1,2,0:0:0:0:
284,263,239802,1,0,3:0:0:0:
170,363,239975,2,0,B|146:370|146:370|48:347,1,113.999996520996,8|0,0:0|0:0,0:0:0:0:
181,266,240320,5,2,3:2:0:0:
181,266,240406,1,2,0:2:0:0:
181,266,240492,1,2,0:2:0:0:
357,353,240664,1,8,0:0:0:0:
284,263,240837,1,0,0:0:0:0:
442,353,241009,1,0,0:0:0:0:
275,380,241182,1,0,3:0:0:0:
356,220,241354,2,0,P|350:159|335:103,1,113.999996520996,8|0,0:0|0:0,0:0:0:0:
421,64,241699,5,0,3:0:0:0:
421,64,241871,1,0,0:0:0:0:
317,92,242044,2,0,P|321:50|331:9,1,76
239,112,242388,2,0,P|235:154|225:195,1,76
175,48,242733,2,0,P|127:52|24:93,1,152,0|2,0:0|0:0,0:0:0:0:
