osu file format v14

[General]
AudioFilename: audio.mp3
AudioLeadIn: 0
PreviewTime: 54299
Countdown: 0
SampleSet: Soft
StackLeniency: 0.5
Mode: 0
LetterboxInBreaks: 0
WidescreenStoryboard: 0

[Editor]
Bookmarks: 12899,67585
DistanceSpacing: 0.7
BeatDivisor: 4
GridSize: 4
TimelineZoom: 3

[Metadata]
Title:In The Night (feat. Sullivan King) (Cut Ver.)
TitleUnicode:In The Night (feat. Sullivan King) (Cut Ver.)
Artist:MUZZ
ArtistUnicode:MUZZ
Creator:HakuYT
Version:Nightmare
Source:
Tags:fa featured artist the cascade electronic drumstep drum and bass dnb monstercat muzzy neurofunk english -Syncro hakashii FreudeMan Freude chizu-kun
BeatmapID:3213157
BeatmapSetID:1573693

[Difficulty]
HPDrainRate:6
CircleSize:4
OverallDifficulty:9
ApproachRate:9.3
SliderMultiplier:1.8
SliderTickRate:1

[Events]
//Background and Video events
0,0,"rain bg.jpg",0,0
//Break Periods
//Storyboard Layer 0 (Background)
//Storyboard Layer 1 (Fail)
//Storyboard Layer 2 (Pass)
//Storyboard Layer 3 (Foreground)
//Storyboard Layer 4 (Overlay)
//Storyboard Sound Samples

[TimingPoints]
214,342.857142857143,4,2,1,60,1,0
9814,-100,4,2,1,30,0,0
9985,-100,4,2,1,30,0,0
10156,-100,4,2,1,40,0,0
10328,-100,4,2,1,50,0,0
10499,-100,4,2,1,60,0,0
10671,-100,4,2,1,70,0,0
11185,-100,4,2,1,70,0,0
13242,-33.3333333333333,4,2,2,70,0,0
13264,-33.3333333333333,4,2,2,5,0,0
13928,-100,4,2,1,70,0,0
15985,-33.3333333333333,4,2,2,70,0,0
16006,-33.3333333333333,4,2,2,5,0,0
16328,-33.3333333333333,4,2,2,70,0,0
16349,-33.3333333333333,4,2,2,5,0,0
16671,-100,4,2,1,70,0,0
18728,-33.3333333333333,4,2,2,70,0,0
18749,-33.3333333333333,4,2,2,5,0,0
19414,-100,4,2,1,70,0,0
21471,-33.3333333333333,4,2,2,70,0,0
21492,-33.3333333333333,4,2,2,5,0,0
21814,-33.3333333333333,4,2,2,70,0,0
21835,-33.3333333333333,4,2,2,5,0,0
22156,-100,4,2,1,70,0,0
24214,-33.3333333333333,4,2,2,70,0,0
24235,-33.3333333333333,4,2,2,5,0,0
24899,-100,4,2,1,70,0,0
26956,-33.3333333333333,4,2,2,70,0,0
26978,-33.3333333333333,4,2,2,5,0,0
27299,-33.3333333333333,4,2,2,70,0,0
27321,-33.3333333333333,4,2,2,5,0,0
27642,-100,4,2,1,70,0,0
29699,-33.3333333333333,4,2,2,70,0,0
29721,-33.3333333333333,4,2,2,5,0,0
30042,-33.3333333333333,4,2,2,70,0,0
30064,-33.3333333333333,4,2,2,5,0,0
30385,-133.333333333333,4,2,1,70,0,0
31756,-125,4,2,1,70,0,0
33128,-117.647058823529,4,2,1,65,0,0
41356,-55.5555555555556,4,2,1,70,0,0
41614,-55.5555555555556,4,2,1,5,0,0
41699,-222.222222222221,4,2,1,65,0,0
42042,-222.222222222221,4,2,1,5,0,0
42214,-222.222222222221,4,2,1,65,0,0
42556,-222.222222222221,4,2,1,5,0,0
42728,-100,4,2,1,65,0,0
44099,-100,4,2,1,70,0,0
55071,-66.6666666666667,4,2,1,80,0,1
55328,-66.6666666666667,4,2,1,5,0,1
55414,-66.6666666666667,4,2,1,80,0,1
56528,-66.6666666666667,4,2,1,5,0,1
56614,-66.6666666666667,4,2,1,80,0,1
56871,-66.6666666666667,4,2,1,5,0,1
56957,-66.6666666666667,4,2,1,80,0,1
58071,-66.6666666666667,4,2,1,5,0,1
58157,-66.6666666666667,4,2,1,80,0,1
59271,-66.6666666666667,4,2,1,5,0,1
59356,-66.6666666666667,4,2,1,80,0,1
59614,-66.6666666666667,4,2,1,5,0,1
59699,-66.6666666666667,4,2,1,80,0,1
60471,-66.6666666666667,4,2,1,5,0,1
60557,-66.6666666666667,4,2,1,80,0,1
60814,-66.6666666666667,4,2,1,5,0,1
60900,-66.6666666666667,4,2,1,80,0,1
62014,-66.6666666666667,4,2,1,5,0,1
62100,-66.6666666666667,4,2,1,80,0,1
62356,-66.6666666666667,4,2,1,5,0,1
62442,-66.6666666666667,4,2,1,80,0,1
63299,-55.5555555555556,4,2,1,80,0,1
63556,-66.6666666666667,4,2,1,5,0,1
63642,-133.333333333333,4,2,1,80,0,1
63728,-133.333333333333,4,2,1,5,0,1
63814,-66.6666666666667,4,2,1,80,0,1
64071,-181.818181818181,4,2,1,5,0,1
64156,-100,4,2,1,80,0,1
64242,-100,4,2,1,5,0,1
64328,-62.5,4,2,1,80,0,1
64585,-181.818181818181,4,2,1,5,0,1
64670,-83.3333333333333,4,2,1,80,0,1
64756,-83.3333333333333,4,2,1,5,0,1
64842,-52.6315789473684,4,2,1,80,0,1
65099,-181.818181818181,4,2,1,5,0,1
65184,-181.818181818181,4,2,1,80,0,1
66042,-66.6666666666667,4,2,1,80,0,1
66299,-66.6666666666667,4,2,1,5,0,1
66385,-66.6666666666667,4,2,1,80,0,1
67499,-66.6666666666667,4,2,1,5,0,1
67585,-66.6666666666667,4,2,1,80,0,1
67842,-66.6666666666667,4,2,1,5,0,1
67928,-66.6666666666667,4,2,1,80,0,1
69042,-66.6666666666667,4,2,1,5,0,1
69128,-66.6666666666667,4,2,1,80,0,1
70242,-66.6666666666667,4,2,1,5,0,1
70328,-66.6666666666667,4,2,1,80,0,1
70585,-66.6666666666667,4,2,1,5,0,1
70671,-66.6666666666667,4,2,1,80,0,1
71442,-66.6666666666667,4,2,1,5,0,1
71528,-66.6666666666667,4,2,1,80,0,1
71785,-66.6666666666667,4,2,1,5,0,1
71871,-66.6666666666667,4,2,1,80,0,1
72556,-71.4285714285714,4,2,1,80,0,1
72899,-76.9230769230769,4,2,1,80,0,1
73585,-83.3333333333333,4,2,1,80,0,1
74271,-66.6666666666667,4,2,1,80,0,1
76328,-222.222222222221,4,2,1,80,0,1
77014,-66.6666666666667,4,2,1,80,0,1
77271,-66.6666666666667,4,2,1,5,0,1
77356,-66.6666666666667,4,2,1,80,0,1
78299,-66.6666666666667,4,2,1,5,0,1
78385,-66.6666666666667,4,2,1,80,0,1
78642,-66.6666666666667,4,2,1,5,0,1
78727,-66.6666666666667,4,2,1,80,0,1
80014,-66.6666666666667,4,2,1,5,0,1
80100,-66.6666666666667,4,2,1,80,0,1
81385,-66.6666666666667,4,2,1,5,0,1
81471,-66.6666666666667,4,2,1,80,0,1
82756,-66.6666666666667,4,2,1,5,0,1
82842,-66.6666666666667,4,2,1,80,0,1
82928,-66.6666666666667,4,2,1,5,0,1
83014,-66.6666666666667,4,2,1,80,0,1
83442,-66.6666666666667,4,2,1,5,0,1
83528,-66.6666666666667,4,2,1,80,0,1
83956,-66.6666666666667,4,2,1,5,0,1
84042,-66.6666666666667,4,2,1,80,0,1
84128,-66.6666666666667,4,2,1,5,0,1
84214,-66.6666666666667,4,2,1,80,0,1
85499,-66.6666666666667,4,2,1,5,0,1
85585,-66.6666666666667,4,2,1,80,0,1
86871,-66.6666666666667,4,2,1,5,0,1
86957,-66.6666666666667,4,2,1,80,0,1
87985,-71.4285714285714,4,2,1,70,0,0
90042,-200,4,2,1,70,0,0
90728,-71.4285714285714,4,2,1,70,0,0
92614,-200,4,2,1,70,0,0
93471,-100,4,2,1,70,0,0

[Colours]
Combo1 : 0,128,192
Combo2 : 128,128,255
Combo3 : 88,162,222
Combo4 : 184,130,227

[HitObjects]
255,189,9814,5,8,0:0:0:0:
168,105,9985,1,8,0:0:0:0:
363,181,10156,1,8,0:0:0:0:
180,292,10328,1,8,0:0:0:0:
280,76,10499,1,8,0:0:0:0:
78,232,10671,1,8,0:0:0:0:
293,305,10842,1,8,0:0:0:0:
206,23,11014,1,8,0:0:0:0:
2,289,11185,5,4,1:2:0:0:
2,289,11356,2,0,B|-26:229|-26:229|28:90,1,180,0|2,1:2|0:2,0:0:0:0:
206,23,11871,2,0,L|181:133,1,90,10|0,0:2|0:2,0:0:0:0:
201,301,12214,1,0,1:2:0:0:
322,145,12385,6,0,P|367:119|423:133,1,90,0|0,1:2|0:0,0:0:0:0:
512,259,12728,1,2,1:2:0:0:
417,31,12899,2,0,P|465:48|491:100,1,90,2|0,1:2|0:2,0:0:0:0:
385,216,13242,6,0,L|393:248,1,33.7500012874604,8|0,0:2|0:0,0:0:0:0:
417,31,13928,5,4,1:2:0:0:
417,31,14099,2,0,B|332:41|332:41|318:30|318:30|242:38,1,180,0|2,1:2|0:2,0:0:0:0:
46,9,14614,2,0,B|20:50|20:50|63:81,1,90,10|0,0:2|0:2,0:0:0:0:
210,135,14956,1,0,1:2:0:0:
66,276,15128,6,0,L|45:174,1,90,0|2,1:2|0:2,0:0:0:0:
144,29,15471,1,2,1:2:0:0:
281,202,15642,2,0,L|302:100,1,90,2|0,1:2|0:2,0:0:0:0:
124,359,15985,6,0,L|85:350,1,33.7500012874604,8|0,0:2|0:0,0:0:0:0:
445,104,16328,6,0,L|477:111,1,33.7500012874604,8|0,0:2|0:0,0:0:0:0:
335,357,16671,5,4,1:2:0:0:
335,357,16842,2,0,B|366:245|253:302|284:189,1,180,0|0,1:2|0:2,0:0:0:0:
79,86,17356,6,0,B|123:40|186:60|186:60|142:63|114:115,1,180,10|0,0:2|1:2,0:0:0:0:
401,148,17871,2,0,B|357:102|294:122|294:122|338:125|366:177,1,180,2|0,1:2|1:2,0:0:0:0:
208,337,18385,2,0,L|191:224,1,90,0|0,1:2|0:2,0:0:0:0:
253,23,18728,6,0,L|259:57,1,33.7500012874604,8|0,0:2|0:0,0:0:0:0:
66,190,19414,5,4,1:2:0:0:
66,190,19585,2,0,B|22:242|22:242|68:358,1,180,0|0,1:2|0:2,0:0:0:0:
282,265,20099,2,0,L|182:245,1,90,10|0,0:2|0:0,0:0:0:0:
127,125,20442,1,0,1:2:0:0:
281,13,20614,6,0,P|313:51|317:107,1,90,2|0,1:2|0:0,0:0:0:0:
282,265,20956,1,0,1:2:0:0:
241,85,21128,2,0,L|220:190,1,90,0|0,1:2|0:2,0:0:0:0:
92,327,21471,6,0,L|101:366,1,33.7500012874604,8|0,0:2|0:0,0:0:0:0:
403,99,21814,6,0,L|395:66,1,33.7500012874604,8|0,0:2|0:0,0:0:0:0:
43,187,22156,5,4,1:2:0:0:
43,187,22328,2,0,L|242:171,1,180,0|2,1:2|0:2,0:0:0:0:
465,269,22842,2,0,L|360:281,1,90,10|0,0:2|0:2,0:0:0:0:
179,342,23185,1,0,1:2:0:0:
299,158,23356,6,0,P|273:112|218:95,1,90,0|0,1:2|0:0,0:0:0:0:
77,157,23699,1,2,1:2:0:0:
247,16,23870,2,0,P|196:25|164:74,1,90,2|0,1:2|0:2,0:0:0:0:
222,172,24214,6,0,L|231:211,1,33.7500012874604,8|0,0:2|0:0,0:0:0:0:
501,304,24899,5,6,1:2:0:0:
501,304,25071,2,0,B|416:294|416:294|402:305|402:305|326:297,1,180,2|2,1:2|0:2,0:0:0:0:
226,112,25585,2,0,L|246:220,1,90,10|0,0:2|0:2,0:0:0:0:
167,376,25928,1,2,1:2:0:0:
8,193,26099,6,0,P|35:227|79:234,1,90,0|2,1:2|0:2,0:0:0:0:
147,74,26442,1,2,1:2:0:0:
173,268,26614,2,0,P|216:261|244:226,1,90,2|0,1:2|0:2,0:0:0:0:
294,27,26956,6,0,L|303:66,1,33.7500012874604,8|0,0:2|0:0,0:0:0:0:
501,304,27299,6,0,L|493:271,1,33.7500012874604,8|0,0:2|0:0,0:0:0:0:
230,111,27642,5,4,1:2:0:0:
230,111,27814,2,0,B|198:141|151:117|151:117|140:133|140:133|94:112|57:144,1,180,0|0,1:2|0:2,0:0:0:0:
37,362,28328,6,0,P|109:298|210:339,1,180,10|0,0:2|1:2,0:0:0:0:
464,251,28842,2,0,P|392:187|291:228,1,180,2|0,1:2|1:2,0:0:0:0:
64,85,29356,2,0,P|113:79|152:107,1,90,0|0,1:2|0:2,0:0:0:0:
273,318,29699,6,0,L|312:327,1,33.7500012874604,8|0,0:2|0:0,0:0:0:0:
222,27,30042,6,0,L|189:19,1,33.7500012874604,8|0,0:2|0:0,0:0:0:0:
256,192,30385,12,0,31671,0:2:0:0:
184,18,31756,5,8,0:2:0:0:
100,159,31928,1,8,2:3:0:0:
105,183,32014,1,8,2:3:0:0:
109,207,32099,1,8,2:3:0:0:
263,70,32271,1,4,2:3:0:0:
267,214,32442,1,8,2:3:0:0:
263,239,32528,1,8,2:3:0:0:
260,264,32614,1,8,2:3:0:0:
173,108,32785,5,6,2:3:0:0:
152,337,32956,1,8,0:2:0:0:
337,177,33128,1,6,1:2:0:0:
41,27,33985,6,0,L|24:125,1,76.5000014591217,8|4,2:3|2:3,0:0:0:0:
11,195,34328,1,4,0:3:0:0:
11,195,34842,5,4,0:3:0:0:
101,165,35014,1,10,0:3:0:0:
168,236,35185,1,4,0:3:0:0:
121,319,35356,1,10,0:3:0:0:
217,306,35528,1,4,0:3:0:0:
284,374,35699,1,6,0:3:0:0:
458,353,35871,5,4,1:2:0:0:
282,154,36728,6,0,L|293:229,1,76.5000014591217,8|4,0:3|0:3,0:0:0:0:
303,319,37071,1,4,0:3:0:0:
303,319,37585,5,4,0:3:0:0:
383,266,37756,1,10,0:3:0:0:
395,366,37928,1,4,0:3:0:0:
473,313,38099,1,10,0:3:0:0:
464,212,38271,1,4,0:3:0:0:
379,173,38442,1,6,0:3:0:0:
379,173,38528,1,8,2:3:0:0:
379,173,38614,5,4,1:2:0:0:
164,345,39471,6,0,L|175:269,1,76.5000014591217,8|4,0:3|0:3,0:0:0:0:
185,180,39814,1,4,0:3:0:0:
185,180,40328,5,4,0:3:0:0:
258,241,40499,1,10,0:3:0:0:
283,148,40671,1,4,0:3:0:0:
339,271,40842,1,10,0:3:0:0:
379,147,41014,1,4,0:3:0:0:
428,294,41185,1,6,0:3:0:0:
441,56,41356,6,0,B|331:72|331:72|311:58|311:58|188:77,1,242.999992584229,4|0,1:2|0:2,0:0:0:0:
144,131,41699,6,0,L|133:211,1,80.9999975280763,2|0,1:2|0:2,0:0:0:0:
32,62,42214,6,0,L|43:142,1,80.9999975280763,2|0,1:2|0:2,0:0:0:0:
20,304,42728,5,0,1:2:0:0:
242,126,42899,1,10,0:2:0:0:
152,367,43071,1,8,0:2:0:0:
132,211,43242,1,8,0:3:0:0:
283,381,43414,6,0,L|301:271,1,90,2|8,0:2|0:3,0:0:0:0:
147,122,43756,2,0,L|132:210,1,90,2|8,0:2|0:3,0:0:0:0:
321,48,44099,6,0,B|438:20|372:128|520:91,2,180,4|8|0,1:2|0:2|1:2,0:0:0:0:
242,126,44956,1,8,0:3:0:0:
439,191,45128,1,8,0:2:0:0:
320,220,45299,1,4,0:3:0:0:
146,122,45471,6,0,L|173:304,2,180,0|8|2,1:2|0:2|1:2,0:0:0:0:
0,49,46328,1,6,0:3:0:0:
77,198,46499,1,10,0:2:0:0:
115,28,46671,1,6,0:3:0:0:
232,201,46842,6,0,P|302:128|386:185,2,180,0|8|0,1:2|0:2|1:2,0:0:0:0:
243,332,47699,1,8,0:3:0:0:
313,213,47871,1,8,0:2:0:0:
386,338,48042,1,4,0:3:0:0:
186,269,48214,6,0,L|1:299,2,180,0|8|2,1:2|0:2|1:2,0:0:0:0:
246,163,49071,1,6,0:3:0:0:
243,330,49242,1,10,0:2:0:0:
146,188,49414,1,6,0:3:0:0:
357,260,49585,5,2,1:2:0:0:
266,80,49756,1,0,1:2:0:0:
325,335,49928,1,0,1:2:0:0:
395,125,50099,1,0,1:2:0:0:
221,248,50271,1,0,1:2:0:0:
342,61,50442,1,0,1:2:0:0:
431,300,50614,1,0,1:2:0:0:
209,150,50785,1,0,1:2:0:0:
424,46,50956,5,0,1:2:0:0:
302,248,51128,1,0,1:2:0:0:
274,22,51299,1,0,1:2:0:0:
129,209,51471,1,0,1:2:0:0:
374,132,51642,1,0,1:2:0:0:
152,45,51814,1,0,1:2:0:0:
212,285,51985,1,0,1:2:0:0:
342,61,52156,1,0,1:2:0:0:
103,138,52328,5,0,1:2:0:0:
66,162,52413,1,0,1:2:0:0:
48,203,52499,1,0,1:2:0:0:
55,246,52585,1,0,1:2:0:0:
85,279,52671,1,0,1:2:0:0:
127,294,52756,1,0,1:2:0:0:
169,278,52842,1,0,1:2:0:0:
212,285,52928,1,0,1:2:0:0:
249,310,53014,5,0,1:2:0:0:
273,347,53099,1,0,1:2:0:0:
315,362,53185,1,0,1:2:0:0:
359,356,53271,1,0,1:2:0:0:
398,336,53356,1,0,1:2:0:0:
413,293,53442,1,0,1:2:0:0:
403,248,53528,1,0,1:2:0:0:
374,212,53614,1,0,1:2:0:0:
329,205,53699,6,0,L|231:190,1,90,8|0,0:2|0:2,0:0:0:0:
172,75,53956,1,8,0:2:0:0:
172,75,54042,2,0,L|260:88,1,90,8|0,0:2|0:2,0:0:0:0:
315,239,54299,1,8,0:2:0:0:
315,239,54385,1,10,0:2:0:0:
263,3,54556,1,0,1:2:0:0:
263,3,54899,5,8,0:2:0:0:
315,239,55071,6,0,B|379:197|355:114|355:114|374:161|444:164,1,202.500007724762,2|0,1:2|0:2,0:0:0:0:
441,79,55414,2,0,P|485:128|479:196,1,135.000005149842,10|0,0:2|0:2,0:0:0:0:
227,275,55756,2,0,P|222:209|266:160,1,135.000005149842,2|0,0:2|1:2,0:0:0:0:
381,367,56099,1,10,0:2:0:0:
227,275,56271,6,0,B|152:292|152:292|141:310|141:310|36:340,1,202.500007724762,2|0,0:2|0:2,0:0:0:0:
241,374,56614,2,0,B|167:357|167:357|156:339|156:339|50:309,1,202.500007724762,2|0,0:2|0:2,0:0:0:0:
4,238,56956,1,2,0:2:0:0:
153,205,57128,1,2,0:2:0:0:
2,57,57299,1,2,1:2:0:0:
229,121,57471,1,10,0:2:0:0:
61,153,57642,1,2,0:2:0:0:
196,37,57814,6,0,B|319:-10|260:118|413:59,1,202.500007724762,0|0,1:2|0:2,0:0:0:0:
445,5,58156,2,0,B|466:71|466:71|516:21,1,135.000005149842,10|0,0:2|0:2,0:0:0:0:
370,219,58499,2,0,B|391:152|391:152|441:203,1,135.000005149842,2|0,0:2|1:2,0:0:0:0:
229,121,58842,1,10,0:2:0:0:
155,287,59014,6,0,P|138:187|109:90,1,202.500007724762,2|0,0:2|0:0,0:0:0:0:
72,315,59356,2,0,P|88:215|117:118,1,202.500007724762,2|0,0:2|0:0,0:0:0:0:
179,46,59699,1,2,0:2:0:0:
230,204,59871,1,2,0:2:0:0:
10,109,60042,1,2,1:2:0:0:
234,121,60214,2,0,B|258:70|317:79|317:79|352:131|432:111,1,202.500007724762,10|0,0:2|0:0,0:0:0:0:
495,197,60556,6,0,P|423:200|418:317,1,202.500007724762,0|0,1:2|0:2,0:0:0:0:
333,378,60899,2,0,P|317:309|295:238,1,135.000005149842,10|0,0:2|0:2,0:0:0:0:
98,372,61242,2,0,P|167:356|238:334,1,135.000005149842,2|0,0:2|1:2,0:0:0:0:
350,150,61585,1,10,0:2:0:0:
219,63,61756,6,0,B|234:108|196:149|196:149|215:168|215:168|183:203|192:242,1,202.500007724762,2|0,0:2|0:2,0:0:0:0:
140,85,62099,2,0,B|138:133|187:160|187:160|175:184|175:184|217:207|221:247,1,202.500007724762,2|0,0:2|0:2,0:0:0:0:
228,337,62442,1,2,0:2:0:0:
110,260,62614,1,2,0:2:0:0:
301,168,62785,1,2,1:2:0:0:
339,355,62956,1,10,0:2:0:0:
221,247,63128,1,2,0:2:0:0:
417,284,63299,6,0,B|467:137|324:198|395:26,1,242.999992584229,0|0,1:2|0:2,0:0:0:0:
445,6,63642,2,0,P|457:28|464:67,1,33.7500012874604,8|0,0:2|0:0,0:0:0:0:
247,56,63814,6,0,B|283:182|182:123|225:262,1,202.500007724762,2|0,0:2|0:0,0:0:0:0:
287,297,64156,2,0,P|296:277|300:242,1,45,0|0,1:2|0:0,0:0:0:0:
78,280,64328,6,0,B|113:150|-6:204|43:61,1,216,10|0,0:2|0:0,0:0:0:0:
96,26,64671,2,0,P|109:50|116:84,1,53.9999983520508,0|0,1:2|0:0,0:0:0:0:
460,66,64842,6,0,B|281:6|342:219|147:146,1,341.999990867615,2|0,0:2|0:2,0:0:0:0:
381,351,65356,5,2,1:2:0:0:
425,171,65528,1,0,1:2:0:0:
219,69,65699,1,10,0:2:0:0:
253,249,65871,1,0,1:2:0:0:
69,340,66042,6,0,B|111:297|97:248|97:248|41:215|62:142,1,202.500007724762,2|0,1:2|0:2,0:0:0:0:
25,36,66385,2,0,P|75:87|144:94,1,135.000005149842,10|0,0:2|0:2,0:0:0:0:
424,44,66728,2,0,P|354:61|314:118,1,135.000005149842,2|0,0:2|1:2,0:0:0:0:
319,324,67071,1,10,0:2:0:0:
406,125,67242,6,0,B|365:239|479:196|434:333,1,202.500007724762,2|0,0:2|0:2,0:0:0:0:
501,155,67585,2,0,B|502:277|407:201|410:322,1,202.500007724762,2|0,0:2|0:2,0:0:0:0:
465,384,67928,1,2,0:2:0:0:
330,209,68099,1,2,0:2:0:0:
512,303,68271,1,2,1:2:0:0:
319,185,68442,1,10,0:2:0:0:
355,384,68614,1,2,0:2:0:0:
300,102,68785,6,0,B|229:132|238:218|238:218|228:175|162:137,1,202.500007724762,0|0,1:2|0:2,0:0:0:0:
161,235,69128,2,0,P|97:213|30:200,1,135.000005149842,10|0,0:2|0:2,0:0:0:0:
206,52,69471,2,0,P|269:30|336:17,1,135.000005149842,2|0,0:2|1:2,0:0:0:0:
472,141,69814,1,10,0:2:0:0:
363,288,69985,6,0,B|346:213|346:213|328:202|328:202|298:97,1,202.500007724762,2|0,0:2|0:0,0:0:0:0:
264,302,70328,2,0,B|281:227|281:227|299:216|299:216|329:110,1,202.500007724762,2|0,0:2|0:0,0:0:0:0:
408,70,70671,1,2,0:2:0:0:
466,237,70842,1,2,0:2:0:0:
402,49,71014,1,2,1:2:0:0:
280,232,71185,2,0,P|218:246|175:135,1,202.500007724762,10|0,0:2|0:2,0:0:0:0:
74,66,71528,6,0,B|121:189|-7:130|52:283,1,202.500007724762,0|0,1:2|0:2,0:0:0:0:
114,336,71871,5,10,0:2:0:0:
194,346,72042,1,0,1:2:0:0:
274,356,72214,1,0,1:2:0:0:
440,212,72385,5,10,0:2:0:0:
360,222,72556,1,0,1:2:0:0:
280,232,72728,1,0,1:2:0:0:
96,108,72899,5,10,0:2:0:0:
173,137,73071,1,0,1:2:0:0:
162,57,73242,1,0,1:2:0:0:
386,72,73414,5,10,0:2:0:0:
309,101,73586,1,0,1:2:0:0:
320,21,73757,1,0,1:2:0:0:
187,237,73928,2,0,P|135:220|82:209,1,107.999996704102,8|8,0:2|1:3,0:0:0:0:
190,357,74271,5,2,1:2:0:0:
243,360,74356,1,0,1:2:0:0:
291,338,74442,1,2,1:2:0:0:
321,293,74528,1,0,1:2:0:0:
326,240,74613,1,0,1:2:0:0:
304,192,74699,1,0,1:2:0:0:
260,160,74785,2,0,L|249:93,1,67.5000025749208,2|0,1:2|1:2,0:0:0:0:
405,21,74956,6,0,L|390:90,3,67.5000025749208,2|0|0|0,1:2|1:2|1:2|1:2,0:0:0:0:
160,94,75299,2,0,L|169:27,1,67.5000025749208,2|0,1:2|1:2,0:0:0:0:
469,106,75471,2,0,L|483:171,3,67.5000025749208,2|0|0|0,1:2|1:2|1:2|1:2,0:0:0:0:
81,138,75814,2,0,L|71:71,1,67.5000025749208,2|0,1:2|1:2,0:0:0:0:
394,175,75985,2,0,L|379:240,3,67.5000025749208,2|0|0|0,1:2|1:2|1:2|1:2,0:0:0:0:
148,292,76328,6,0,L|155:331,3,40.4999987640381,2|2|2|2,0:0|0:0|0:0|0:0,0:0:0:0:
130,201,77014,6,0,B|173:182|217:217|217:217|235:197|235:197|272:227|310:215,1,202.500007724762,2|0,1:2|0:2,0:0:0:0:
287,135,77356,2,0,P|239:89|180:121,1,135.000005149842,8|0,0:0|0:0,0:0:0:0:
270,302,77699,1,2,0:0:0:0:
384,148,77871,1,0,1:2:0:0:
266,327,78042,1,8,0:0:0:0:
436,227,78214,1,2,0:0:0:0:
218,220,78385,6,0,B|144:203|144:203|133:185|133:185|27:155,1,202.500007724762,2|0,1:2|0:2,0:0:0:0:
16,237,78728,2,0,B|32:304|32:304|85:257,1,135.000005149842,10|2,0:2|0:2,0:0:0:0:
205,136,79071,1,2,0:0:0:0:
302,252,79242,1,2,1:2:0:0:
239,45,79414,1,10,0:0:0:0:
109,170,79585,1,2,0:0:0:0:
349,103,79756,6,0,B|302:226|430:167|371:320,1,202.500007724762,0|0,1:2|0:2,0:0:0:0:
341,368,80099,2,0,P|298:315|305:245,1,135.000005149842,10|0,0:0|0:0,0:0:0:0:
81,260,80442,2,0,P|148:249|205:290,1,135.000005149842,2|0,0:0|1:2,0:0:0:0:
141,75,80785,1,10,0:0:0:0:
0,218,80956,1,2,0:0:0:0:
205,136,81128,6,0,P|305:113|436:99,1,202.500007724762,2|0,1:2|0:0,0:0:0:0:
477,162,81471,2,0,P|490:95|509:23,1,135.000005149842,10|2,0:0|0:0,0:0:0:0:
361,202,81814,1,2,0:0:0:0:
285,30,81985,1,2,1:2:0:0:
365,232,82156,1,10,0:0:0:0:
404,100,82328,1,2,0:0:0:0:
511,266,82499,6,0,B|436:283|436:283|425:301|425:301|320:331,1,202.500007724762,0|0,1:2|0:2,0:0:0:0:
231,373,82842,2,0,P|240:333|245:297,1,67.5000025749208,10|0,0:0|0:0,0:0:0:0:
235,210,83014,1,0,0:0:0:0:
132,315,83185,1,2,0:0:0:0:
145,65,83356,2,0,P|154:105|159:141,1,67.5000025749208,0|0,1:2|0:0,0:0:0:0:
149,228,83528,1,10,0:0:0:0:
50,95,83699,1,0,0:0:0:0:
40,368,83871,6,0,P|49:328|54:292,1,67.5000025749208,2|0,1:2|0:0,0:0:0:0:
44,205,84043,1,0,0:0:0:0:
243,306,84214,1,10,0:0:0:0:
250,133,84385,5,2,0:0:0:0:
157,307,84556,1,2,0:0:0:0:
334,170,84728,1,2,1:2:0:0:
318,360,84899,1,10,0:0:0:0:
264,220,85071,1,2,0:0:0:0:
433,296,85242,6,0,P|500:239|443:135,1,202.500007724762,2|0,1:2|0:0,0:0:0:0:
482,55,85585,2,0,P|415:67|214:108,1,270.000010299683,8|0,0:0|0:0,0:0:0:0:
352,258,86099,1,0,1:2:0:0:
140,188,86271,2,0,P|123:126|114:47,1,135.000005149842,8|0,0:0|0:0,0:0:0:0:
0,275,86614,6,0,B|129:233|58:364|216:309,1,202.500007724762,0|0,1:2|0:2,0:0:0:0:
251,373,86956,2,0,P|259:302|228:242,1,135.000005149842,8|0,0:0|0:0,0:0:0:0:
114,55,87299,1,2,1:2:0:0:
300,176,87471,1,0,1:2:0:0:
37,149,87642,1,10,0:0:0:0:
222,10,87814,1,0,1:0:0:0:
231,246,87985,6,0,L|95:216,1,125.999996154785,2|0,1:2|0:2,0:0:0:0:
13,71,88328,2,0,L|149:41,1,125.999996154785,8|0,0:2|0:2,0:0:0:0:
316,241,88671,2,0,P|291:179|223:159,1,125.999996154785,2|0,0:2|1:2,0:0:0:0:
0,252,89014,2,0,P|60:258|108:219,1,125.999996154785,8|0,0:2|0:2,0:0:0:0:
213,61,89356,5,2,1:2:0:0:
231,246,89528,1,0,0:2:0:0:
344,95,89699,1,8,0:2:0:0:
134,122,89871,1,0,0:2:0:0:
314,235,90042,2,0,L|361:225,3,45,2|2|2|2,0:2|0:2|0:2|0:2,0:0:0:0:
455,100,90728,5,2,1:2:0:0:
427,283,90899,1,0,0:2:0:0:
356,105,91071,1,8,0:2:0:0:
498,235,91242,1,2,0:2:0:0:
266,155,91414,2,0,L|286:30,1,125.999996154785,2|0,0:2|1:2,0:0:0:0:
358,225,91756,1,8,0:0:0:0:
171,225,91928,6,0,L|150:100,1,125.999996154785,2|2,0:2|1:2,0:0:0:0:
265,252,92271,1,2,0:0:0:0:
61,205,92442,1,10,0:2:0:0:
182,326,92614,1,2,0:2:0:0:
260,158,92785,2,0,L|267:114,3,45,2|2|2|2,0:2|0:2|0:2|0:2,0:0:0:0:
360,132,93471,5,2,1:2:0:0:
269,312,93642,1,0,1:2:0:0:
328,57,93814,1,0,1:2:0:0:
398,267,93985,1,0,1:2:0:0:
224,144,94157,1,0,1:2:0:0:
345,331,94328,1,8,0:3:0:0:
434,92,94500,1,0,1:2:0:0:
212,242,94671,1,0,1:2:0:0:
430,342,94842,5,0,1:2:0:0:
305,144,95014,1,0,1:2:0:0:
275,368,95185,1,0,1:2:0:0:
132,183,95357,1,0,1:2:0:0:
377,260,95528,1,0,1:2:0:0:
155,347,95700,1,0,1:2:0:0:
215,107,95871,1,0,1:2:0:0:
345,331,96042,1,0,1:2:0:0:
106,254,96214,5,2,1:2:0:0:
69,230,96299,1,0,1:2:0:0:
51,189,96385,1,2,1:2:0:0:
58,146,96471,1,0,1:2:0:0:
88,113,96557,1,0,1:2:0:0:
130,98,96642,1,0,1:2:0:0:
172,114,96728,1,0,1:2:0:0:
215,107,96814,1,0,1:2:0:0:
252,82,96900,5,2,1:2:0:0:
276,45,96985,1,0,1:2:0:0:
318,30,97071,1,2,1:2:0:0:
362,36,97157,1,0,1:2:0:0:
401,56,97242,1,0,1:2:0:0:
416,99,97328,1,0,1:2:0:0:
406,144,97414,1,0,1:2:0:0:
377,180,97500,1,0,1:2:0:0:
332,187,97585,6,0,L|219:207,1,90,8|0,0:2|0:2,0:0:0:0:
129,301,97842,1,8,0:2:0:0:
129,301,97928,2,0,L|241:285,1,90,8|0,0:2|0:2,0:0:0:0:
345,340,98185,1,8,0:2:0:0:
345,340,98271,1,8,0:2:0:0:
255,84,98442,1,0,1:2:0:0:
314,31,98785,5,8,0:2:0:0:
242,361,98956,1,4,1:2:0:0:
256,192,99042,12,4,108728,1:2:0:0:
