osu file format v14

[General]
AudioFilename: audio.mp3
AudioLeadIn: 0
PreviewTime: 326320
Countdown: 0
SampleSet: Soft
StackLeniency: 0.7
Mode: 0
LetterboxInBreaks: 0
WidescreenStoryboard: 0

[Editor]
Bookmarks: 53492,65835,76806,87777,89320,90863,96006,98749,109720,133035,153606,204349,226292,249606,293492,315435,326406,359320,367549
DistanceSpacing: 1.6
BeatDivisor: 4
GridSize: 16
TimelineZoom: 1.8

[Metadata]
Title:Endgame
TitleUnicode:Endgame
Artist:MUZZ
ArtistUnicode:MUZZ
Creator:Time Freeze
Version:When the Evil Descends
Source:
Tags:drum and & bass dnb neurofunk muzzy secretpipe d&b electronic instrumental english monstercat featured artist fa _sh1ro
BeatmapID:3808645
BeatmapSetID:1853515

[Difficulty]
HPDrainRate:5
CircleSize:3.8
OverallDifficulty:9
ApproachRate:9.2
SliderMultiplier:1.75
SliderTickRate:1

[Events]
//Background and Video events
0,0,"bg.jpg",0,0
//Break Periods
2,153806,159092
2,160663,165263
2,166149,168006
//Storyboard Layer 0 (Background)
//Storyboard Layer 1 (Fail)
//Storyboard Layer 2 (Pass)
//Storyboard Layer 3 (Foreground)
//Storyboard Layer 4 (Overlay)
//Storyboard Sound Samples

[TimingPoints]
37035,342.857142857143,4,2,0,40,1,0
39777,-1000,4,2,0,40,0,0
42863,-250,4,2,0,40,0,0
43120,-250,4,2,0,5,0,0
43206,-250,4,2,0,40,0,0
43806,-250,4,2,0,5,0,0
43892,-100,4,2,1,40,0,0
63092,-100,4,2,0,40,0,0
64463,-100,4,2,1,40,0,0
65492,-200,4,2,1,40,0,0
65835,-200,4,1,1,60,0,0
66177,-66.6666666666667,4,1,1,60,0,0
66349,-100,4,1,1,60,0,0
66863,-66.6666666666667,4,1,3,60,0,0
67035,-66.6666666666667,4,1,1,60,0,0
67720,-100,4,1,1,60,0,0
67892,-100,4,1,4,60,0,0
68235,-66.6666666666667,4,1,4,60,0,0
68663,-66.6666666666667,4,1,1,60,0,0
69092,-100,4,1,1,60,0,0
69606,-66.6666666666667,4,1,3,60,0,0
69777,-66.6666666666667,4,1,1,60,0,0
70463,-100,4,1,1,60,0,0
70635,-100,4,1,4,60,0,0
70806,-100,4,1,1,60,0,0
70977,-66.6666666666667,4,1,5,60,0,0
71320,-66.6666666666667,4,1,1,60,0,0
71835,-100,4,1,1,60,0,0
72349,-66.6666666666667,4,1,3,60,0,0
72520,-66.6666666666667,4,1,1,60,0,0
73206,-100,4,1,1,60,0,0
73377,-100,4,1,4,60,0,0
73720,-66.6666666666667,4,1,4,60,0,0
74063,-100,4,1,1,45,0,0
76120,-66.6666666666667,4,1,4,60,0,0
76463,-66.6666666666667,4,1,6,60,0,0
76806,-66.6666666666667,4,1,1,60,0,0
77320,-100,4,1,1,60,0,0
77835,-66.6666666666667,4,1,3,60,0,0
78006,-66.6666666666667,4,1,1,60,0,0
78692,-100,4,1,1,60,0,0
78863,-100,4,1,4,60,0,0
79206,-66.6666666666667,4,1,4,60,0,0
79549,-66.6666666666667,4,1,1,60,0,0
80063,-100,4,1,1,60,0,0
80577,-66.6666666666667,4,1,3,60,0,0
80749,-66.6666666666667,4,1,1,60,0,0
81435,-100,4,1,1,60,0,0
81606,-100,4,1,4,60,0,0
81949,-66.6666666666667,4,1,4,60,0,0
82292,-66.6666666666667,4,1,1,60,0,0
82806,-100,4,1,1,60,0,0
83320,-66.6666666666667,4,1,3,60,0,0
83492,-66.6666666666667,4,1,1,60,0,0
84349,-66.6666666666667,4,1,4,60,0,0
84692,-66.6666666666667,4,1,7,60,0,0
84949,-66.6666666666667,4,2,1,60,0,0
85035,-66.6666666666667,4,1,1,60,0,0
85720,-66.6666666666667,4,1,1,60,0,0
86406,-66.6666666666667,4,1,1,60,0,0
87435,-66.6666666666667,4,1,6,60,0,0
87777,-66.6666666666667,4,2,1,60,0,0
88806,-66.6666666666667,4,1,3,60,0,0
89149,-66.6666666666667,4,2,1,60,0,0
90520,-66.6666666666667,4,1,3,60,0,0
90863,-66.6666666666667,4,2,1,60,0,0
93263,-66.6666666666667,4,1,3,60,0,0
93606,-66.6666666666667,4,2,1,60,0,0
95835,-66.6666666666667,4,1,7,60,0,0
96006,-66.6666666666667,4,1,1,60,0,0
96177,-100,4,2,1,60,0,0
98406,-100,4,1,6,60,0,0
98749,-62.5,4,1,3,60,0,0
99092,-62.5,4,2,1,60,0,0
101492,-58.8235294117647,4,1,3,60,0,0
101835,-58.8235294117647,4,2,1,60,0,0
104235,-55.5555555555556,4,1,3,60,0,0
104577,-55.5555555555556,4,2,1,60,0,0
106977,-100,4,2,1,60,0,0
109377,-100,4,1,6,60,0,0
109720,-80,4,1,1,60,0,0
110063,-80,4,1,1,40,0,0
114520,-76.9230769230769,4,1,4,40,0,0
114863,-76.9230769230769,4,1,8,40,0,0
115206,-76.9230769230769,4,1,1,40,0,0
117263,-71.4285714285714,4,1,4,40,0,0
117435,-71.4285714285714,4,1,1,40,0,0
117949,-76.9230769230769,4,1,8,40,0,0
120349,-57.1428571428571,4,1,6,40,0,0
120692,-76.9230769230769,4,1,1,40,0,0
121035,-76.9230769230769,4,1,1,40,0,0
128577,-57.1428571428571,4,1,9,40,0,0
128920,-66.6666666666667,4,1,1,40,0,0
131320,-66.6666666666667,4,1,6,40,0,0
131663,-66.6666666666667,4,1,1,40,0,0
133035,-666.666666666667,4,2,1,40,0,0
133720,-666.666666666667,4,2,1,37,0,0
134406,-666.666666666667,4,2,1,34,0,0
135092,-666.666666666667,4,2,1,31,0,0
135777,-666.666666666667,4,2,1,28,0,0
136463,-666.666666666667,4,2,1,25,0,0
137149,-666.666666666667,4,2,1,22,0,0
137835,-666.666666666667,4,2,1,19,0,0
138520,-666.666666666667,4,2,1,16,0,0
139206,-666.666666666667,4,2,1,13,0,0
139892,-666.666666666667,4,2,1,10,0,0
140577,-666.666666666667,4,2,1,8,0,0
141263,-666.666666666667,4,2,1,6,0,0
142120,-666.666666666667,4,2,1,5,0,0
142463,-666.666666666667,4,2,1,10,0,0
142635,-666.666666666667,4,2,1,13,0,0
143320,-666.666666666667,4,2,1,16,0,0
144006,-666.666666666667,4,2,1,19,0,0
144692,-666.666666666667,4,2,1,22,0,0
145377,-666.666666666667,4,2,1,25,0,0
146063,-666.666666666667,4,2,1,28,0,0
146749,-666.666666666667,4,2,1,31,0,0
147435,-666.666666666667,4,2,1,34,0,0
148120,-666.666666666667,4,2,1,37,0,0
148806,-666.666666666667,4,2,1,40,0,0
149492,-666.666666666667,4,2,1,43,0,0
150177,-666.666666666667,4,2,1,46,0,0
150863,-666.666666666667,4,2,1,49,0,0
151549,-666.666666666667,4,2,1,52,0,0
152235,-666.666666666667,4,2,1,55,0,0
152920,-666.666666666667,4,2,1,58,0,0
153263,-666.666666666667,4,2,1,60,0,0
153606,-666.666666666667,4,2,1,20,0,0
168692,-166.666666666667,4,2,1,20,0,0
173063,-166.666666666667,4,2,1,5,0,0
173149,-166.666666666667,4,2,1,20,0,0
174435,-166.666666666667,4,2,1,5,0,0
174520,-166.666666666667,4,2,1,20,0,0
175806,-166.666666666667,4,2,1,5,0,0
175892,-166.666666666667,4,2,1,20,0,0
177006,-166.666666666667,4,2,1,5,0,0
177092,-166.666666666667,4,2,1,20,0,0
178377,-166.666666666667,4,2,1,5,0,0
178463,-166.666666666667,4,2,1,20,0,0
179835,-166.666666666667,4,2,1,5,0,0
179920,-166.666666666667,4,2,1,20,0,0
182492,-166.666666666667,4,2,1,5,0,0
182663,-166.666666666667,4,2,1,20,0,0
183949,-166.666666666667,4,2,1,5,0,0
184035,-166.666666666667,4,2,1,20,0,0
185320,-166.666666666667,4,2,1,5,0,0
185406,-166.666666666667,4,2,1,20,0,0
186692,-166.666666666667,4,2,1,5,0,0
186777,-166.666666666667,4,2,1,20,0,0
188063,-166.666666666667,4,2,1,5,0,0
188149,-166.666666666667,4,2,1,20,0,0
188749,-166.666666666667,4,2,1,5,0,0
188835,-166.666666666667,4,2,1,20,0,0
189435,-166.666666666667,4,2,1,5,0,0
189520,-166.666666666667,4,2,1,20,0,0
190120,-166.666666666667,4,2,1,5,0,0
190206,-166.666666666667,4,2,1,20,0,0
190892,-166.666666666667,4,2,1,5,0,0
190977,-166.666666666667,4,2,1,20,0,0
192435,-166.666666666667,4,2,1,5,0,0
192520,-166.666666666667,4,2,1,20,0,0
193635,-166.666666666667,4,2,1,5,0,0
193720,-166.666666666667,4,2,1,20,0,0
194920,-166.666666666667,4,2,1,5,0,0
195006,-166.666666666667,4,2,1,20,0,0
196377,-166.666666666667,4,2,1,5,0,0
196463,-166.666666666667,4,2,1,20,0,0
199120,-166.666666666667,4,2,1,5,0,0
199206,-166.666666666667,4,2,1,20,0,0
200492,-166.666666666667,4,2,1,5,0,0
200577,-166.666666666667,4,2,1,20,0,0
202977,-166.666666666667,4,2,1,5,0,0
204349,-125,4,2,0,20,0,0
207092,-125,4,2,0,25,0,0
209835,-125,4,2,0,30,0,0
212577,-125,4,2,0,35,0,0
215320,-125,4,2,0,40,0,0
218063,-125,4,2,0,45,0,0
220806,-125,4,2,0,50,0,0
223549,-125,4,2,0,55,0,0
226292,-125,4,2,0,60,0,0
237263,-125,4,2,1,35,0,0
245492,-125,4,2,1,30,0,0
246863,-125,4,2,1,20,0,0
249606,-100,4,1,6,40,0,0
249777,-100,4,1,1,40,0,0
252349,-100,4,1,6,40,0,0
252520,-100,4,1,1,40,0,0
253720,-100,4,1,6,40,0,0
254063,-100,4,1,1,40,0,0
255092,-100,4,1,6,40,0,0
255435,-100,4,1,1,40,0,0
257835,-100,4,1,6,40,0,0
258177,-100,4,1,1,40,0,0
259206,-100,4,1,6,40,0,0
259377,-100,4,1,1,40,0,0
260577,-100,4,1,6,40,0,0
260749,-100,4,1,1,40,0,0
263320,-100,4,1,6,40,0,0
263492,-100,4,1,1,40,0,0
264692,-100,4,1,6,40,0,0
265035,-100,4,1,1,40,0,0
266063,-100,4,1,6,40,0,0
266235,-100,4,1,1,40,0,0
268806,-100,4,1,6,40,0,0
268977,-100,4,1,1,40,0,0
270177,-100,4,1,6,40,0,0
270520,-100,4,1,1,40,0,0
271549,-100,4,1,6,40,0,0
271892,-100,4,1,1,40,0,0
274292,-100,4,1,6,40,0,0
274463,-100,4,1,1,40,0,0
277035,-100,4,1,6,40,0,0
277206,-100,4,1,1,40,0,0
279777,-100,4,1,6,40,0,0
280120,-100,4,1,1,40,0,0
282520,-100,4,1,6,40,0,0
282692,-100,4,1,1,40,0,0
285263,-100,4,1,6,40,0,0
285606,-100,4,1,1,40,0,0
286635,-100,4,1,6,40,0,0
286977,-100,4,1,1,40,0,0
288006,-100,4,1,6,40,0,0
288349,-100,4,1,1,40,0,0
293320,-100,4,1,1,5,0,0
293492,-125,4,2,1,40,0,0
293749,-125,4,2,1,5,0,0
293835,-125,4,2,1,40,0,0
294092,-125,4,2,1,5,0,0
294177,-111.111111111111,4,2,1,40,0,0
294435,-111.111111111111,4,2,1,5,0,0
294520,-125,4,2,1,40,0,0
294777,-125,4,2,1,5,0,0
294863,-100,4,2,1,40,0,0
295120,-100,4,2,1,5,0,0
295206,-125,4,2,1,40,0,0
295463,-125,4,2,1,5,0,0
295549,-100,4,2,1,40,0,0
295806,-100,4,2,1,5,0,0
295892,-90.9090909090909,4,2,1,40,0,0
296149,-90.9090909090909,4,2,1,5,0,0
296235,-125,4,2,1,40,0,0
296492,-125,4,2,1,5,0,0
296577,-125,4,2,1,40,0,0
296835,-125,4,2,1,5,0,0
296920,-100,4,2,1,40,0,0
297177,-100,4,2,1,5,0,0
297263,-111.111111111111,4,2,1,40,0,0
297520,-111.111111111111,4,2,1,5,0,0
297606,-500,4,2,1,40,0,0
298977,-125,4,2,1,40,0,0
299235,-125,4,2,1,5,0,0
299320,-125,4,2,1,40,0,0
299577,-125,4,2,1,5,0,0
299662,-111.111111111111,4,2,1,40,0,0
299920,-111.111111111111,4,2,1,5,0,0
300005,-125,4,2,1,40,0,0
300263,-125,4,2,1,5,0,0
300348,-100,4,2,1,40,0,0
300606,-100,4,2,1,5,0,0
300691,-125,4,2,1,40,0,0
300949,-125,4,2,1,5,0,0
301034,-100,4,2,1,40,0,0
301292,-100,4,2,1,5,0,0
301377,-90.9090909090909,4,2,1,40,0,0
301635,-90.9090909090909,4,2,1,5,0,0
301720,-125,4,2,1,40,0,0
301977,-125,4,2,1,5,0,0
302063,-125,4,2,1,40,0,0
302320,-125,4,2,1,5,0,0
302405,-100,4,2,1,40,0,0
302663,-100,4,2,1,5,0,0
302748,-111.111111111111,4,2,1,40,0,0
303006,-111.111111111111,4,2,1,5,0,0
303092,-500,4,2,1,40,0,0
304463,-125,4,2,1,40,0,0
304720,-125,4,2,1,5,0,0
304806,-125,4,2,1,40,0,0
305063,-125,4,2,1,5,0,0
305147,-111.111111111111,4,2,1,40,0,0
305406,-111.111111111111,4,2,1,5,0,0
305490,-125,4,2,1,40,0,0
305749,-125,4,2,1,5,0,0
305833,-100,4,2,1,40,0,0
306092,-100,4,2,1,5,0,0
306176,-125,4,2,1,40,0,0
306435,-125,4,2,1,5,0,0
306519,-100,4,2,1,40,0,0
306777,-100,4,2,1,5,0,0
306862,-90.9090909090909,4,2,1,40,0,0
307120,-90.9090909090909,4,2,1,5,0,0
307205,-125,4,2,1,40,0,0
307463,-125,4,2,1,5,0,0
307549,-125,4,2,1,40,0,0
307806,-125,4,2,1,5,0,0
307890,-100,4,2,1,40,0,0
308149,-100,4,2,1,5,0,0
308233,-111.111111111111,4,2,1,40,0,0
308492,-111.111111111111,4,2,1,5,0,0
308577,-500,4,2,1,40,0,0
309949,-125,4,2,1,40,0,0
310206,-125,4,2,1,5,0,0
310292,-125,4,2,1,40,0,0
310549,-125,4,2,1,5,0,0
310632,-111.111111111111,4,2,1,40,0,0
310892,-111.111111111111,4,2,1,5,0,0
310975,-125,4,2,1,40,0,0
311235,-125,4,2,1,5,0,0
311318,-100,4,2,1,40,0,0
311577,-100,4,2,1,5,0,0
311661,-125,4,2,1,40,0,0
311920,-125,4,2,1,5,0,0
312004,-100,4,2,1,40,0,0
312263,-100,4,2,1,5,0,0
312347,-90.9090909090909,4,2,1,40,0,0
312606,-90.9090909090909,4,2,1,5,0,0
312690,-125,4,2,1,40,0,0
312949,-125,4,2,1,5,0,0
313035,-125,4,2,1,40,0,0
313292,-125,4,2,1,5,0,0
313375,-100,4,2,1,40,0,0
313635,-100,4,2,1,5,0,0
313718,-111.111111111111,4,2,1,40,0,0
313977,-111.111111111111,4,2,1,5,0,0
314063,-500,4,2,1,40,0,0
315435,-105.263157894737,4,2,1,40,0,0
326406,-66.6666666666667,4,1,6,60,0,0
359320,-66.6666666666667,4,1,6,80,0,0
370292,-66.6666666666667,4,1,1,70,0,0
370635,-66.6666666666667,4,1,1,30,0,0

[Colours]
Combo1 : 121,174,131
Combo2 : 152,169,209
Combo3 : 163,117,223
Combo4 : 145,240,208

[HitObjects]
32,336,37035,5,0,3:0:0:0:
204,305,37206,1,0,3:0:0:0:
52,216,37377,1,8,0:0:0:0:
219,161,37549,6,0,L|211:117,2,43.75,0|8|0,3:0|0:0|3:0,0:0:0:0:
32,336,37806,2,0,L|75:343,1,43.75,8|0,0:0|3:0,0:0:0:0:
352,248,38063,6,0,P|306:246|265:295,1,87.5,8|0,0:0|3:0,0:0:0:0:
263,287,38320,2,0,L|253:234,1,43.75,8|0,0:0|3:0,0:0:0:0:
417,306,38492,2,0,L|409:349,1,43.75,8|0,0:0|3:0,0:0:0:0:
376,66,38749,6,0,L|463:81,1,87.5,8|0,0:0|3:0,0:0:0:0:
480,85,39006,2,0,L|425:94,1,43.75,8|0,0:0|3:0,0:0:0:0:
290,127,39177,2,0,L|236:136,1,43.75,8|0,0:0|3:0,0:0:0:0:
30,225,39435,6,0,P|10:176|19:134,1,87.5,8|0,0:0|3:0,0:0:0:0:
152,16,39777,6,0,P|121:47|62:47,1,105
62,47,42863,6,0,L|72:100,1,52.5,0|0,0:0|0:0,0:0:0:0:
46,185,43206,2,0,P|72:145|149:138,1,122.5
121,213,43892,5,0,0:0:0:0:
224,52,44235,1,0,0:0:0:0:
246,173,45263,5,0,0:0:0:0:
62,70,45606,1,0,0:0:0:0:
10,132,46635,5,2,0:0:0:0:
213,79,46806,1,0,0:0:0:0:
10,132,46977,5,2,0:0:0:0:
131,165,47148,1,0,0:0:0:0:
99,28,47320,5,2,0:0:0:0:
156,265,47492,1,0,0:0:0:0:
99,28,47663,5,2,0:0:0:0:
60,193,47835,1,0,0:0:0:0:
395,120,48006,5,2,0:0:0:0:
288,40,48177,1,0,0:0:0:0:
273,172,48349,1,2,0:0:0:0:
405,180,48520,5,0,0:0:0:0:
283,186,48692,1,2,0:0:0:0:
410,204,48863,1,0,0:0:0:0:
224,316,49035,5,2,0:0:0:0:
447,278,49206,1,0,0:0:0:0:
226,238,49377,5,2,0:0:0:0:
393,343,49549,1,0,0:0:0:0:
224,316,49720,5,2,0:0:0:0:
143,350,49892,1,0,0:0:0:0:
62,384,50063,1,2,0:0:0:0:
91,162,50235,5,0,0:0:0:0:
61,373,50406,1,2,0:0:0:0:
3,211,50577,1,0,0:0:0:0:
300,192,50749,5,2,0:0:0:0:
281,321,50920,1,0,0:0:0:0:
410,340,51092,1,2,0:0:0:0:
429,211,51263,1,0,0:0:0:0:
319,217,51435,5,2,0:0:0:0:
306,303,51606,1,0,0:0:0:0:
392,316,51778,1,2,0:0:0:0:
405,230,51949,1,0,0:0:0:0:
210,47,52120,5,2,0:0:0:0:
226,133,52292,1,0,0:0:0:0:
189,70,52463,5,2,0:0:0:0:
246,109,52635,1,0,0:0:0:0:
192,94,52806,5,0,0:0:0:0:
243,85,52978,1,0,0:0:0:0:
211,99,53149,5,0,0:0:0:0:
224,80,53321,1,0,0:0:0:0:
61,232,53492,6,0,P|42:188|56:139,1,87.5,8|0,3:2|0:0,0:0:0:0:
265,150,53835,2,0,P|272:193|254:232,1,87.5,4|0,3:0|0:0,0:0:0:0:
106,331,54177,5,8,3:2:0:0:
7,368,54349,1,0,0:0:0:0:
104,371,54520,5,4,3:0:0:0:
8,327,54692,1,0,0:0:0:0:
206,258,54863,6,0,L|315:277,1,87.5,8|0,3:2|3:0,0:0:0:0:
87,127,55206,2,0,L|-22:146,1,87.5,4|0,3:0|3:0,0:0:0:0:
251,48,55549,5,8,3:2:0:0:
230,146,55720,1,0,3:0:0:0:
239,33,55892,5,6,3:0:0:0:
292,273,56063,1,2,3:0:0:0:
58,216,56235,6,0,B|36:179|36:179|51:120,1,87.5,8|0,3:0|3:0,0:0:0:0:
301,90,56577,2,0,B|323:127|323:127|308:186,1,87.5,4|0,3:0|3:0,0:0:0:0:
153,313,56920,5,8,3:0:0:0:
178,221,57092,1,0,3:0:0:0:
200,335,57263,5,4,3:0:0:0:
174,204,57435,1,0,3:0:0:0:
15,307,57606,6,0,L|22:261,1,43.75,8|0,3:0|0:0,0:0:0:0:
46,135,57777,1,0,3:0:0:0:
286,287,57949,2,0,L|262:165,1,87.5,4|0,3:0|3:0,0:0:0:0:
46,135,58292,5,8,3:0:0:0:
252,115,58463,1,0,3:0:0:0:
16,44,58635,5,6,3:0:0:0:
335,144,58806,1,2,3:0:0:0:
193,25,58977,6,0,P|155:54|143:99,1,87.5,8|0,3:0|3:0,0:0:0:0:
343,236,59320,2,0,P|311:206|269:200,1,87.5,8|0,3:0|3:0,0:0:0:0:
141,257,59663,5,8,3:0:0:0:
275,288,59835,1,0,3:0:0:0:
224,104,60006,5,8,3:0:0:0:
169,341,60177,1,0,3:0:0:0:
125,112,60349,5,8,3:0:0:0:
124,106,60434,1,0,3:0:0:0:
123,101,60520,1,0,3:0:0:0:
122,95,60606,1,0,3:0:0:0:
121,90,60691,1,8,3:0:0:0:
120,85,60777,1,0,3:0:0:0:
119,79,60863,1,0,3:0:0:0:
118,74,60948,1,0,3:0:0:0:
117,68,61035,5,8,3:0:0:0:
145,36,61120,1,0,3:0:0:0:
185,19,61206,1,0,3:0:0:0:
228,23,61292,1,0,3:0:0:0:
265,46,61377,1,8,3:0:0:0:
296,77,61462,1,0,3:0:0:0:
338,88,61548,1,0,3:0:0:0:
380,76,61634,1,0,3:0:0:0:
410,46,61720,5,0,3:0:0:0:
348,30,61805,1,0,3:0:0:0:
297,69,61891,1,0,3:0:0:0:
295,132,61977,1,0,3:0:0:0:
342,174,62063,1,0,3:0:0:0:
381,225,62148,1,0,3:0:0:0:
371,288,62234,1,0,3:0:0:0:
319,325,62320,1,0,3:0:0:0:
256,312,62406,5,0,3:0:0:0:
220,259,62491,1,0,3:0:0:0:
159,241,62577,1,0,3:0:0:0:
100,266,62663,1,0,3:0:0:0:
70,323,62749,5,0,3:0:0:0:
71,333,62834,1,0,3:0:0:0:
73,344,62920,1,0,3:0:0:0:
75,355,63006,1,0,0:0:0:0:
77,366,63092,5,0,3:0:0:0:
84,322,63177,1,0,3:0:0:0:
91,279,63263,1,0,3:0:0:0:
99,236,63349,1,0,3:0:0:0:
106,193,63435,5,0,3:0:0:0:
141,167,63520,1,0,3:0:0:0:
184,164,63606,1,0,3:0:0:0:
222,184,63692,1,0,3:0:0:0:
240,223,63777,5,0,3:0:0:0:
205,275,63862,1,0,3:0:0:0:
142,274,63948,1,0,3:0:0:0:
109,221,64034,1,0,3:0:0:0:
136,164,64120,6,0,L|196:174,1,43.75,0|0,3:0|3:0,0:0:0:0:
350,204,64292,2,0,L|410:214,1,43.75,0|0,3:0|3:0,0:0:0:0:
267,11,64463,6,0,L|275:61,1,43.75,4|0,3:0|0:0,0:0:0:0:
417,77,64635,6,0,B|365:65|329:96|346:119|296:146|250:126,1,175,0|0,0:0|0:0,0:0:0:0:
111,223,65149,5,0,0:0:0:0:
111,205,65235,2,0,P|149:172|194:180,1,87.5
261,218,65492,6,0,L|249:282,1,65.625,8|0,0:0|0:0,0:0:0:0:
230,368,65835,5,4,3:1:0:0:
402,312,66006,1,0,0:0:0:0:
275,132,66177,2,0,P|271:129|281:133,1,65.6250025033952,10|0,0:0|0:0,0:0:0:0:
133,298,66349,6,0,L|73:308,1,43.75
124,309,66520,2,0,L|64:319,1,43.75
167,113,66692,2,0,P|183:96|209:91,1,43.75,0|0,3:0|0:0,0:0:0:0:
360,193,66863,2,0,B|274:210|309:144|204:189,1,131.25000500679,10|0,0:0|0:0,0:0:0:0:
0,254,67206,5,0,3:0:0:0:
94,108,67377,1,0,0:0:0:0:
144,352,67549,2,0,P|148:355|138:351,1,65.6250025033952,10|0,0:0|0:0,0:0:0:0:
339,268,67720,6,0,L|331:313,1,43.75
354,283,67892,2,0,L|346:328,1,43.75,2|0,0:0|0:0,0:0:0:0:
210,154,68063,2,0,L|221:92,1,43.75,0|0,3:0|0:0,0:0:0:0:
380,12,68235,2,0,L|352:154,1,131.25000500679,8|2,0:0|0:0,0:0:0:0:
259,371,68577,5,0,3:0:0:0:
412,243,68749,1,0,0:0:0:0:
183,163,68920,2,0,P|180:167|184:157,1,65.6250025033952,10|0,0:0|0:0,0:0:0:0:
349,10,69092,6,0,L|359:61,1,43.75
363,16,69263,2,0,L|371:60,1,43.75
512,194,69435,2,0,P|473:171|456:171,1,43.75,0|0,3:0|0:0,0:0:0:0:
377,345,69606,2,0,P|440:308|451:242,1,131.25000500679,10|0,0:0|0:0,0:0:0:0:
327,39,69949,5,0,3:0:0:0:
253,234,70120,1,0,0:0:0:0:
475,171,70292,2,0,P|478:175|474:165,1,65.6250025033952,10|0,0:0|0:0,0:0:0:0:
257,267,70463,6,0,L|265:330,1,43.75
195,174,70635,2,0,L|134:148,1,43.75,2|0,0:0|0:0,0:0:0:0:
306,169,70806,2,0,L|352:148,1,43.75,0|0,3:0|0:0,0:0:0:0:
190,29,70977,2,0,P|250:-10|307:1,1,131.25000500679,10|0,0:0|0:0,0:0:0:0:
293,273,71320,5,0,3:0:0:0:
260,65,71492,1,0,0:0:0:0:
414,262,71663,2,0,P|411:258|415:268,1,65.6250025033952,10|0,0:0|0:0,0:0:0:0:
193,265,71835,6,0,L|201:217,1,43.75
111,158,72006,2,0,L|102:110,1,43.75
237,45,72177,2,0,L|229:88,1,43.75,0|0,3:0|0:0,0:0:0:0:
382,224,72349,2,0,P|326:161|261:177,1,131.25000500679,10|0,0:0|0:0,0:0:0:0:
30,223,72692,5,0,3:0:0:0:
224,258,72863,1,0,0:0:0:0:
55,378,73035,2,0,L|43:311,1,65.6250025033952,10|0,0:0|0:0,0:0:0:0:
289,326,73206,6,0,L|281:370,1,43.75
165,217,73377,2,0,L|173:265,1,43.75,2|0,0:0|0:0,0:0:0:0:
317,148,73549,2,0,L|308:196,1,43.75,0|0,3:0|0:0,0:0:0:0:
122,121,73720,2,0,P|163:68|225:62,1,131.25000500679,8|2,0:0|0:0,0:0:0:0:
370,247,74063,6,0,P|332:271|286:264,1,87.5,0|0,3:0|0:0,0:0:0:0:
484,182,74406,2,0,L|466:286,1,87.5,8|0,0:0|0:0,0:0:0:0:
299,148,74749,1,0,0:0:0:0:
393,346,74920,1,0,3:0:0:0:
498,105,75092,2,0,L|400:87,1,87.5,8|0,0:0|0:0,0:0:0:0:
227,96,75435,6,0,P|258:64|311:63,1,87.5,0|0,3:0|0:0,0:0:0:0:
373,224,75777,2,0,P|343:255|300:260,1,87.5,8|0,0:0|0:0,0:0:0:0:
95,274,76120,6,0,L|83:210,1,65.6250025033952
11,88,76292,2,0,L|22:23,1,65.6250025033952,0|0,3:0|0:0,0:0:0:0:
44,358,76463,6,0,P|70:373|109:370,1,65.6250025033952,10|0,0:0|0:0,0:0:0:0:
153,75,76635,2,0,P|182:89|199:117,1,65.6250025033952,2|0,0:0|0:0,0:0:0:0:
267,375,76806,5,4,3:1:0:0:
311,195,76977,1,0,0:0:0:0:
471,313,77149,2,0,P|493:309|471:305,1,65.6250025033952,10|0,0:0|0:0,0:0:0:0:
247,273,77320,6,0,L|199:281,1,43.75
242,291,77492,2,0,L|199:298,1,43.75
157,85,77663,2,0,P|133:96|118:129,1,43.75,0|0,3:0|0:0,0:0:0:0:
104,320,77835,2,0,L|114:166,1,131.25000500679,10|0,0:0|0:0,0:0:0:0:
381,193,78177,5,0,3:0:0:0:
258,364,78349,1,0,0:0:0:0:
211,118,78520,2,0,P|234:118|212:125,1,65.6250025033952,10|0,0:0|0:0,0:0:0:0:
420,49,78692,6,0,P|434:71|440:102,1,43.75
431,45,78863,2,0,P|443:63|450:84,1,43.75,2|0,0:0|0:0,0:0:0:0:
313,17,79035,2,0,P|292:23|274:35,1,43.75,0|0,3:0|0:0,0:0:0:0:
336,233,79206,2,0,B|317:159|376:182|342:78,1,131.25000500679,8|2,0:0|0:0,0:0:0:0:
96,37,79549,5,0,3:0:0:0:
263,126,79720,1,0,0:0:0:0:
55,262,79892,2,0,P|35:273|50:256,1,65.6250025033952,10|0,0:0|0:0,0:0:0:0:
254,343,80063,6,0,L|262:299,1,43.75
245,328,80235,2,0,L|253:284,1,43.75
154,167,80406,2,0,L|105:176,1,43.75,0|0,3:0|0:0,0:0:0:0:
10,329,80577,2,0,P|73:287|131:308,1,131.25000500679,10|0,0:0|0:0,0:0:0:0:
384,272,80920,5,0,3:0:0:0:
214,372,81092,1,0,0:0:0:0:
453,338,81263,2,0,P|473:327|458:344,1,65.6250025033952,10|0,0:0|0:0,0:0:0:0:
307,176,81435,6,0,P|323:161|350:150,1,43.75
365,69,81606,2,0,P|385:76|403:89,1,43.75,2|0,0:0|0:0,0:0:0:0:
505,173,81777,2,0,L|495:227,1,43.75,0|0,3:0|0:0,0:0:0:0:
393,372,81949,2,0,L|367:225,1,131.25000500679,8|2,0:0|0:0,0:0:0:0:
109,207,82292,5,0,3:0:0:0:
312,153,82463,1,0,0:0:0:0:
66,98,82635,2,0,P|50:82|70:93,1,65.6250025033952,10|0,0:0|0:0,0:0:0:0:
221,255,82806,6,0,L|228:297,1,43.75
214,269,82977,2,0,L|221:311,1,43.75
340,363,83149,2,0,L|397:353,1,43.75,0|0,3:0|0:0,0:0:0:0:
487,275,83320,2,0,B|448:255|448:255|348:273,1,131.25000500679,10|0,0:0|0:0,0:0:0:0:
122,378,83663,6,0,P|92:334|110:251,1,131.25000500679,0|0,3:0|0:0,0:0:0:0:
383,355,84006,1,10,0:0:0:0:
179,168,84177,6,0,P|209:143|245:144,1,65.6250025033952
254,59,84349,2,0,P|290:72|307:104,1,65.6250025033952
355,194,84520,2,0,L|342:269,1,65.6250025033952,0|0,3:0|0:0,0:0:0:0:
217,372,84692,2,0,B|192:225,1,131.25000500679,10|0,0:0|0:0,0:0:0:0:
153,9,85035,5,8,0:0:0:0:
12,211,85206,1,8,0:0:0:0:
302,262,85377,2,0,L|453:288,1,131.25000500679,8|8,0:0|0:0,0:0:0:0:
67,367,85720,1,8,0:0:0:0:
323,143,85892,2,0,P|335:206|302:261,1,131.25000500679,8|8,0:0|0:0,0:0:0:0:
9,302,86235,1,8,0:0:0:0:
211,126,86406,5,8,0:0:0:0:
208,109,86492,1,8,0:0:0:0:
205,93,86577,1,8,0:0:0:0:
202,77,86663,1,8,0:0:0:0:
199,60,86749,5,8,0:0:0:0:
169,74,86834,1,8,0:0:0:0:
144,105,86920,1,8,0:0:0:0:
130,148,87006,1,8,0:0:0:0:
140,198,87091,1,8,0:0:0:0:
179,241,87177,1,8,0:0:0:0:
226,286,87263,6,0,P|227:330|209:358,1,65.6250025033952,8|8,0:0|0:0,0:0:0:0:
8,223,87435,2,0,P|28:196|58:183,1,65.6250025033952,2|0,0:0|0:0,0:0:0:0:
247,23,87606,2,0,P|222:4|190:0,1,65.6250025033952,2|0,0:0|0:0,0:0:0:0:
1,50,87777,6,0,P|64:88|122:72,1,131.25000500679,2|0,0:0|0:0,0:0:0:0:
312,280,88120,2,0,P|338:247|338:214,1,65.6250025033952,2|0,0:0|0:0,0:0:0:0:
335,135,88292,2,0,P|319:95|290:79,1,65.6250025033952,2|0,0:0|0:0,0:0:0:0:
144,151,88463,2,0,P|151:195|157:239,1,65.6250025033952,2|0,0:0|0:0,0:0:0:0:
288,355,88635,6,0,L|354:362,1,65.6250025033952,0|0,3:0|0:0,0:0:0:0:
207,106,88806,2,0,B|242:163|242:163|229:232,1,131.25000500679,10|0,0:0|0:0,0:0:0:0:
0,129,89149,6,0,P|23:112|64:111,1,65.6250025033952,2|0,3:2|0:0,0:0:0:0:
54,17,89320,2,0,P|86:19|113:37,1,65.6250025033952,2|0,0:0|0:0,0:0:0:0:
266,87,89492,2,0,P|242:103|201:104,1,65.6250025033952,10|0,1:0|0:0,0:0:0:0:
212,199,89663,2,0,P|179:196|152:178,1,65.6250025033952
39,293,89835,6,0,L|51:358,1,65.6250025033952,2|0,0:0|0:0,0:0:0:0:
230,292,90006,2,0,L|219:357,1,65.6250025033952,2|0,3:2|0:0,0:0:0:0:
23,298,90177,2,0,L|34:364,1,65.6250025033952,10|0,1:0|0:0,0:0:0:0:
243,294,90349,2,0,L|232:359,1,65.6250025033952
29,132,90520,6,0,B|56:112|96:118|96:118|121:160|166:167,1,131.25000500679,2|0,3:1|0:0,0:0:0:0:
345,208,90863,6,0,P|368:208|346:201,1,65.6250025033952,10|0,1:0|0:0,0:0:0:0:
126,280,91035,2,0,P|126:257|119:279,1,65.6250025033952,2|0,0:0|0:0,0:0:0:0:
359,352,91206,2,0,P|382:352|360:345,1,65.6250025033952,2|0,0:0|0:0,0:0:0:0:
284,129,91377,6,0,P|316:108|357:112,1,65.6250025033952,0|0,3:0|0:0,0:0:0:0:
451,283,91549,2,0,P|491:238|481:171,1,131.25000500679,10|2,1:0|0:0,0:0:0:0:
215,72,91892,6,0,P|198:95|197:136,1,65.6250025033952,2|0,3:2|0:0,0:0:0:0:
103,126,92063,2,0,P|105:158|123:185,1,65.6250025033952,2|0,0:0|0:0,0:0:0:0:
214,317,92235,2,0,P|230:293|231:252,1,65.6250025033952,10|0,1:0|0:0,0:0:0:0:
326,263,92406,2,0,P|323:230|305:203,1,65.6250025033952
105,119,92577,6,0,L|116:54,1,65.6250025033952,2|0,0:0|0:0,0:0:0:0:
296,119,92748,2,0,L|284:54,1,65.6250025033952,2|0,3:2|0:0,0:0:0:0:
89,113,92919,2,0,L|99:47,1,65.6250025033952,10|0,1:0|0:0,0:0:0:0:
309,117,93091,2,0,L|297:52,1,65.6250025033952
124,331,93263,6,0,B|187:337|174:284|269:303,1,131.25000500679,2|0,3:1|0:0,0:0:0:0:
369,127,93606,6,0,P|339:112|304:118,1,65.6250025033952,10|0,1:0|0:0,0:0:0:0:
125,252,93777,2,0,P|144:224|177:211,1,65.6250025033952,2|0,0:0|0:0,0:0:0:0:
403,278,93949,2,0,P|373:262|339:268,1,65.6250025033952,2|0,0:0|0:0,0:0:0:0:
131,137,94120,6,0,L|214:122,1,65.6250025033952,0|0,3:0|0:0,0:0:0:0:
383,25,94292,2,0,L|250:42,1,131.25000500679,10|2,1:0|0:0,0:0:0:0:
156,300,94635,6,0,P|173:277|174:236,1,65.6250025033952,2|0,3:2|0:0,0:0:0:0:
268,246,94806,2,0,P|266:214|248:187,1,65.6250025033952,2|0,0:0|0:0,0:0:0:0:
157,55,94978,2,0,P|141:79|140:120,1,65.6250025033952,10|0,1:0|0:0,0:0:0:0:
45,109,95149,2,0,P|48:142|66:169,1,65.6250025033952
224,302,95320,6,0,L|298:288,1,65.6250025033952,2|0,0:0|0:0,0:0:0:0:
232,21,95492,2,0,L|168:30,1,65.6250025033952,2|0,3:2|0:0,0:0:0:0:
145,176,95663,6,0,P|191:108|206:219,1,262.500010013581,10|0,1:0|0:0,0:0:0:0:
27,357,96177,5,0,0:0:0:0:
85,291,96349,2,0,L|194:310,1,87.5,2|0,0:0|0:0,0:0:0:0:
406,274,96692,5,0,0:0:0:0:
348,340,96864,2,0,L|238:320,1,87.5,2|0,0:0|0:0,0:0:0:0:
181,92,97205,5,0,0:0:0:0:
247,150,97377,2,0,L|227:259,1,87.5,2|0,0:0|0:0,0:0:0:0:
85,291,97720,5,0,0:0:0:0:
19,233,97892,2,0,L|38:123,1,87.5,2|0,0:0|0:0,0:0:0:0:
266,37,98235,5,0,3:0:0:0:
220,319,98406,1,10,1:0:0:0:
119,146,98577,1,2,0:0:0:0:
335,325,98749,6,0,B|379:317|379:317|417:328|417:328|477:318,1,140,6|0,3:1|0:0,0:0:0:0:
119,146,99092,2,0,P|147:128|193:136,1,70,10|0,1:0|0:0,0:0:0:0:
216,43,99263,2,0,P|245:58|260:99,1,70,2|0,0:0|0:0,0:0:0:0:
194,296,99435,2,0,P|165:281|153:238,1,70,2|0,0:0|0:0,0:0:0:0:
308,191,99606,2,0,P|308:225|288:253,1,70,0|0,3:0|0:0,0:0:0:0:
119,146,99777,2,0,P|108:74|93:0,1,140,10|2,1:0|0:0,0:0:0:0:
403,94,100120,6,0,L|392:23,1,70,2|0,3:2|0:0,0:0:0:0:
205,121,100292,2,0,L|194:52,1,70,2|0,0:0|0:0,0:0:0:0:
386,98,100463,2,0,L|375:28,1,70,10|0,1:0|0:0,0:0:0:0:
222,119,100635,2,0,L|210:48,1,70
158,210,100806,6,0,P|177:230|222:232,1,70,2|0,0:0|0:0,0:0:0:0:
244,317,100977,2,0,P|271:313|300:279,1,70,2|0,3:2|0:0,0:0:0:0:
388,311,101149,2,0,P|398:285|382:244,1,70,10|0,1:0|0:0,0:0:0:0:
473,209,101320,2,0,P|459:185|413:171,1,70
211,158,101492,6,0,P|243:103|325:100,1,148.750002837181,2|0,3:1|0:0,0:0:0:0:
171,338,101835,2,0,P|147:316|140:267,1,74.3750014185906,10|0,1:0|0:0,0:0:0:0:
93,210,102006,2,0,P|101:178|137:149,1,74.3750014185906,2|0,0:0|0:0,0:0:0:0:
288,230,102177,2,0,P|277:265|246:291,1,74.3750014185906,2|0,0:0|0:0,0:0:0:0:
24,162,102349,2,0,P|32:130|68:101,1,74.3750014185906,0|0,3:0|0:0,0:0:0:0:
267,138,102520,2,0,P|204:170|129:149,1,148.750002837181,10|2,1:0|0:0,0:0:0:0:
445,251,102863,6,0,L|429:339,1,74.3750014185906,2|0,3:2|0:0,0:0:0:0:
265,265,103035,2,0,L|279:337,1,74.3750014185906,2|0,0:0|0:0,0:0:0:0:
465,253,103206,2,0,L|448:344,1,74.3750014185906,10|0,1:0|0:0,0:0:0:0:
246,267,103377,2,0,L|262:339,1,74.3750014185906
430,47,103549,6,0,P|433:81|398:129,1,74.3750014185906,2|0,0:0|0:0,0:0:0:0:
254,51,103720,2,0,P|254:87|274:118,1,74.3750014185906,2|0,3:2|0:0,0:0:0:0:
452,47,103892,2,0,P|455:81|418:132,1,74.3750014185906,10|0,1:0|0:0,0:0:0:0:
237,52,104063,2,0,P|238:88|258:119,1,74.3750014185906
328,337,104235,6,0,B|402:343|378:279|472:292,1,157.499995193482,2|0,3:1|0:0,0:0:0:0:
167,370,104577,2,0,P|152:336|160:294,1,78.7499975967408,10|0,1:0|0:0,0:0:0:0:
307,268,104749,2,0,P|316:237|299:195,1,78.7499975967408,2|0,0:0|0:0,0:0:0:0:
166,118,104920,2,0,P|149:152|158:190,1,78.7499975967408,2|0,0:0|0:0,0:0:0:0:
391,262,105092,2,0,P|399:224|383:189,1,78.7499975967408,0|0,3:0|0:0,0:0:0:0:
227,13,105263,2,0,B|315:31|267:68|366:83,1,157.499995193482,10|2,1:0|0:0,0:0:0:0:
471,294,105606,6,0,L|488:209,1,78.7499975967408,2|0,3:2|0:0,0:0:0:0:
394,164,105777,2,0,L|378:241,1,78.7499975967408,2|0,0:0|0:0,0:0:0:0:
267,326,105949,6,0,L|252:249,1,78.7499975967408,10|0,1:0|0:0,0:0:0:0:
154,298,106120,2,0,L|171:376,1,78.7499975967408
119,130,106292,6,0,P|138:110|187:109,1,78.7499975967408,2|0,0:0|0:0,0:0:0:0:
205,23,106463,2,0,P|232:26|262:64,1,78.7499975967408,2|0,3:2|0:0,0:0:0:0:
349,29,106635,2,0,P|359:54|339:102,1,78.7499975967408,10|0,1:0|0:0,0:0:0:0:
434,131,106806,2,0,P|420:154|371:170,1,78.7499975967408
129,333,106977,6,0,B|195:156|195:156|307:303|307:303|139:334,1,525,0|0,0:0|0:0,0:0:0:0:
133,310,108177,6,0,B|194:145|194:145|356:364,1,437.5
223,366,109206,5,0,3:0:0:0:
435,315,109377,1,10,0:0:0:0:
204,369,109549,1,2,0:0:0:0:
358,152,109720,6,0,P|405:187|414:240,1,109.375,4|0,3:1|0:0,0:0:0:0:
281,266,110063,2,0,P|317:249|285:272,1,109.375,10|0,0:0|0:0,0:0:0:0:
194,185,110406,5,0,0:0:0:0:
217,336,110577,1,0,3:0:0:0:
390,364,110749,2,0,B|425:324|425:324|410:260,1,109.375,10|0,1:0|0:0,0:0:0:0:
376,75,111092,5,0,3:0:0:0:
477,139,111263,1,0,0:0:0:0:
379,160,111435,2,0,B|310:162|337:111|256:115,1,109.375,10|0,0:0|0:0,0:0:0:0:
215,191,111777,5,0,0:0:0:0:
256,26,111949,1,0,3:0:0:0:
70,137,112120,2,0,P|102:84|159:81,1,109.375,10|0,0:0|0:0,0:0:0:0:
143,227,112463,5,0,3:0:0:0:
41,260,112635,1,0,0:0:0:0:
159,255,112806,5,10,0:0:0:0:
33,226,112977,1,0,0:0:0:0:
248,133,113149,5,0,0:0:0:0:
279,289,113320,1,0,3:0:0:0:
280,116,113492,5,10,0:0:0:0:
248,262,113663,1,0,0:0:0:0:
37,223,113835,5,2,0:0:0:0:
68,369,114006,1,0,3:0:0:0:
214,338,114177,1,10,0:0:0:0:
183,192,114349,1,0,0:0:0:0:
63,240,114520,5,0,3:0:0:0:
85,344,114691,1,0,0:0:0:0:
189,322,114862,1,10,0:0:0:0:
167,218,115034,1,0,0:0:0:0:
29,134,115206,6,0,B|92:124|60:86|154:83,1,113.749994792938,0|0,3:0|0:0,0:0:0:0:
287,73,115549,2,0,P|250:35|176:53,1,113.749994792938,10|0,0:0|0:0,0:0:0:0:
308,282,115892,5,0,0:0:0:0:
198,144,116063,1,0,0:0:0:0:
229,266,116235,2,0,B|230:212|287:222|285:149,1,113.749994792938,10|0,0:0|0:0,0:0:0:0:
11,100,116577,6,0,B|81:83|65:127|138:105,1,113.749994792938,0|0,3:0|0:0,0:0:0:0:
212,57,116920,2,0,P|175:21|108:39,1,113.749994792938,10|0,0:0|0:0,0:0:0:0:
321,153,117263,6,0,L|331:91,1,61.2499981307984,2|0,0:0|0:0,0:0:0:0:
218,205,117435,2,0,L|230:276,1,61.2499981307984,2|0,3:2|0:0,0:0:0:0:
342,189,117606,2,0,L|366:51,1,122.499996261597,10|0,0:0|0:0,0:0:0:0:
473,267,117949,5,0,3:0:0:0:
328,336,118120,1,0,0:0:0:0:
486,272,118292,5,10,0:0:0:0:
285,190,118463,1,0,0:0:0:0:
399,90,118635,6,0,P|351:47|303:56,1,113.749994792938,0|0,0:0|3:0,0:0:0:0:
156,208,118977,2,0,B|226:213|195:163|273:171,1,113.749994792938,10|0,0:0|0:0,0:0:0:0:
342,140,119320,5,0,3:0:0:0:
299,280,119492,1,0,0:0:0:0:
320,171,119663,5,10,0:0:0:0:
343,308,119835,1,0,0:0:0:0:
213,259,120006,1,0,0:0:0:0:
352,87,120177,5,0,3:1:0:0:
401,377,120349,1,10,0:0:0:0:
124,274,120520,1,2,0:0:0:0:
234,110,120692,6,0,L|253:221,1,113.749994792938,4|0,3:1|0:0,0:0:0:0:
276,301,121035,2,0,P|265:263|271:302,1,113.749994792938,10|0,0:0|0:0,0:0:0:0:
366,343,121377,5,0,0:0:0:0:
197,383,121549,1,0,3:0:0:0:
388,249,121720,2,0,P|440:277|456:336,1,113.749994792938,10|0,0:0|0:0,0:0:0:0:
366,343,122063,5,0,3:0:0:0:
293,177,122235,1,0,0:0:0:0:
401,93,122406,2,0,B|332:98|357:36|256:61,1,113.749994792938,10|0,0:0|0:0,0:0:0:0:
167,141,122749,5,0,0:0:0:0:
297,55,122920,1,0,3:0:0:0:
88,110,123092,2,0,P|128:55|193:68,1,113.749994792938,10|0,0:0|0:0,0:0:0:0:
246,236,123435,5,0,3:0:0:0:
213,134,123607,1,0,0:0:0:0:
218,252,123778,5,10,0:0:0:0:
247,126,123949,1,0,0:0:0:0:
340,341,124121,5,0,0:0:0:0:
184,372,124292,1,0,3:0:0:0:
357,373,124464,5,10,0:0:0:0:
211,341,124635,1,0,0:0:0:0:
249,130,124806,5,0,3:0:0:0:
103,161,124977,1,0,3:0:0:0:
134,307,125149,1,10,0:0:0:0:
280,276,125320,1,0,0:0:0:0:
233,156,125492,5,0,3:0:0:0:
129,178,125663,1,0,3:0:0:0:
151,282,125834,1,10,0:0:0:0:
255,260,126005,1,0,0:0:0:0:
411,356,126177,6,0,L|432:235,2,113.749994792938,0|0|10,3:0|0:0|0:0,0:0:0:0:
512,145,126692,1,0,0:0:0:0:
374,125,126863,1,0,0:0:0:0:
462,16,127035,1,0,3:0:0:0:
512,145,127206,1,10,0:0:0:0:
374,125,127377,1,0,0:0:0:0:
248,212,127549,6,0,L|118:189,2,113.749994792938,0|0|10,3:0|0:0|0:0,0:0:0:0:
348,290,128063,1,0,0:0:0:0:
368,152,128234,1,0,0:0:0:0:
477,239,128406,1,0,3:0:0:0:
405,358,128577,6,0,B|323:359|356:288|251:311,1,153.125001460314,10|0,0:0|0:0,0:0:0:0:
87,241,128920,5,8,0:0:0:0:
180,129,129092,1,8,0:0:0:0:
225,373,129263,5,8,0:0:0:0:
225,373,129435,1,8,0:0:0:0:
10,163,129606,5,8,0:0:0:0:
10,163,129777,1,8,0:0:0:0:
263,92,129949,5,8,0:0:0:0:
238,278,130120,1,8,0:0:0:0:
75,23,130292,5,8,0:0:0:0:
77,39,130377,1,8,0:0:0:0:
80,55,130463,1,8,0:0:0:0:
82,71,130549,1,8,0:0:0:0:
85,87,130635,5,8,0:0:0:0:
124,117,130720,1,8,0:0:0:0:
172,124,130806,1,8,0:0:0:0:
218,107,130892,1,8,0:0:0:0:
250,70,130977,5,8,0:0:0:0:
283,34,131062,1,8,0:0:0:0:
329,19,131148,1,8,0:0:0:0:
377,29,131234,1,8,0:0:0:0:
413,62,131319,5,10,3:1:0:0:
371,224,131492,1,6,3:0:0:0:
178,202,131663,5,8,0:0:0:0:
308,354,131835,1,0,3:0:0:0:
501,303,132006,1,0,3:0:0:0:
165,312,132177,5,8,0:0:0:0:
334,233,132349,1,0,3:0:0:0:
475,376,132520,1,0,3:0:0:0:
80,289,132692,5,8,0:0:0:0:
284,250,132863,1,0,3:0:0:0:
488,211,133035,1,0,3:0:0:0:
256,192,133120,12,0,142463,0:0:0:0:
256,192,142549,12,0,153606,0:0:0:0:
432,320,160463,5,2,0:0:0:0:
32,48,165949,5,2,0:0:0:0:
32,240,168692,6,0,B|266:69|76:-70|-23:6|-33:140|110:171|110:171|289:132|348:153|348:153|391:216|449:201|491:135|469:33|373:0|236:46|292:224|292:224|356:260|352:307,1,1338.74995914459,2|0,0:0|0:0,0:0:0:0:
322,371,173149,6,0,P|296:251|384:370,1,393.749987983704,0|0,0:0|0:0,0:0:0:0:
352,301,174520,6,0,B|283:320|239:246|239:246|224:195|178:183|178:183|289:163|336:213,1,393.749987983704,0|0,0:0|0:0,0:0:0:0:
429,242,175892,6,0,B|456:201|426:130|402:154|365:102|414:44|414:44|495:65|463:152,1,341.249989585877,0|0,0:0|0:0,0:0:0:0:
501,330,177092,6,0,B|447:226|296:227|296:227|388:259|421:327,1,393.749987983704,0|0,0:0|0:0,0:0:0:0:
353,366,178463,6,0,B|276:279|173:289|173:289|186:233|156:186|126:180|126:180|69:222|102:271,1,419.999987182618,0|0,0:0|0:0,0:0:0:0:
116,330,179920,6,0,B|169:323|175:255|175:255|238:254|256:303|256:303|248:246|267:160|370:148|427:214|369:324|341:337|341:337|424:317|479:250|479:250|470:299|485:349,1,787.499975967408,2|0,0:0|0:0,0:0:0:0:
382,114,182663,6,0,B|348:81|257:82|223:122|249:170|173:202|72:182|42:88,1,393.749987983704,2|0,0:0|0:0,0:0:0:0:
98,32,184035,6,0,P|172:107|279:374,1,393.749987983704
353,309,185406,6,0,B|433:270|473:154|473:154|434:274|492:337,1,393.749987983704,2|0,0:0|0:0,0:0:0:0:
415,360,186777,6,0,P|416:260|317:382,1,393.749987983704
352,307,188149,6,0,P|299:243|185:242,1,183.749994392395,2|0,0:0|0:0,0:0:0:0:
67,328,188835,2,0,P|148:314|206:215,1,183.749994392395
193,70,189520,2,0,P|164:147|220:247,1,183.749994392395
307,308,190206,6,0,B|294:178|368:228|359:113,1,209.999993591309,2|0,0:0|0:0,0:0:0:0:
417,71,190977,6,0,B|470:-19|567:48|552:115|461:172|392:95|335:35|335:35|364:83|358:130,1,446.249986381531,4|0,0:0|0:0,0:0:0:0:
356,198,192520,6,0,B|223:225|321:335|196:360|196:360|134:319|153:269,1,341.249989585877
160,202,193720,6,0,B|183:165|226:148|287:159|312:233|312:233|261:332|331:384,1,367.49998878479,2|0,0:0|0:0,0:0:0:0:
416,364,195006,6,0,B|506:267|484:106|484:106|471:222|399:238,1,419.999987182618
363,165,196463,6,0,B|424:114|404:16|315:-2|258:58|289:140|289:140|272:211|212:219|145:204|116:160|124:99|149:72|149:72|186:59|186:59|211:81|211:81|179:237,1,813.749975166322,2|0,0:0|0:0,0:0:0:0:
233,285,199206,6,0,P|252:237|189:308,1,393.749987983704,2|0,0:0|0:0,0:0:0:0:
283,349,200577,6,0,B|211:405|114:376|115:268|207:219|267:271|292:302|292:302|385:366|463:301|471:225|402:136|342:153|342:153|369:189|369:218,1,734.999977569581
357,141,204349,6,0,L|286:131,1,70,4|0,3:0|0:0,0:0:0:0:
412,66,204692,2,0,P|440:101|444:136,2,70,0|0|0,0:0|0:0|3:0,0:0:0:0:
361,150,205206,5,0,0:0:0:0:
326,145,205377,1,0,0:0:0:0:
291,140,205548,1,0,0:0:0:0:
214,75,205720,6,0,P|183:64|145:70,2,70,0|0|0,3:0|0:0|0:0,0:0:0:0:
210,169,206235,2,0,P|179:158|141:164,1,70,0|0,0:0|3:0,0:0:0:0:
70,233,206577,5,0,0:0:0:0:
75,268,206748,1,0,0:0:0:0:
80,303,206919,1,0,0:0:0:0:
284,335,207092,6,0,P|289:290|270:255,1,70,2|0,3:2|0:0,0:0:0:0:
247,198,207435,1,0,0:0:0:0:
175,233,207606,2,0,L|186:317,1,70,0|0,0:0|3:0,0:0:0:0:
318,335,207949,5,0,0:0:0:0:
401,347,208120,1,0,0:0:0:0:
484,359,208292,1,0,0:0:0:0:
408,238,208463,5,0,3:0:0:0:
408,238,208635,2,0,P|444:216|485:219,1,70,0|0,0:0|0:0,0:0:0:0:
328,297,208977,2,0,P|306:261|309:220,1,70,0|0,0:0|3:0,0:0:0:0:
358,115,209320,5,0,0:0:0:0:
416,45,209492,1,0,2:0:0:0:
447,130,209663,1,0,2:0:0:0:
305,234,209835,6,0,L|230:223,2,70,2|0|0,3:2|0:0|0:0,0:0:0:0:
385,246,210349,1,0,0:0:0:0:
254,74,210520,2,0,L|243:147,1,70,0|0,3:0|0:0,0:0:0:0:
429,101,210863,5,0,0:0:0:0:
338,127,211035,1,0,0:0:0:0:
424,136,211206,5,0,3:0:0:0:
342,91,211377,2,0,L|352:18,1,70,0|0,0:0|0:0,0:0:0:0:
433,247,211720,6,0,P|405:215|363:207,2,70,0|0|0,0:0|3:0|0:0,0:0:0:0:
284,208,212235,2,0,P|252:220|230:247,1,70,0|0,0:0|0:0,0:0:0:0:
321,334,212577,5,0,3:0:0:0:
161,313,212749,1,0,0:0:0:0:
321,334,212920,1,0,0:0:0:0:
70,366,213092,2,0,L|58:286,1,70,0|0,0:0|3:0,0:0:0:0:
201,164,213435,5,0,0:0:0:0:
41,185,213607,1,0,0:0:0:0:
201,164,213778,1,0,0:0:0:0:
41,185,213949,1,0,3:0:0:0:
234,65,214120,6,0,L|306:54,2,70,0|0|0,0:0|0:0|0:0,0:0:0:0:
117,172,214635,1,0,3:0:0:0:
245,262,214806,2,0,L|317:251,2,70,0|0|0,0:0|0:0|0:0,0:0:0:0:
101,357,215320,5,2,3:2:0:0:
124,265,215492,1,0,0:0:0:0:
174,384,215663,5,0,0:0:0:0:
118,249,215835,2,0,L|128:175,1,70,0|0,0:0|3:0,0:0:0:0:
23,98,216177,5,0,0:0:0:0:
106,52,216349,1,0,0:0:0:0:
198,71,216520,1,0,0:0:0:0:
245,165,216692,5,0,3:0:0:0:
245,165,216863,2,0,L|235:242,1,70,0|0,0:0|0:0,0:0:0:0:
131,300,217206,2,0,P|120:262|135:218,1,70,0|0,0:0|3:0,0:0:0:0:
397,320,217549,5,0,0:0:0:0:
314,332,217720,1,0,0:0:0:0:
231,344,217892,1,0,0:0:0:0:
291,169,218063,6,0,L|301:248,1,70,2|0,3:2|0:0,0:0:0:0:
441,244,218406,5,0,0:0:0:0:
314,332,218577,1,0,0:0:0:0:
174,322,218749,2,0,L|104:312,1,70,0|0,3:0|0:0,0:0:0:0:
210,163,219092,1,0,0:0:0:0:
225,260,219263,1,0,0:0:0:0:
346,156,219435,5,2,3:2:0:0:
346,156,219606,2,0,L|335:84,1,70,0|0,0:0|0:0,0:0:0:0:
324,0,219949,1,0,0:0:0:0:
125,5,220120,5,0,3:0:0:0:
125,5,220291,2,0,L|135:76,1,70,0|0,0:0|0:0,0:0:0:0:
147,161,220634,1,0,0:0:0:0:
303,248,220806,6,0,L|391:260,2,70,2|0|0,3:2|0:0|0:0,0:0:0:0:
220,104,221320,2,0,P|258:134|267:164,1,70,0|0,0:0|3:2,0:0:0:0:
230,323,221663,5,0,0:0:0:0:
303,248,221835,1,0,0:0:0:0:
331,349,222006,1,0,0:0:0:0:
177,254,222177,5,0,3:0:0:0:
177,254,222349,2,0,L|89:266,2,70,0|0|0,0:0|0:0|0:0,0:0:0:0:
264,242,222863,1,0,3:0:0:0:
132,90,223035,5,0,0:0:0:0:
119,176,223206,1,0,0:0:0:0:
107,263,223377,1,0,0:0:0:0:
218,315,223549,5,2,3:2:0:0:
107,263,223720,1,0,0:0:0:0:
204,323,223892,1,0,0:0:0:0:
87,363,224063,1,0,0:0:0:0:
190,181,224235,5,0,3:0:0:0:
190,181,224406,2,0,L|175:105,2,70,0|0|0,0:0|0:0|0:0,0:0:0:0:
92,256,224920,5,2,3:2:0:0:
304,212,225092,1,0,0:0:0:0:
392,246,225263,1,0,0:0:0:0:
480,280,225435,1,0,0:0:0:0:
428,134,225605,5,0,3:0:0:0:
216,178,225777,1,0,0:0:0:0:
128,144,225948,1,0,0:0:0:0:
40,110,226120,1,0,0:0:0:0:
252,97,226292,5,2,3:2:0:0:
8,192,226463,1,2,0:0:0:0:
149,268,226635,1,0,0:0:0:0:
114,121,226806,2,0,L|98:42,1,70,0|0,0:0|3:0,0:0:0:0:
83,292,227149,5,0,0:0:0:0:
161,198,227320,1,0,0:0:0:0:
203,313,227492,1,0,0:0:0:0:
363,243,227663,5,0,3:0:0:0:
363,243,227835,2,0,P|378:198|362:162,1,70,0|0,0:0|0:0,0:0:0:0:
333,33,228177,2,0,P|318:78|334:114,1,70,0|0,0:0|3:0,0:0:0:0:
402,77,228520,5,0,0:0:0:0:
227,121,228692,1,0,0:0:0:0:
407,221,228863,1,0,0:0:0:0:
315,291,229035,5,2,3:2:0:0:
225,279,229206,1,0,0:0:0:0:
135,267,229377,1,0,0:0:0:0:
45,255,229549,1,0,0:0:0:0:
147,113,229720,5,0,3:0:0:0:
147,113,229892,2,0,L|157:191,2,70,0|0|0,0:0|0:0|0:0,0:0:0:0:
46,44,230406,5,2,3:2:0:0:
234,136,230577,1,2,0:0:0:0:
94,236,230749,1,0,0:0:0:0:
242,329,230920,2,0,L|251:255,1,70,0|0,0:0|3:0,0:0:0:0:
64,338,231263,5,0,0:0:0:0:
94,236,231435,1,0,0:0:0:0:
165,313,231606,1,0,0:0:0:0:
129,111,231777,5,2,3:2:0:0:
57,364,231949,1,2,0:0:0:0:
1,198,232120,5,0,0:0:0:0:
261,315,232292,2,0,L|337:304,1,70,0|0,0:0|3:0,0:0:0:0:
227,163,232635,5,0,0:0:0:0:
169,365,232807,1,0,0:0:0:0:
433,327,232977,2,0,L|442:257,1,70,0|0,0:0|3:0,0:0:0:0:
464,34,233320,5,0,0:0:0:0:
200,72,233492,1,0,0:0:0:0:
426,165,233663,2,0,L|502:175,1,70,0|0,0:0|3:2,0:0:0:0:
216,303,234006,5,0,0:0:0:0:
480,265,234178,1,0,0:0:0:0:
254,172,234349,1,0,0:0:0:0:
369,295,234520,5,2,3:2:0:0:
315,113,234692,1,0,0:0:0:0:
297,347,234863,5,0,0:0:0:0:
488,187,235035,2,0,L|475:113,1,70,0|0,0:0|3:0,0:0:0:0:
499,337,235377,5,0,0:0:0:0:
369,295,235548,1,0,0:0:0:0:
238,254,235720,1,0,0:0:0:0:
392,209,235892,5,2,3:2:0:0:
77,288,236063,1,2,0:0:0:0:
333,368,236235,1,0,0:0:0:0:
333,368,236406,2,0,P|352:325|347:288,1,70,0|0,0:0|3:0,0:0:0:0:
138,266,236749,5,0,0:0:0:0:
242,172,236920,1,0,0:0:0:0:
271,309,237092,1,0,0:0:0:0:
158,73,237263,5,2,3:2:0:0:
284,65,237435,1,2,0:0:0:0:
164,90,237606,5,0,0:0:0:0:
290,82,237778,1,0,0:0:0:0:
95,159,237949,2,0,L|8:146,1,70,0|0,0:0|0:0,0:0:0:0:
236,244,238292,5,0,0:0:0:0:
244,118,238464,1,0,0:0:0:0:
219,238,238635,5,0,0:0:0:0:
144,69,238806,2,0,L|131:-17,1,70,0|0,0:0|0:0,0:0:0:0:
69,203,239149,5,0,0:0:0:0:
65,226,239320,1,0,0:0:0:0:
61,249,239492,1,0,0:0:0:0:
58,272,239663,2,0,L|47:348,1,70,0|0,0:0|0:0,0:0:0:0:
235,293,240006,5,2,0:0:0:0:
210,208,240177,1,0,0:0:0:0:
187,214,240349,1,0,0:0:0:0:
169,228,240520,1,0,0:0:0:0:
157,248,240692,2,0,P|145:287|152:321,1,70,0|0,0:0|0:0,0:0:0:0:
316,330,241035,2,0,P|327:297|323:262,1,70,0|0,0:0|0:0,0:0:0:0:
323,156,241377,6,0,B|362:151|401:171|385:186|425:209|468:193,1,140,0|0,0:0|0:0,0:0:0:0:
446,115,241892,1,0,0:0:0:0:
299,83,242063,2,0,L|277:233,1,140,0|0,0:0|0:0,0:0:0:0:
269,305,242577,1,0,0:0:0:0:
404,266,242749,1,0,0:0:0:0:
256,192,242835,12,0,245492,0:0:0:0:
256,192,245577,12,0,248235,0:0:0:0:
83,208,249606,5,6,3:1:0:0:
271,148,249777,1,0,0:0:0:0:
80,78,249949,1,2,0:0:0:0:
163,256,250120,1,0,0:0:0:0:
409,108,250292,6,0,B|322:106|347:33|247:52,1,175,8|2,0:0|0:0,0:0:0:0:
401,28,250806,1,0,0:0:0:0:
295,228,250977,6,0,P|271:186|275:132,1,87.5,0|0,3:0|0:0,0:0:0:0:
425,239,251320,1,2,0:0:0:0:
313,322,251492,1,0,0:0:0:0:
495,384,251663,2,0,L|507:286,1,87.5,8|0,0:0|0:0,0:0:0:0:
301,235,252006,2,0,L|312:321,1,87.5,2|0,0:0|0:0,0:0:0:0:
498,197,252349,6,0,P|471:150|356:147,1,175,2|2,3:1|0:0,0:0:0:0:
301,235,252863,1,0,0:0:0:0:
220,126,253035,2,0,L|231:33,1,87.5,8|0,0:0|0:0,0:0:0:0:
416,212,253377,2,0,L|427:298,1,87.5,2|0,0:0|0:0,0:0:0:0:
183,374,253720,6,0,P|151:317|166:207,1,175,2|2,3:1|0:0,0:0:0:0:
218,142,254235,1,0,0:0:0:0:
325,322,254406,2,0,P|290:284|240:283,1,87.5,8|0,0:0|0:0,0:0:0:0:
91,248,254749,2,0,P|120:217|163:211,1,87.5,2|0,0:0|0:0,0:0:0:0:
317,147,255092,5,2,3:1:0:0:
174,107,255263,1,0,0:0:0:0:
394,66,255435,1,2,0:0:0:0:
172,10,255606,1,0,0:0:0:0:
317,235,255777,6,0,B|413:241|376:169|478:175,1,175,8|2,0:0|0:0,0:0:0:0:
465,266,256292,1,0,0:0:0:0:
271,161,256463,6,0,P|237:196|235:253,1,87.5,0|0,3:1|0:0,0:0:0:0:
473,174,256806,2,0,P|459:127|411:96,1,87.5,2|0,0:0|0:0,0:0:0:0:
361,329,257149,2,0,B|289:318|289:318|250:333|250:333|187:324,1,175,8|2,0:0|0:0,0:0:0:0:
104,309,257663,1,0,0:0:0:0:
213,149,257835,6,0,P|241:187|241:242,1,87.5,2|0,3:1|0:0,0:0:0:0:
103,190,258177,1,2,0:0:0:0:
285,92,258349,1,0,0:0:0:0:
129,18,258520,2,0,L|115:111,1,87.5,8|0,0:0|0:0,0:0:0:0:
103,190,258863,1,2,0:0:0:0:
90,276,259035,1,0,0:0:0:0:
275,355,259206,6,0,P|307:299|284:191,1,175,2|2,3:1|0:0,0:0:0:0:
237,123,259720,1,0,0:0:0:0:
369,45,259892,2,0,L|462:58,1,87.5,8|0,0:0|0:0,0:0:0:0:
373,206,260235,2,0,L|286:193,1,87.5,2|0,0:0|0:0,0:0:0:0:
103,205,260577,5,6,3:1:0:0:
218,285,260749,1,0,0:0:0:0:
63,309,260920,1,2,0:0:0:0:
194,144,261092,1,0,0:0:0:0:
59,41,261263,6,0,B|46:147|116:91|100:237,1,175,8|2,0:0|0:0,0:0:0:0:
15,194,261777,1,0,0:0:0:0:
211,60,261949,6,0,P|254:78|272:115,1,87.5,0|0,3:0|0:0,0:0:0:0:
217,269,262292,2,0,P|254:248|269:208,1,87.5,2|0,0:0|0:0,0:0:0:0:
103,305,262635,2,0,L|276:329,1,175,8|2,0:0|0:0,0:0:0:0:
363,343,263149,1,0,0:0:0:0:
476,234,263320,6,0,P|417:243|395:273,1,87.5,2|0,3:1|0:0,0:0:0:0:
436,368,263663,2,0,P|479:368|512:341,1,87.5,2|0,0:0|0:0,0:0:0:0:
327,223,264006,6,0,P|362:173|483:151,1,175,8|2,0:0|0:0,0:0:0:0:
446,57,264520,1,0,0:0:0:0:
457,302,264692,6,0,P|446:225|399:280,1,175,2|2,3:1|0:0,0:0:0:0:
409,363,265206,1,0,0:0:0:0:
292,258,265377,2,0,L|198:271,1,87.5,8|0,0:0|0:0,0:0:0:0:
324,85,265720,2,0,L|336:171,1,87.5,2|0,0:0|0:0,0:0:0:0:
110,22,266063,5,2,3:1:0:0:
221,64,266235,1,0,0:0:0:0:
83,135,266406,1,2,0:0:0:0:
194,177,266577,1,0,0:0:0:0:
33,336,266749,6,0,P|71:289|186:305,1,175,8|2,0:0|0:0,0:0:0:0:
242,354,267263,1,0,0:0:0:0:
337,217,267435,6,0,P|377:243|392:288,1,87.5,0|0,3:0|0:0,0:0:0:0:
292,119,267777,2,0,P|252:145|237:190,1,87.5,2|0,0:0|0:0,0:0:0:0:
511,87,268120,2,0,P|474:148|378:146,1,175,8|2,0:0|0:0,0:0:0:0:
359,58,268635,1,0,0:0:0:0:
457,238,268806,6,0,L|443:332,1,87.5,2|0,3:1|0:0,0:0:0:0:
241,198,269149,2,0,L|228:111,1,87.5,2|0,0:0|0:0,0:0:0:0:
174,328,269492,6,0,P|232:351|271:333,1,87.5,8|0,0:0|0:0,0:0:0:0:
375,259,269835,2,0,P|332:253|295:275,1,87.5,2|0,0:0|0:0,0:0:0:0:
31,216,270177,6,0,B|82:198|123:212|109:243|160:251|199:230,1,175,2|2,1:0|0:0,0:0:0:0:
162,155,270692,1,0,0:0:0:0:
34,366,270863,2,0,P|64:323|63:282,1,87.5,8|0,0:0|0:0,0:0:0:0:
7,104,271206,2,0,P|42:128|57:169,1,87.5,2|0,0:0|0:0,0:0:0:0:
173,259,271549,5,6,3:1:0:0:
287,303,271720,1,0,0:0:0:0:
191,172,271892,1,2,0:0:0:0:
251,372,272063,1,0,0:0:0:0:
462,237,272235,6,0,P|422:173|327:173,1,175,8|2,0:0|0:0,0:0:0:0:
259,223,272749,1,0,0:0:0:0:
426,301,272920,6,0,L|535:285,1,87.5,0|0,3:0|0:0,0:0:0:0:
375,239,273263,1,2,0:0:0:0:
444,384,273435,1,0,0:0:0:0:
475,164,273606,2,0,L|461:70,1,87.5,8|0,0:0|0:0,0:0:0:0:
289,201,273949,2,0,L|301:287,1,87.5,2|0,0:0|0:0,0:0:0:0:
346,82,274292,5,2,3:1:0:0:
215,49,274463,1,0,0:0:0:0:
345,47,274635,5,2,0:0:0:0:
215,83,274806,1,0,0:0:0:0:
385,304,274977,6,0,P|415:272|396:149,1,175,8|2,0:0|0:0,0:0:0:0:
337,88,275492,1,0,0:0:0:0:
420,39,275663,5,0,3:0:0:0:
335,222,275835,1,0,0:0:0:0:
434,48,276006,5,2,0:0:0:0:
349,231,276178,1,0,0:0:0:0:
243,125,276349,6,0,B|145:137|185:57|44:89,1,175,8|2,0:0|0:0,0:0:0:0:
5,130,276863,1,0,0:0:0:0:
229,41,277035,5,2,3:1:0:0:
269,224,277206,1,0,0:0:0:0:
247,55,277377,5,2,0:0:0:0:
287,238,277548,1,0,0:0:0:0:
132,353,277720,6,0,B|197:343|197:343|232:357|232:357|309:346,1,175,8|2,0:0|0:0,0:0:0:0:
391,334,278235,1,0,0:0:0:0:
225,171,278406,6,0,P|195:211|194:252,1,87.5,0|0,3:0|0:0,0:0:0:0:
392,134,278749,2,0,P|372:88|337:66,1,87.5,2|0,0:0|0:0,0:0:0:0:
270,241,279092,2,0,B|316:218|359:231|349:250|397:268|445:235,1,175,8|2,0:0|0:0,0:0:0:0:
315,311,279606,1,0,0:0:0:0:
392,134,279777,5,2,3:1:0:0:
183,245,279949,1,0,0:0:0:0:
362,211,280120,5,2,0:0:0:0:
203,162,280292,1,0,0:0:0:0:
293,18,280463,6,0,L|307:111,1,87.5,8|0,0:0|0:0,0:0:0:0:
93,250,280806,2,0,L|79:163,1,87.5,2|0,0:0|0:0,0:0:0:0:
282,294,281149,5,0,3:0:0:0:
328,162,281320,1,0,0:0:0:0:
286,319,281492,5,2,0:0:0:0:
237,160,281664,1,0,0:0:0:0:
93,250,281835,6,0,L|186:264,1,87.5,8|0,0:0|0:0,0:0:0:0:
325,50,282178,2,0,L|238:36,1,87.5,2|0,0:0|0:0,0:0:0:0:
305,270,282520,5,6,3:1:0:0:
332,150,282692,1,0,0:0:0:0:
452,177,282863,1,2,0:0:0:0:
425,297,283035,1,0,0:0:0:0:
245,363,283206,6,0,P|197:308|215:197,1,175,8|2,0:0|0:0,0:0:0:0:
254,138,283720,1,0,0:0:0:0:
442,79,283892,5,0,3:0:0:0:
442,79,284063,2,0,P|402:112|390:155,1,87.5,0|2,0:0|0:0,0:0:0:0:
387,232,284406,1,0,0:0:0:0:
451,315,284577,5,8,0:0:0:0:
280,272,284749,1,0,0:0:0:0:
473,157,284920,2,0,L|485:243,1,87.5,2|0,0:0|0:0,0:0:0:0:
169,141,285263,5,2,3:1:0:0:
196,21,285435,1,0,0:0:0:0:
316,48,285606,1,2,0:0:0:0:
289,168,285778,1,0,0:0:0:0:
48,194,285949,6,0,L|35:106,1,87.5,8|0,0:0|0:0,0:0:0:0:
221,330,286292,2,0,L|233:242,1,87.5,2|0,0:0|0:0,0:0:0:0:
4,343,286635,6,0,P|40:289|149:301,1,175,2|2,3:1|0:0,0:0:0:0:
221,330,287149,1,0,0:0:0:0:
318,185,287320,6,0,P|282:150|239:151,1,87.5,8|0,0:0|0:0,0:0:0:0:
336,329,287663,2,0,P|378:324|407:292,1,87.5,2|0,0:0|0:0,0:0:0:0:
434,168,288006,6,0,L|463:363,1,175,2|2,3:1|0:0,0:0:0:0:
344,252,288520,1,0,0:0:0:0:
238,351,288692,2,0,L|226:262,1,87.5,8|0,0:0|0:0,0:0:0:0:
319,81,289035,2,0,L|330:167,1,87.5,2|0,0:0|0:0,0:0:0:0:
133,240,289377,6,0,P|96:178|135:66,1,175,0|2,3:0|0:0,0:0:0:0:
186,25,289892,1,0,0:0:0:0:
252,248,290063,2,0,P|254:205|228:170,1,87.5,8|0,0:0|0:0,0:0:0:0:
77,305,290406,2,0,P|122:333|163:324,1,87.5,2|0,0:0|0:0,0:0:0:0:
256,192,290749,12,0,293320,0:0:0:0:
432,135,293492,6,0,P|379:150|327:155,1,105,2|0,0:0|0:0,0:0:0:0:
348,243,293835,2,0,P|398:228|450:223,1,105
262,87,294177,6,0,P|235:130|245:196,1,118.124996395111
277,272,294520,2,0,L|260:386,1,105
99,346,294863,6,0,P|80:287|132:244,1,131.25
180,179,295206,2,0,P|199:130|190:72,1,105
52,122,295549,6,0,P|67:96|56:131,1,131.25
94,249,295892,2,0,P|79:275|89:236,1,144.375004405975
201,142,296235,6,0,P|254:157|306:162,1,105,2|0,0:0|0:0,0:0:0:0:
285,250,296578,2,0,P|234:235|182:230,1,105
391,75,296920,6,0,P|418:118|405:195,1,131.25
365,261,297263,2,0,L|381:383,1,118.124996395111
194,310,297606,6,0,P|206:279|291:251,1,122.5,2|0,0:0|0:0,0:0:0:0:
407,182,298977,6,0,P|412:122|419:59,1,105,2|0,0:0|0:0,0:0:0:0:
327,66,299320,2,0,P|322:126|315:189,1,105
490,327,299663,6,0,P|462:278|392:268,1,118.124996395111
328,320,300006,2,0,P|280:334|213:338,1,105
132,243,300349,6,0,P|174:201|241:219,1,131.25
134,341,300692,2,0,P|95:373|39:369,1,105
15,252,301035,6,0,P|42:235|15:263,1,131.25
90,139,301377,2,0,P|63:156|91:127,1,144.375004405975
176,167,301720,6,0,P|171:227|164:290,1,105,2|0,0:0|0:0,0:0:0:0:
256,283,302063,2,0,P|261:223|268:160,1,105
93,22,302406,6,0,P|121:71|191:80,1,131.25
255,29,302749,2,0,P|303:15|372:12,1,118.124996395111
491,146,303092,6,0,P|469:116|390:115,1,122.5,2|0,0:0|0:0,0:0:0:0:
324,190,304463,6,0,P|331:229|341:303,1,105,2|0,0:0|0:0,0:0:0:0:
440,244,304806,2,0,P|433:283|423:357,1,105
280,358,305149,6,0,P|245:323|165:328,1,118.124996395111
83,367,305492,2,0,P|93:318|100:254,1,105
33,160,305835,6,0,P|84:127|145:152,1,131.25
223,195,306177,2,0,P|263:207|338:187,1,105
426,123,306520,6,0,P|434:79|411:120,1,131.25
449,215,306863,2,0,P|460:260|433:215,1,144.375004405975
294,173,307206,6,0,P|301:134|311:60,1,105,2|0,0:0|0:0,0:0:0:0:
410,119,307549,2,0,P|403:80|393:6,1,105
253,15,307892,6,0,P|218:50|138:45,1,131.25
52,13,308235,2,0,P|62:62|69:129,1,118.124996395111
130,280,308577,6,0,P|151:243|136:164,1,122.5,2|0,0:0|0:0,0:0:0:0:
214,97,309949,6,0,P|268:94|323:88,1,105,2|0,0:0|0:0,0:0:0:0:
372,177,310292,2,0,P|318:180|263:186,1,105
414,15,310635,6,0,P|450:52|447:125,1,118.124996395111
492,205,310977,2,0,P|483:262|476:327,1,105
292,366,311320,6,0,P|319:323|398:327,1,131.25
330,220,311663,2,0,P|276:252|217:268,1,105
108,229,312006,6,0,P|140:194|118:235,1,131.25
110,327,312349,2,0,P|78:362|101:317,1,144.375004405975
213,297,312692,6,0,P|267:300|322:306,1,105,2|0,0:0|0:0,0:0:0:0:
371,217,313035,2,0,P|317:214|262:208,1,105
413,379,313377,6,0,P|449:342|443:265,1,131.25
491,189,313720,2,0,P|482:132|474:66,1,118.124996395111
295,112,314063,6,0,P|307:84|392:68,1,122.5,2|0,0:0|0:0,0:0:0:0:
365,243,315435,5,10,3:2:0:0:
360,355,315606,1,0,0:0:0:0:
416,249,315777,5,4,3:0:0:0:
308,348,315948,1,0,0:0:0:0:
464,303,316120,5,8,3:2:0:0:
260,294,316291,1,0,0:0:0:0:
435,378,316463,5,4,3:0:0:0:
286,208,316634,1,0,0:0:0:0:
440,113,316806,5,8,3:0:0:0:
196,165,316977,1,0,3:0:0:0:
397,247,317149,5,4,3:0:0:0:
209,171,317320,1,0,3:0:0:0:
327,52,317492,5,8,3:0:0:0:
269,311,317663,1,0,3:0:0:0:
224,25,317835,5,6,3:0:0:0:
384,332,318006,1,2,3:0:0:0:
314,165,318177,5,10,3:0:0:0:
178,226,318349,1,0,3:0:0:0:
329,227,318520,5,4,3:0:0:0:
162,163,318692,1,0,3:0:0:0:
343,151,318863,5,8,3:0:0:0:
148,239,319035,1,0,3:0:0:0:
366,241,319206,5,4,3:0:0:0:
125,149,319378,1,0,3:0:0:0:
318,174,319549,5,8,3:0:0:0:
301,289,319720,1,0,3:0:0:0:
416,306,319892,1,4,3:0:0:0:
433,191,320063,1,0,3:0:0:0:
296,144,320235,5,8,3:0:0:0:
437,335,320406,1,2,3:0:0:0:
462,169,320578,5,6,3:0:0:0:
271,310,320749,1,0,3:0:0:0:
345,39,320920,5,0,3:0:0:0:
204,77,321092,1,0,3:0:0:0:
340,157,321263,5,0,3:0:0:0:
188,70,321435,1,0,3:0:0:0:
232,268,321606,5,0,3:0:0:0:
176,65,321778,1,0,3:0:0:0:
38,280,321949,5,0,3:0:0:0:
162,60,322121,1,0,3:0:0:0:
162,360,322292,5,0,3:0:0:0:
77,63,322463,1,0,3:0:0:0:
46,339,322635,5,0,3:0:0:0:
174,158,322806,1,0,3:0:0:0:
366,362,322977,5,0,3:0:0:0:
38,218,323149,1,0,3:0:0:0:
414,198,323320,5,0,3:0:0:0:
46,339,323492,1,0,3:0:0:0:
469,104,323663,5,2,3:2:0:0:
413,78,323748,1,0,3:0:0:0:
353,91,323834,1,0,3:0:0:0:
313,137,323920,1,0,3:0:0:0:
309,198,324006,1,0,3:0:0:0:
306,260,324091,1,0,3:0:0:0:
269,308,324177,1,0,3:0:0:0:
216,341,324263,1,0,3:0:0:0:
157,361,324349,5,0,3:0:0:0:
98,338,324435,1,0,3:0:0:0:
64,285,324520,1,0,3:0:0:0:
68,223,324606,1,0,3:0:0:0:
107,175,324692,1,0,3:0:0:0:
168,159,324777,1,0,3:0:0:0:
226,181,324863,1,0,3:0:0:0:
259,234,324949,1,0,3:0:0:0:
284,292,325035,5,0,3:0:0:0:
338,329,325120,1,0,3:0:0:0:
405,329,325206,1,0,3:0:0:0:
459,290,325292,1,0,3:0:0:0:
482,228,325377,1,0,3:0:0:0:
464,164,325463,1,0,3:0:0:0:
413,121,325549,1,0,3:0:0:0:
347,115,325634,1,0,3:0:0:0:
294,156,325720,5,0,3:0:0:0:
225,172,325806,1,0,3:0:0:0:
170,128,325892,1,0,3:0:0:0:
170,57,325977,1,0,3:0:0:0:
225,13,326063,1,0,3:0:0:0:
294,29,326149,1,0,3:0:0:0:
325,93,326235,2,0,L|315:146,1,41.5624988901615,0|0,3:0|0:0,0:0:0:0:
288,267,326406,6,0,P|216:284|168:252,1,131.25000500679,4|0,3:1|0:0,0:0:0:0:
211,102,326749,2,0,P|224:149|187:118,1,131.25000500679,10|0,0:0|0:0,0:0:0:0:
114,55,327006,1,0,0:0:0:0:
115,37,327092,2,0,P|139:16|172:10,1,65.6250025033952,2|0,0:0|0:0,0:0:0:0:
305,74,327263,2,0,P|314:42|309:11,1,65.6250025033952,2|0,3:0|0:0,0:0:0:0:
96,135,327435,2,0,L|109:206,1,65.6250025033952,8|0,0:0|0:0,0:0:0:0:
256,330,327606,6,0,B|183:352|205:292|119:320,1,131.25000500679,2|0,0:0|3:0,0:0:0:0:
380,300,327949,1,2,0:0:0:0:
377,283,328035,1,0,0:0:0:0:
374,266,328120,2,0,L|354:131,1,131.25000500679,10|0,0:0|0:0,0:0:0:0:
223,170,328463,2,0,L|233:237,1,65.6250025033952,2|0,0:0|0:0,0:0:0:0:
443,170,328635,2,0,L|433:106,1,65.6250025033952,2|0,3:0|0:0,0:0:0:0:
292,12,328806,2,0,P|228:13|189:63,1,131.25000500679,8|0,0:0|0:0,0:0:0:0:
87,283,329149,5,0,3:0:0:0:
107,87,329320,1,0,0:0:0:0:
293,154,329492,2,0,L|285:293,1,131.25000500679,10|0,0:0|0:0,0:0:0:0:
343,357,329749,1,0,0:0:0:0:
337,371,329835,2,0,P|309:382|275:373,1,65.6250025033952,2|0,0:0|0:0,0:0:0:0:
390,246,330006,2,0,P|419:260|435:288,1,65.6250025033952,2|0,3:0|0:0,0:0:0:0:
193,354,330177,2,0,L|117:329,1,65.6250025033952,8|0,0:0|0:0,0:0:0:0:
152,159,330349,6,0,P|212:122|280:144,1,131.25000500679,2|0,0:0|3:0,0:0:0:0:
61,274,330692,1,2,0:0:0:0:
57,252,330777,1,0,0:0:0:0:
50,229,330863,2,0,B|44:180|44:180|21:157|21:157|14:96,1,131.25000500679,10|0,0:0|0:0,0:0:0:0:
104,9,331206,2,0,L|168:21,1,65.6250025033952,2|0,0:0|0:0,0:0:0:0:
211,215,331377,2,0,L|147:224,1,65.6250025033952,2|0,3:0|0:0,0:0:0:0:
272,48,331549,2,0,P|309:121|284:186,1,131.25000500679,8|0,0:0|0:0,0:0:0:0:
223,373,331892,5,0,3:0:0:0:
395,291,332063,1,0,0:0:0:0:
175,247,332235,2,0,B|176:318|126:296|135:399,1,131.25000500679,10|0,0:0|0:0,0:0:0:0:
164,145,332492,1,0,0:0:0:0:
147,137,332577,2,0,P|117:148|95:173,1,65.6250025033952,2|0,0:0|0:0,0:0:0:0:
269,258,332749,2,0,P|274:226|263:196,1,65.6250025033952,2|0,3:0|0:0,0:0:0:0:
240,30,332920,2,0,L|176:40,1,65.6250025033952,8|0,0:0|0:0,0:0:0:0:
442,79,333092,6,0,B|371:65|392:127|277:101,1,131.25000500679,2|0,0:0|3:0,0:0:0:0:
369,270,333435,1,2,0:0:0:0:
386,282,333520,1,0,0:0:0:0:
404,284,333606,2,0,P|466:239|461:178,1,131.25000500679,10|0,0:0|0:0,0:0:0:0:
326,172,333949,2,0,L|316:98,1,65.6250025033952,2|0,0:0|0:0,0:0:0:0:
497,15,334120,2,0,L|488:79,1,65.6250025033952,2|0,3:0|0:0,0:0:0:0:
345,31,334292,2,0,L|185:9,1,131.25000500679,8|0,0:0|0:0,0:0:0:0:
232,250,334635,6,0,P|265:191|248:124,1,131.25000500679,0|0,3:0|0:0,0:0:0:0:
74,93,334977,2,0,P|42:149|54:212,1,131.25000500679,10|0,0:0|0:0,0:0:0:0:
113,308,335235,1,0,0:0:0:0:
106,321,335320,2,0,P|76:334|43:333,1,65.6250025033952,2|0,0:0|0:0,0:0:0:0:
125,158,335492,2,0,P|151:177|167:205,1,65.6250025033952,2|0,3:0|0:0,0:0:0:0:
257,359,335663,2,0,L|268:284,1,65.6250025033952,8|0,0:0|0:0,0:0:0:0:
406,137,335835,6,0,L|383:294,1,131.25000500679,2|0,0:0|3:0,0:0:0:0:
260,101,336177,1,2,0:0:0:0:
266,77,336263,1,0,0:0:0:0:
286,68,336349,2,0,B|355:81|332:14|428:38,1,131.25000500679,10|0,0:0|0:0,0:0:0:0:
205,181,336692,2,0,P|180:154|169:115,1,65.6250025033952,2|0,0:0|0:0,0:0:0:0:
84,21,336863,2,0,P|59:48|48:87,1,65.6250025033952,2|0,3:0|0:0,0:0:0:0:
118,288,337035,2,0,P|65:231|45:161,1,131.25000500679,8|0,0:0|0:0,0:0:0:0:
267,284,337377,5,4,3:1:0:0:
91,369,337549,1,0,0:0:0:0:
313,368,337720,2,0,L|334:212,1,131.25000500679,10|0,0:0|0:0,0:0:0:0:
240,108,337977,1,0,0:0:0:0:
242,125,338063,2,0,L|251:195,1,65.6250025033952,2|0,0:0|0:0,0:0:0:0:
379,91,338235,2,0,L|388:21,1,65.6250025033952,2|0,3:0|0:0,0:0:0:0:
330,237,338406,2,0,P|357:257|396:258,1,65.6250025033952,8|0,0:0|0:0,0:0:0:0:
507,142,338577,6,0,B|438:135|453:192|377:181,1,131.25000500679,2|0,0:0|3:0,0:0:0:0:
219,15,338920,1,2,0:0:0:0:
239,9,339006,1,0,0:0:0:0:
262,9,339092,2,0,P|301:64|302:128,1,131.25000500679,10|0,0:0|0:0,0:0:0:0:
248,246,339435,2,0,L|168:234,1,65.6250025033952,2|0,0:0|0:0,0:0:0:0:
347,320,339606,2,0,L|412:328,1,65.6250025033952,2|0,3:0|0:0,0:0:0:0:
176,373,339777,2,0,L|39:353,1,131.25000500679,8|0,0:0|0:0,0:0:0:0:
107,125,340120,5,0,3:0:0:0:
219,304,340292,1,0,0:0:0:0:
309,79,340463,2,0,P|343:134|334:198,1,131.25000500679,10|0,0:0|0:0,0:0:0:0:
389,272,340720,1,0,0:0:0:0:
402,268,340806,2,0,P|424:237|430:198,1,65.6250025033952,2|0,0:0|0:0,0:0:0:0:
491,133,340977,2,0,P|495:95|481:58,1,65.6250025033952,2|0,3:0|0:0,0:0:0:0:
325,2,341149,2,0,L|260:13,1,65.6250025033952,8|0,0:0|0:0,0:0:0:0:
69,102,341320,6,0,B|94:72|138:66|138:66|147:100|175:115,1,131.25000500679,2|0,0:0|3:0,0:0:0:0:
251,249,341663,1,2,0:0:0:0:
249,227,341749,1,0,0:0:0:0:
231,208,341835,2,0,L|95:222,1,131.25000500679,10|0,0:0|0:0,0:0:0:0:
9,295,342177,2,0,P|11:327|26:356,1,65.6250025033952,2|0,0:0|0:0,0:0:0:0:
179,370,342349,2,0,P|205:352|224:325,1,65.6250025033952,2|0,3:0|0:0,0:0:0:0:
100,221,342520,2,0,B|79:144|128:162|114:95,1,131.25000500679,8|0,0:0|0:0,0:0:0:0:
357,90,342863,5,0,3:0:0:0:
170,192,343035,1,0,0:0:0:0:
347,304,343206,2,0,B|353:251|353:251|369:223|369:223|377:166,1,131.25000500679,10|0,0:0|0:0,0:0:0:0:
254,112,343463,1,0,0:0:0:0:
257,131,343549,2,0,L|266:197,1,65.6250025033952,2|0,0:0|0:0,0:0:0:0:
463,122,343720,2,0,L|472:57,1,65.6250025033952,2|0,3:0|0:0,0:0:0:0:
447,237,343892,2,0,L|437:302,1,65.6250025033952,8|0,0:0|0:0,0:0:0:0:
370,75,344063,6,0,P|313:43|250:54,1,131.25000500679,2|0,0:0|3:0,0:0:0:0:
128,172,344406,1,2,0:0:0:0:
111,139,344492,1,0,0:0:0:0:
125,109,344577,2,0,B|189:108|163:163|255:149,1,131.25000500679,10|0,0:0|0:0,0:0:0:0:
373,165,344920,2,0,L|365:232,1,65.6250025033952,2|0,0:0|0:0,0:0:0:0:
135,265,345092,2,0,L|126:198,1,65.6250025033952,2|0,3:0|0:0,0:0:0:0:
231,57,345263,2,0,P|294:50|338:97,1,131.25000500679,8|0,0:0|0:0,0:0:0:0:
371,377,345606,5,0,3:0:0:0:
194,314,345777,1,0,0:0:0:0:
377,164,345949,2,0,L|396:303,1,131.25000500679,10|0,0:0|0:0,0:0:0:0:
292,181,346206,1,0,0:0:0:0:
280,172,346292,2,0,P|267:139|274:108,1,65.6250025033952,2|0,0:0|0:0,0:0:0:0:
476,203,346463,2,0,P|489:236|482:267,1,65.6250025033952,2|0,3:0|0:0,0:0:0:0:
367,90,346635,2,0,P|390:62|420:52,1,65.6250025033952,8|0,0:0|0:0,0:0:0:0:
361,282,346806,6,0,B|289:293|312:231|219:256,1,131.25000500679,2|0,0:0|3:0,0:0:0:0:
448,372,347149,1,2,0:0:0:0:
464,360,347235,1,0,0:0:0:0:
472,348,347320,2,0,L|492:210,1,131.25000500679,10|0,0:0|0:0,0:0:0:0:
396,101,347663,2,0,P|373:123|363:168,1,65.6250025033952,2|0,0:0|0:0,0:0:0:0:
503,69,347835,2,0,P|492:38|468:17,1,65.6250025033952,2|0,3:0|0:0,0:0:0:0:
262,16,348006,2,0,P|219:77|211:143,1,131.25000500679,8|0,0:0|0:0,0:0:0:0:
318,336,348349,5,4,3:1:0:0:
478,200,348520,1,0,0:0:0:0:
252,200,348692,2,0,B|312:200|301:262|384:240,1,131.25000500679,10|0,0:0|0:0,0:0:0:0:
390,82,348949,1,0,0:0:0:0:
391,97,349035,2,0,L|400:167,1,65.6250025033952,2|0,0:0|0:0,0:0:0:0:
184,103,349206,2,0,L|193:39,1,65.6250025033952,2|0,3:0|0:0,0:0:0:0:
369,99,349377,2,0,L|378:169,1,65.6250025033952,8|0,0:0|0:0,0:0:0:0:
195,248,349549,6,0,P|241:295|314:285,1,131.25000500679,2|0,0:0|3:0,0:0:0:0:
460,249,349892,1,2,0:0:0:0:
449,230,349977,1,0,0:0:0:0:
438,217,350063,2,0,L|300:197,1,131.25000500679,10|0,0:0|0:0,0:0:0:0:
237,301,350406,2,0,L|304:291,1,65.6250025033952,2|0,0:0|0:0,0:0:0:0:
387,99,350577,2,0,L|322:109,1,65.6250025033952,2|0,3:0|0:0,0:0:0:0:
192,41,350749,2,0,B|265:46|227:1|341:16,1,131.25000500679,8|0,0:0|0:0,0:0:0:0:
453,201,351092,5,0,3:0:0:0:
289,264,351263,1,0,0:0:0:0:
494,278,351435,2,0,L|514:133,1,131.25000500679,10|0,0:0|0:0,0:0:0:0:
380,119,351692,1,0,0:0:0:0:
380,104,351777,2,0,P|400:85|440:83,1,65.6250025033952,2|0,0:0|0:0,0:0:0:0:
412,317,351949,2,0,P|385:321|352:299,1,65.6250025033952,2|0,3:0|0:0,0:0:0:0:
214,192,352120,2,0,L|225:127,1,65.6250025033952,8|0,0:0|0:0,0:0:0:0:
436,82,352292,6,0,L|417:211,1,131.25000500679,2|0,0:0|3:0,0:0:0:0:
247,336,352635,1,2,0:0:0:0:
257,309,352720,1,0,0:0:0:0:
274,293,352806,2,0,B|350:270|320:344|426:312,1,131.25000500679,10|0,0:0|0:0,0:0:0:0:
475,189,353149,2,0,P|443:192|416:212,1,65.6250025033952,2|0,0:0|0:0,0:0:0:0:
450,384,353320,2,0,P|473:361|482:330,1,65.6250025033952,2|0,3:0|0:0,0:0:0:0:
358,98,353492,2,0,P|324:166|340:225,1,131.25000500679,8|0,0:0|0:0,0:0:0:0:
509,15,353835,5,0,3:0:0:0:
294,41,354006,1,0,0:0:0:0:
472,194,354177,2,0,B|488:120|416:145|450:47,1,131.25000500679,10|0,0:0|0:0,0:0:0:0:
422,267,354435,1,0,0:0:0:0:
431,279,354520,2,0,P|454:288|494:280,1,65.6250025033952,2|0,0:0|0:0,0:0:0:0:
297,222,354692,2,0,P|321:199|352:192,1,65.6250025033952,2|0,3:0|0:0,0:0:0:0:
442,71,354863,2,0,P|464:94|471:125,1,65.6250025033952,8|0,0:0|0:0,0:0:0:0:
374,338,355035,6,0,P|434:291|450:210,1,131.25000500679,2|0,0:0|3:0,0:0:0:0:
363,111,355377,1,2,0:0:0:0:
345,114,355463,1,0,0:0:0:0:
330,115,355549,2,0,L|200:134,1,131.25000500679,10|0,0:0|0:0,0:0:0:0:
113,36,355892,2,0,L|177:45,1,65.6250025033952,2|0,0:0|0:0,0:0:0:0:
98,233,356063,2,0,L|33:223,1,65.6250025033952,2|0,3:0|0:0,0:0:0:0:
185,364,356235,2,0,P|227:307|220:232,1,131.25000500679,8|0,0:0|0:0,0:0:0:0:
365,27,356577,5,0,3:0:0:0:
306,149,356749,1,0,0:0:0:0:
347,312,356920,2,0,B|278:324|303:254|197:282,1,131.25000500679,10|0,0:0|0:0,0:0:0:0:
106,346,357177,1,0,0:0:0:0:
127,358,357263,2,0,P|160:359|191:347,1,65.6250025033952,2|0,0:0|0:0,0:0:0:0:
114,148,357435,5,2,3:0:0:0:
190,347,357606,1,8,0:0:0:0:
106,132,357777,1,2,3:0:0:0:
323,221,357949,5,8,0:0:0:0:
21,164,358120,1,2,3:0:0:0:
392,131,358292,5,10,0:0:0:0:
8,193,358463,1,0,3:0:0:0:
407,228,358635,5,10,0:0:0:0:
145,108,358806,2,0,L|154:40,1,65.6250025033952,2|0,3:0|3:0,0:0:0:0:
112,311,358977,1,8,0:0:0:0:
407,228,359149,1,0,3:0:0:0:
54,219,359320,5,12,0:0:0:0:
229,279,359492,1,0,3:0:0:0:
404,339,359663,1,2,3:0:0:0:
404,219,359835,5,8,0:0:0:0:
229,279,360006,1,2,3:0:0:0:
54,339,360177,1,2,3:0:0:0:
128,148,360349,5,8,0:0:0:0:
178,362,360520,1,2,3:0:0:0:
404,219,360692,5,8,0:0:0:0:
229,279,360863,1,2,3:0:0:0:
54,339,361035,1,2,3:0:0:0:
54,219,361206,5,8,0:0:0:0:
229,279,361377,1,2,3:0:0:0:
404,339,361549,1,2,3:0:0:0:
330,148,361720,5,8,0:0:0:0:
280,362,361892,1,0,3:0:0:0:
97,306,362063,5,8,0:0:0:0:
44,129,362235,1,0,3:0:0:0:
175,1,362406,1,2,3:0:0:0:
203,328,362577,5,8,0:0:0:0:
150,151,362749,1,2,3:0:0:0:
281,23,362920,1,2,3:0:0:0:
386,216,363092,5,8,0:0:0:0:
150,151,363263,1,2,3:0:0:0:
439,61,363435,5,8,0:0:0:0:
492,238,363606,1,2,3:0:0:0:
361,366,363777,1,2,3:0:0:0:
333,39,363949,5,8,0:0:0:0:
386,216,364120,1,2,3:0:0:0:
255,344,364292,1,2,3:0:0:0:
150,151,364463,5,8,0:0:0:0:
386,216,364635,1,0,3:0:0:0:
76,268,364806,5,8,0:0:0:0:
256,192,364977,1,0,3:0:0:0:
435,115,365149,1,2,3:0:0:0:
75,120,365320,5,8,0:0:0:0:
256,192,365492,1,2,3:0:0:0:
436,264,365663,1,2,3:0:0:0:
256,38,365835,5,8,0:0:0:0:
256,345,366006,1,2,3:0:0:0:
480,96,366177,5,8,0:0:0:0:
256,192,366349,1,2,3:0:0:0:
32,288,366520,1,2,3:0:0:0:
482,282,366692,5,8,0:0:0:0:
256,192,366863,1,2,3:0:0:0:
30,101,367035,1,2,3:0:0:0:
256,384,367206,5,8,0:0:0:0:
256,0,367377,1,0,3:0:0:0:
409,253,367549,6,0,L|420:186,1,65.6250025033952,10|0,0:0|0:0,0:0:0:0:
319,236,367720,2,0,L|330:171,1,65.6250025033952,8|0,0:0|0:0,0:0:0:0:
499,270,367892,2,0,L|510:203,1,65.6250025033952,10|0,0:0|0:0,0:0:0:0:
229,219,368063,2,0,L|240:154,1,65.6250025033952,8|0,0:0|0:0,0:0:0:0:
127,285,368235,6,0,L|115:351,1,65.6250025033952,10|0,0:0|0:0,0:0:0:0:
217,302,368406,2,0,L|205:366,1,65.6250025033952,8|0,0:0|0:0,0:0:0:0:
37,268,368578,2,0,L|25:334,1,65.6250025033952,10|0,0:0|0:0,0:0:0:0:
307,319,368749,2,0,L|295:383,1,65.6250025033952,8|0,0:0|0:0,0:0:0:0:
26,72,368920,5,10,0:0:0:0:
44,54,369005,1,8,0:0:0:0:
74,41,369091,1,8,0:0:0:0:
113,41,369177,1,8,0:0:0:0:
148,70,369263,1,10,0:0:0:0:
177,113,369349,1,8,0:0:0:0:
223,150,369435,1,8,0:0:0:0:
284,169,369520,1,8,0:0:0:0:
343,128,369606,5,10,0:0:0:0:
323,58,369692,1,8,0:0:0:0:
259,25,369777,1,8,0:0:0:0:
186,23,369863,1,8,0:0:0:0:
125,63,369949,5,10,0:0:0:0:
109,140,370035,1,8,0:0:0:0:
129,215,370120,1,8,0:0:0:0:
194,259,370206,1,8,0:0:0:0:
272,261,370292,6,0,B|390:257|345:333|469:315,1,196.875007510186,4|0,0:0|0:0,0:0:0:0:
467,374,370635,2,0,P|503:304|409:358,1,262.500010013581,4|0,0:0|0:0,0:0:0:0:
