osu file format v14

[General]
AudioFilename: Over the Starlit sky.mp3
AudioLeadIn: 0
PreviewTime: 62050
Countdown: 0
SampleSet: Soft
StackLeniency: 1
Mode: 3
LetterboxInBreaks: 0
SpecialStyle: 0
WidescreenStoryboard: 0

[Editor]
DistanceSpacing: 1.1
BeatDivisor: 4
GridSize: 4
TimelineZoom: 1

[Metadata]
Title:Over the Starlit sky
TitleUnicode:Over the Starlit sky
Artist:MUZIK SERVANT feat.CHERICa
ArtistUnicode:MUZIK SERVANT feat.CHERICa
Creator:Feerum
Version:Easy
Source:SOUND VOLTEX II -infinite infection-
Tags:konami bemani zun touhou 東方Project otomekan wotaku no koma ラクトガール ~ 少女密室 Locked Girl ~ The Girl's Secret Room stage 4 boss theme Patchouli Knowledge パチュリー・ノーレッジ 東方紅魔郷 ~ the Embodiment of Scarlet Devil Magical Thrash 音召缶 sdvx 2 東方紅魔郷リミックス楽曲コンテスト EOSD Remix Contest
BeatmapID:927961
BeatmapSetID:430151

[Difficulty]
HPDrainRate:7
CircleSize:4
OverallDifficulty:7
ApproachRate:10
SliderMultiplier:1.4
SliderTickRate:1

[Events]
//Background and Video events
0,0,"BG.jpg",0,0
//Break Periods
//Storyboard Layer 0 (Background)
//Storyboard Layer 1 (Fail)
//Storyboard Layer 2 (Pass)
//Storyboard Layer 3 (Foreground)
//Storyboard Sound Samples

[TimingPoints]
1879,342.857142857143,4,2,1,50,1,0
62221,-100,4,2,1,50,0,1
71821,-100,4,2,1,50,0,0
73193,-100,4,2,1,50,0,1
86907,-100,4,2,1,50,0,0

[HitObjects]
64,192,1878,5,4,0:0:0:0:
448,192,1878,1,0,3:0:0:0:
320,192,2393,1,0,0:0:0:0:
64,192,2564,1,0,0:0:0:0:
192,192,3079,1,0,0:0:0:0:
448,192,3250,1,0,0:0:0:0:
448,192,3764,1,0,0:0:0:0:
64,192,3936,1,0,0:0:0:0:
320,192,4279,1,4,0:0:0:0:
64,192,4621,1,4,0:0:0:0:
448,192,4964,1,0,0:0:0:0:
192,192,5136,1,0,0:0:0:0:
64,192,5479,1,0,0:0:0:0:
448,192,5650,1,0,3:0:0:0:
192,192,5821,1,8,3:0:0:0:
320,192,6164,1,4,0:0:0:0:
192,192,6336,1,4,0:0:0:0:
448,192,6507,1,4,0:0:0:0:
64,192,6679,1,4,0:0:0:0:
320,192,6850,1,4,0:0:0:0:
192,192,7021,1,4,0:0:0:0:
320,192,7364,1,4,0:0:0:0:
64,192,7879,1,0,3:0:0:0:
448,192,8050,1,0,0:0:0:0:
320,192,8564,1,0,0:0:0:0:
64,192,8736,1,0,0:0:0:0:
448,192,9250,1,0,3:0:0:0:
192,192,9593,1,0,3:0:0:0:
320,192,9764,1,8,3:0:0:0:
64,192,10107,128,4,10793:0:0:0:0:
448,192,10793,128,4,11479:0:0:0:0:
192,192,11479,1,4,0:0:0:0:
448,192,12164,1,0,0:0:0:0:
192,192,12507,1,0,3:0:0:0:
448,192,12850,1,4,0:0:0:0:
64,192,12850,1,0,3:0:0:0:
192,192,13193,1,8,0:0:0:0:
320,192,13536,1,0,3:0:0:0:
64,192,13879,1,8,0:0:0:0:
448,192,14221,1,0,3:0:0:0:
192,192,14564,1,8,0:0:0:0:
448,192,14907,1,0,3:0:0:0:
192,192,15250,1,8,0:0:0:0:
64,192,15593,1,0,3:0:0:0:
320,192,15936,1,8,0:0:0:0:
192,192,16279,1,0,3:0:0:0:
448,192,16621,1,8,0:0:0:0:
320,192,16964,1,0,3:0:0:0:
64,192,17307,1,8,0:0:0:0:
320,192,17650,1,0,3:0:0:0:
192,192,17821,1,0,0:0:0:0:
320,192,17993,1,8,0:0:0:0:
64,192,18336,1,4,0:0:0:0:
448,192,18336,1,8,3:0:0:0:
320,192,18679,1,8,3:0:0:0:
192,192,19021,1,8,3:0:0:0:
320,192,19364,1,8,3:0:0:0:
64,192,19707,1,8,3:0:0:0:
448,192,20050,1,8,3:0:0:0:
64,192,20393,1,8,3:0:0:0:
448,192,20736,1,8,3:0:0:0:
320,192,21079,1,4,0:0:0:0:
192,192,21079,1,0,0:0:0:0:
64,192,21421,1,8,0:0:0:0:
448,192,21764,1,4,0:0:0:0:
192,192,22021,1,4,0:0:0:0:
320,192,22279,1,4,0:0:0:0:
64,192,22450,1,4,0:0:0:0:
448,192,22707,1,4,0:0:0:0:
192,192,22964,1,4,0:0:0:0:
320,192,23136,128,4,23821:0:0:0:0:
64,192,23821,1,0,3:0:0:0:
192,192,23821,1,4,0:0:0:0:
448,192,24164,1,8,0:0:0:0:
192,192,24507,1,0,3:0:0:0:
448,192,24850,1,8,0:0:0:0:
192,192,25193,1,0,3:0:0:0:
320,192,25536,1,8,0:0:0:0:
64,192,25879,1,0,3:0:0:0:
448,192,26221,1,12,0:0:0:0:
320,192,26393,1,4,0:0:0:0:
64,192,26564,128,4,27250:0:0:0:0:
448,192,27250,128,0,27936:3:0:0:0:
192,192,27936,1,4,0:0:0:0:
320,192,28193,1,4,0:0:0:0:
64,192,28450,1,4,0:0:0:0:
320,192,28964,1,12,0:0:0:0:
448,192,29307,1,0,3:0:0:0:
64,192,29307,1,4,0:0:0:0:
320,192,29650,1,8,3:0:0:0:
192,192,29821,1,0,3:0:0:0:
64,192,30164,1,0,3:0:0:0:
448,192,30336,1,8,3:0:0:0:
192,192,30679,1,0,3:0:0:0:
320,192,31021,1,8,3:0:0:0:
64,192,31193,1,0,3:0:0:0:
192,192,31536,1,0,3:0:0:0:
448,192,31707,1,8,3:0:0:0:
320,192,32050,1,0,3:0:0:0:
64,192,32393,1,8,3:0:0:0:
448,192,32564,1,0,3:0:0:0:
320,192,32907,1,0,3:0:0:0:
192,192,33079,1,8,3:0:0:0:
448,192,33421,1,4,0:0:0:0:
320,192,33764,1,4,0:0:0:0:
192,192,34107,1,4,0:0:0:0:
64,192,34450,1,4,0:0:0:0:
448,192,34793,1,4,0:0:0:0:
320,192,34793,1,0,3:0:0:0:
64,192,35136,1,8,3:0:0:0:
448,192,35307,1,0,3:0:0:0:
320,192,35650,1,0,3:0:0:0:
192,192,35821,1,8,3:0:0:0:
448,192,36164,1,0,3:0:0:0:
320,192,36507,1,8,3:0:0:0:
64,192,36679,1,0,3:0:0:0:
192,192,37021,1,0,3:0:0:0:
448,192,37193,1,8,3:0:0:0:
64,192,37536,1,0,0:0:0:0:
448,192,37879,1,8,3:0:0:0:
64,192,38050,1,0,3:0:0:0:
192,192,38393,1,0,3:0:0:0:
320,192,38564,1,8,3:0:0:0:
64,192,38907,1,4,0:0:0:0:
448,192,39250,1,4,0:0:0:0:
320,192,39593,1,4,0:0:0:0:
192,192,39936,1,4,0:0:0:0:
64,192,40279,1,0,3:0:0:0:
320,192,40279,1,4,0:0:0:0:
448,192,40621,1,8,0:0:0:0:
192,192,40964,1,0,3:0:0:0:
448,192,41307,1,8,0:0:0:0:
64,192,41650,1,0,3:0:0:0:
320,192,41993,1,8,0:0:0:0:
64,192,42336,1,0,3:0:0:0:
320,192,42679,1,8,0:0:0:0:
192,192,43021,1,0,3:0:0:0:
448,192,43364,1,8,0:0:0:0:
192,192,43707,1,0,3:0:0:0:
448,192,44050,1,8,0:0:0:0:
64,192,44393,128,0,44736:3:0:0:0:
320,192,44736,128,8,45079:0:0:0:0:
192,192,45079,128,0,45421:3:0:0:0:
448,192,45421,128,8,45764:3:0:0:0:
64,192,45764,1,8,3:0:0:0:
192,192,45764,1,4,0:0:0:0:
320,192,46107,1,8,3:0:0:0:
192,192,46450,1,8,3:0:0:0:
320,192,46793,1,8,3:0:0:0:
448,192,47136,1,8,3:0:0:0:
64,192,47136,1,4,0:0:0:0:
192,192,47479,1,8,3:0:0:0:
448,192,47821,1,8,3:0:0:0:
192,192,48164,1,8,3:0:0:0:
320,192,48507,128,8,49193:3:0:0:0:
64,192,48507,1,4,0:0:0:0:
192,192,49193,128,0,49879:3:0:0:0:
448,192,49879,128,4,51250:0:0:0:0:
192,192,50564,1,4,0:0:0:0:
192,192,51250,1,0,3:0:0:0:
64,192,51250,1,4,0:0:0:0:
448,192,51593,1,8,0:0:0:0:
192,192,51936,1,0,3:0:0:0:
320,192,52279,1,8,0:0:0:0:
64,192,52621,1,0,3:0:0:0:
320,192,52964,1,8,0:0:0:0:
192,192,53307,1,0,3:0:0:0:
448,192,53650,1,8,0:0:0:0:
320,192,53993,1,0,3:0:0:0:
64,192,54336,1,8,0:0:0:0:
448,192,54679,1,0,3:0:0:0:
192,192,55021,1,8,0:0:0:0:
320,192,55364,1,0,3:0:0:0:
64,192,55707,1,8,0:0:0:0:
448,192,56050,1,0,3:0:0:0:
192,192,56393,1,8,0:0:0:0:
448,192,56736,1,4,0:0:0:0:
320,192,57250,1,4,0:0:0:0:
192,192,57764,1,4,0:0:0:0:
448,192,58107,1,4,0:0:0:0:
320,192,58621,1,4,0:0:0:0:
64,192,59136,1,4,0:0:0:0:
448,192,59479,1,8,3:0:0:0:
320,192,59650,1,8,3:0:0:0:
64,192,59821,1,8,3:0:0:0:
192,192,59993,1,8,3:0:0:0:
448,192,60164,128,8,60679:3:0:0:0:
64,192,60679,1,4,0:0:0:0:
320,192,61021,1,4,0:0:0:0:
192,192,61364,1,4,0:0:0:0:
448,192,61879,128,8,62221:0:0:0:0:
192,192,62221,1,4,0:0:0:0:
64,192,62221,1,0,3:0:0:0:
320,192,62564,1,8,0:0:0:0:
64,192,62907,1,0,3:0:0:0:
448,192,63250,1,8,0:0:0:0:
192,192,63593,1,0,3:0:0:0:
320,192,63936,1,8,0:0:0:0:
64,192,64279,1,0,3:0:0:0:
448,192,64621,1,8,0:0:0:0:
320,192,64964,1,0,3:0:0:0:
64,192,65307,1,8,0:0:0:0:
192,192,65650,1,0,3:0:0:0:
448,192,65993,1,8,0:0:0:0:
64,192,66507,1,0,0:0:0:0:
448,192,66679,1,8,0:0:0:0:
192,192,66850,1,0,0:0:0:0:
320,192,67021,1,0,3:0:0:0:
64,192,67193,1,0,0:0:0:0:
448,192,67364,1,8,0:0:0:0:
192,192,67707,1,0,3:0:0:0:
64,192,68050,1,8,0:0:0:0:
448,192,68393,1,0,3:0:0:0:
320,192,68736,1,8,0:0:0:0:
64,192,69079,1,0,3:0:0:0:
192,192,69421,1,8,0:0:0:0:
448,192,69764,1,0,3:0:0:0:
64,192,70107,1,8,0:0:0:0:
320,192,70450,1,0,3:0:0:0:
192,192,70793,1,8,0:0:0:0:
448,192,71136,1,0,3:0:0:0:
320,192,71479,1,8,0:0:0:0:
64,192,71821,1,4,0:0:0:0:
192,192,72079,1,4,0:0:0:0:
448,192,72336,1,4,0:0:0:0:
64,192,72507,1,4,0:0:0:0:
320,192,72764,1,4,0:0:0:0:
192,192,73021,1,4,0:0:0:0:
448,192,73193,1,0,3:0:0:0:
64,192,73193,1,4,0:0:0:0:
320,192,73536,1,8,0:0:0:0:
192,192,73879,1,0,3:0:0:0:
448,192,74221,1,8,0:0:0:0:
64,192,74564,1,0,3:0:0:0:
320,192,74907,1,8,0:0:0:0:
192,192,75250,1,0,3:0:0:0:
448,192,75593,1,8,0:0:0:0:
64,192,75936,1,0,3:0:0:0:
320,192,76279,1,8,0:0:0:0:
192,192,76621,1,0,3:0:0:0:
448,192,76964,1,8,0:0:0:0:
64,192,77479,1,0,0:0:0:0:
320,192,77650,1,8,0:0:0:0:
192,192,77821,1,0,0:0:0:0:
448,192,77993,1,0,3:0:0:0:
64,192,78164,1,0,0:0:0:0:
320,192,78336,1,8,0:0:0:0:
192,192,78679,1,8,3:0:0:0:
64,192,78679,1,4,0:0:0:0:
448,192,79021,1,8,3:0:0:0:
192,192,79364,1,8,3:0:0:0:
448,192,79707,1,8,3:0:0:0:
320,192,80050,1,8,3:0:0:0:
64,192,80050,1,4,0:0:0:0:
192,192,80393,1,8,3:0:0:0:
320,192,80736,1,8,3:0:0:0:
192,192,81079,1,8,3:0:0:0:
448,192,81421,128,4,82107:0:0:0:0:
64,192,81421,1,8,0:0:0:0:
192,192,82107,128,0,82793:3:0:0:0:
448,192,82793,1,4,0:0:0:0:
320,192,82793,1,0,0:0:0:0:
64,192,83479,1,4,0:0:0:0:
192,192,83650,1,4,0:0:0:0:
320,192,83821,1,4,0:0:0:0:
448,192,84164,1,0,3:0:0:0:
64,192,84507,1,8,3:0:0:0:
320,192,84679,1,0,3:0:0:0:
448,192,85021,1,0,3:0:0:0:
192,192,85193,1,8,3:0:0:0:
320,192,85364,1,0,3:0:0:0:
64,192,85536,1,0,3:0:0:0:
448,192,85536,1,4,0:0:0:0:
64,192,86221,1,0,3:0:0:0:
448,192,86221,1,4,0:0:0:0:
192,192,86564,1,0,3:0:0:0:
320,192,86564,1,4,0:0:0:0:
448,192,86907,1,4,0:0:0:0:
64,192,86907,1,0,3:0:0:0:
192,192,87250,1,8,0:0:0:0:
320,192,87593,1,0,3:0:0:0:
192,192,87936,1,8,0:0:0:0:
448,192,88279,1,0,3:0:0:0:
64,192,88621,1,8,0:0:0:0:
320,192,88964,1,0,3:0:0:0:
192,192,89307,1,8,0:0:0:0:
448,192,89650,1,0,3:0:0:0:
320,192,89993,1,8,0:0:0:0:
64,192,90336,1,0,3:0:0:0:
192,192,90679,1,8,0:0:0:0:
320,192,91021,1,0,3:0:0:0:
64,192,91364,1,8,0:0:0:0:
448,192,91707,1,0,3:0:0:0:
192,192,91879,1,0,0:0:0:0:
320,192,92050,1,8,0:0:0:0:
64,192,92393,1,4,0:0:0:0:
448,192,92393,1,8,3:0:0:0:
192,192,92736,1,8,3:0:0:0:
448,192,93079,1,8,3:0:0:0:
192,192,93421,1,8,3:0:0:0:
320,192,93764,1,8,3:0:0:0:
64,192,94107,1,8,3:0:0:0:
320,192,94450,1,8,3:0:0:0:
64,192,94793,1,8,3:0:0:0:
448,192,95136,128,0,95821:3:0:0:0:
192,192,95136,1,4,0:0:0:0:
64,192,95821,1,4,0:0:0:0:
320,192,96079,1,4,0:0:0:0:
192,192,96336,1,4,0:0:0:0:
448,192,96507,1,4,0:0:0:0:
64,192,96764,1,4,0:0:0:0:
320,192,97021,1,4,0:0:0:0:
64,192,97193,128,4,97536:0:0:0:0:
448,192,97536,128,0,97879:3:0:0:0:
64,192,97879,1,4,0:0:0:0:
192,192,97879,1,0,3:0:0:0:
