osu file format v14

[General]
AudioFilename: Over the Starlit sky.mp3
AudioLeadIn: 0
PreviewTime: 62050
Countdown: 0
SampleSet: Soft
StackLeniency: 1
Mode: 3
LetterboxInBreaks: 0
SpecialStyle: 0
WidescreenStoryboard: 0

[Editor]
DistanceSpacing: 1.1
BeatDivisor: 4
GridSize: 4
TimelineZoom: 1.5

[Metadata]
Title:Over the Starlit sky
TitleUnicode:Over the Starlit sky
Artist:MUZIK SERVANT feat.CHERICa
ArtistUnicode:MUZIK SERVANT feat.CHERICa
Creator:Feerum
Version:Hard
Source:SOUND VOLTEX II -infinite infection-
Tags:konami bemani zun touhou 東方Project otomekan wotaku no koma ラクトガール ~ 少女密室 Locked Girl ~ The Girl's Secret Room stage 4 boss theme Patchouli Knowledge パチュリー・ノーレッジ 東方紅魔郷 ~ the Embodiment of Scarlet Devil Magical Thrash 音召缶 sdvx 2 東方紅魔郷リミックス楽曲コンテスト EOSD Remix Contest
BeatmapID:927962
BeatmapSetID:430151

[Difficulty]
HPDrainRate:8
CircleSize:4
OverallDifficulty:8
ApproachRate:10
SliderMultiplier:1.4
SliderTickRate:1

[Events]
//Background and Video events
0,0,"BG.jpg",0,0
//Break Periods
//Storyboard Layer 0 (Background)
//Storyboard Layer 1 (Fail)
//Storyboard Layer 2 (Pass)
//Storyboard Layer 3 (Foreground)
//Storyboard Sound Samples

[TimingPoints]
1879,342.857142857143,4,2,1,50,1,0
62221,-100,4,2,1,50,0,1
71821,-100,4,2,1,50,0,0
73193,-100,4,2,1,50,0,1
86907,-100,4,2,1,50,0,0

[HitObjects]
192,192,507,128,0,1707:0:0:0:15:soft-hitnormal.wav
448,192,1878,1,0,3:0:0:0:
320,192,1878,1,0,0:0:0:0:
64,192,1878,1,4,0:0:0:0:
448,192,2393,1,0,0:0:0:0:
192,192,2393,1,0,0:0:0:0:
64,192,2564,1,0,0:0:0:0:
320,192,2564,1,0,0:0:0:0:
192,192,3079,1,0,0:0:0:0:
64,192,3079,1,0,0:0:0:0:
448,192,3250,1,0,0:0:0:0:
320,192,3250,1,0,0:0:0:0:
64,192,3764,1,0,0:0:0:0:
320,192,3764,1,0,0:0:0:0:
192,192,3936,1,0,0:0:0:0:
448,192,3936,1,0,0:0:0:0:
64,192,4279,1,0,3:0:0:0:
192,192,4279,1,0,0:0:0:0:
448,192,4279,1,4,0:0:0:0:
448,192,4621,1,0,3:0:0:0:
320,192,4621,1,0,0:0:0:0:
64,192,4621,1,4,0:0:0:0:
192,192,4793,1,0,0:0:0:0:
448,192,4964,1,0,0:0:0:0:
64,192,5136,1,0,0:0:0:0:
320,192,5307,1,0,0:0:0:0:
192,192,5307,1,8,3:0:0:0:
448,192,5479,1,0,0:0:0:0:
64,192,5650,1,0,3:0:0:0:
320,192,5650,1,0,0:0:0:0:
192,192,5821,1,8,3:0:0:0:
448,192,5821,1,0,3:0:0:0:
64,192,6164,1,4,0:0:0:0:
448,192,6164,1,0,3:0:0:0:
448,192,6336,1,4,0:0:0:0:
192,192,6336,1,0,3:0:0:0:
448,192,6507,1,0,3:0:0:0:
64,192,6507,1,4,0:0:0:0:
192,192,6679,1,0,3:0:0:0:
320,192,6679,1,4,0:0:0:0:
64,192,6850,1,4,0:0:0:0:
192,192,6850,1,0,3:0:0:0:
64,192,7021,1,4,0:0:0:0:
448,192,7021,1,0,3:0:0:0:
64,192,7364,1,0,3:0:0:0:
192,192,7364,1,4,0:0:0:0:
448,192,7364,1,0,0:0:0:0:
448,192,7879,1,0,3:0:0:0:
192,192,7879,1,0,0:0:0:0:
320,192,8050,1,0,0:0:0:0:
64,192,8050,1,0,0:0:0:0:
320,192,8564,1,0,0:0:0:0:
448,192,8564,1,0,0:0:0:0:
64,192,8736,1,0,3:0:0:0:
192,192,8736,1,0,0:0:0:0:
192,192,9250,1,0,3:0:0:0:
448,192,9250,1,0,0:0:0:0:
64,192,9593,1,0,3:0:0:0:
320,192,9593,1,0,0:0:0:0:
192,192,9764,1,8,3:0:0:0:
448,192,9764,1,0,0:0:0:0:
64,192,10107,1,0,3:0:0:0:
448,192,10107,1,4,0:0:0:0:
320,192,10107,1,0,0:0:0:0:
192,192,10279,1,0,3:0:0:0:
448,192,10450,1,0,3:0:0:0:
192,192,10621,1,0,3:0:0:0:
448,192,10793,1,4,0:0:0:0:
64,192,10793,1,0,3:0:0:0:
320,192,10879,1,0,3:0:0:0:
192,192,10964,1,0,3:0:0:0:
448,192,11050,1,0,3:0:0:0:
64,192,11136,1,0,3:0:0:0:
192,192,11221,1,0,3:0:0:0:
320,192,11307,1,0,3:0:0:0:
64,192,11393,1,0,3:0:0:0:
448,192,11479,1,4,0:0:0:0:
192,192,11479,1,0,3:0:0:0:
320,192,11650,1,0,0:0:0:0:
64,192,11821,1,0,0:0:0:0:
192,192,11993,1,0,0:0:0:0:
320,192,12079,1,0,0:0:0:0:
448,192,12164,128,0,12679:0:0:0:0:
64,192,12336,128,0,12679:0:0:0:0:
192,192,12507,128,0,12679:3:0:0:0:
320,192,12850,1,4,0:0:0:0:
64,192,12850,1,0,3:0:0:0:
192,192,12936,1,0,0:0:0:0:
448,192,13021,1,0,0:0:0:0:
320,192,13107,1,0,0:0:0:0:
192,192,13193,1,8,0:0:0:0:
64,192,13193,1,0,3:0:0:0:
448,192,13364,1,0,0:0:0:0:
64,192,13450,1,0,0:0:0:0:
320,192,13536,1,0,3:0:0:0:
192,192,13707,1,0,0:0:0:0:
448,192,13793,1,0,0:0:0:0:
320,192,13879,1,8,0:0:0:0:
64,192,13879,1,0,3:0:0:0:
192,192,13964,1,0,0:0:0:0:
448,192,14050,1,0,0:0:0:0:
320,192,14136,1,0,0:0:0:0:
64,192,14221,1,0,3:0:0:0:
192,192,14307,1,0,0:0:0:0:
320,192,14393,1,0,0:0:0:0:
64,192,14479,1,0,0:0:0:0:
448,192,14564,1,8,0:0:0:0:
192,192,14564,1,0,3:0:0:0:
320,192,14650,1,0,0:0:0:0:
64,192,14736,1,0,0:0:0:0:
448,192,14821,1,0,0:0:0:0:
192,192,14907,1,0,3:0:0:0:
320,192,14993,1,0,0:0:0:0:
64,192,15079,1,0,0:0:0:0:
448,192,15164,1,0,0:0:0:0:
192,192,15250,1,0,3:0:0:0:
320,192,15250,1,8,0:0:0:0:
64,192,15421,1,0,0:0:0:0:
448,192,15421,1,0,0:0:0:0:
320,192,15593,1,0,3:0:0:0:
64,192,15679,1,0,0:0:0:0:
448,192,15764,1,0,0:0:0:0:
192,192,15850,1,0,0:0:0:0:
320,192,15936,1,0,3:0:0:0:
64,192,15936,1,8,0:0:0:0:
448,192,16021,1,0,0:0:0:0:
192,192,16107,1,0,0:0:0:0:
320,192,16193,1,0,0:0:0:0:
64,192,16279,1,0,3:0:0:0:
448,192,16364,1,0,0:0:0:0:
192,192,16450,1,0,0:0:0:0:
320,192,16536,1,0,0:0:0:0:
64,192,16621,1,8,0:0:0:0:
448,192,16621,1,0,3:0:0:0:
192,192,16707,1,0,0:0:0:0:
320,192,16793,1,0,0:0:0:0:
192,192,16879,1,0,0:0:0:0:
64,192,16964,1,0,3:0:0:0:
448,192,17050,1,0,0:0:0:0:
320,192,17136,1,0,0:0:0:0:
192,192,17221,1,0,0:0:0:0:
448,192,17307,1,0,3:0:0:0:
320,192,17307,1,8,0:0:0:0:
64,192,17393,1,0,0:0:0:0:
192,192,17479,1,0,0:0:0:0:
320,192,17564,1,0,0:0:0:0:
64,192,17650,1,0,3:0:0:0:
192,192,17650,1,0,0:0:0:0:
448,192,17821,1,0,0:0:0:0:
320,192,17821,1,0,0:0:0:0:
64,192,17993,1,0,3:0:0:0:
192,192,17993,1,8,0:0:0:0:
320,192,18164,1,0,0:0:0:0:
192,192,18164,1,0,0:0:0:0:
64,192,18336,1,8,3:0:0:0:
448,192,18336,1,4,0:0:0:0:
320,192,18421,1,0,0:0:0:0:
64,192,18507,1,0,0:0:0:0:
192,192,18593,1,0,0:0:0:0:
448,192,18679,1,8,3:0:0:0:
320,192,18679,1,8,0:0:0:0:
64,192,18764,1,0,0:0:0:0:
192,192,18850,1,0,0:0:0:0:
448,192,18936,1,0,0:0:0:0:
320,192,19021,1,8,3:0:0:0:
192,192,19107,1,0,0:0:0:0:
448,192,19193,1,0,0:0:0:0:
64,192,19279,1,0,0:0:0:0:
192,192,19364,1,8,3:0:0:0:
320,192,19364,1,8,0:0:0:0:
448,192,19450,1,0,0:0:0:0:
64,192,19536,1,0,0:0:0:0:
320,192,19621,1,0,0:0:0:0:
192,192,19707,1,8,3:0:0:0:
448,192,19793,1,0,0:0:0:0:
320,192,19879,1,0,0:0:0:0:
64,192,19964,1,0,0:0:0:0:
320,192,20050,1,8,0:0:0:0:
192,192,20050,1,8,3:0:0:0:
448,192,20136,1,0,0:0:0:0:
320,192,20221,1,0,0:0:0:0:
192,192,20307,1,0,0:0:0:0:
64,192,20393,1,8,3:0:0:0:
448,192,20479,1,0,0:0:0:0:
192,192,20564,1,0,0:0:0:0:
320,192,20650,1,0,0:0:0:0:
64,192,20736,1,8,0:0:0:0:
448,192,20736,1,8,3:0:0:0:
192,192,20907,1,0,3:0:0:0:
320,192,20907,1,0,0:0:0:0:
448,192,21079,1,4,0:0:0:0:
320,192,21079,1,0,0:0:0:0:
64,192,21079,1,0,3:0:0:0:
192,192,21250,1,0,3:0:0:0:
320,192,21421,1,8,3:0:0:0:
192,192,21593,1,0,3:0:0:0:
320,192,21764,1,0,0:0:0:0:
448,192,21764,1,0,3:0:0:0:
64,192,21764,1,4,0:0:0:0:
64,192,22021,1,0,3:0:0:0:
192,192,22021,1,0,0:0:0:0:
448,192,22021,1,4,0:0:0:0:
320,192,22279,1,0,0:0:0:0:
448,192,22279,1,0,3:0:0:0:
192,192,22279,1,4,0:0:0:0:
64,192,22450,1,0,3:0:0:0:
192,192,22450,1,0,0:0:0:0:
320,192,22450,1,4,0:0:0:0:
448,192,22707,1,0,3:0:0:0:
320,192,22707,1,0,0:0:0:0:
192,192,22707,1,4,0:0:0:0:
64,192,22964,1,0,3:0:0:0:
320,192,22964,1,0,0:0:0:0:
448,192,22964,1,4,0:0:0:0:
192,192,23136,1,4,0:0:0:0:
320,192,23221,1,0,3:0:0:0:
192,192,23307,1,0,3:0:0:0:
320,192,23393,1,0,3:0:0:0:
64,192,23479,1,0,3:0:0:0:
448,192,23564,1,0,3:0:0:0:
64,192,23650,1,0,3:0:0:0:
448,192,23736,1,0,3:0:0:0:
320,192,23821,1,0,3:0:0:0:
192,192,23821,1,4,0:0:0:0:
64,192,23907,1,0,0:0:0:0:
448,192,23993,1,0,0:0:0:0:
320,192,24079,1,0,0:0:0:0:
64,192,24164,1,0,3:0:0:0:
448,192,24164,1,8,0:0:0:0:
192,192,24250,1,0,0:0:0:0:
320,192,24336,1,0,0:0:0:0:
192,192,24421,1,0,0:0:0:0:
448,192,24507,1,0,3:0:0:0:
320,192,24593,1,0,0:0:0:0:
64,192,24679,1,0,0:0:0:0:
192,192,24764,1,0,0:0:0:0:
448,192,24850,1,8,0:0:0:0:
320,192,24850,1,0,3:0:0:0:
64,192,24936,1,0,0:0:0:0:
448,192,25021,1,0,0:0:0:0:
320,192,25107,1,0,0:0:0:0:
192,192,25193,1,0,3:0:0:0:
320,192,25279,1,0,0:0:0:0:
64,192,25364,1,0,0:0:0:0:
448,192,25450,1,0,0:0:0:0:
192,192,25536,1,0,3:0:0:0:
320,192,25536,1,8,0:0:0:0:
64,192,25621,1,0,0:0:0:0:
448,192,25707,1,0,0:0:0:0:
320,192,25793,1,0,0:0:0:0:
192,192,25879,1,0,0:0:0:0:
64,192,25879,1,0,3:0:0:0:
448,192,26050,1,0,0:0:0:0:
64,192,26221,1,4,0:0:0:0:
192,192,26221,1,8,0:0:0:0:
192,192,26393,1,4,0:0:0:0:
320,192,26393,1,0,3:0:0:0:
320,192,26564,1,4,0:0:0:0:
448,192,26564,1,0,3:0:0:0:
64,192,26736,1,0,0:0:0:0:
448,192,26736,1,0,3:0:0:0:
192,192,26821,1,0,0:0:0:0:
320,192,26907,1,0,0:0:0:0:
64,192,26907,1,0,3:0:0:0:
448,192,26993,1,0,0:0:0:0:
192,192,27079,1,0,0:0:0:0:
320,192,27079,1,0,3:0:0:0:
64,192,27164,1,0,0:0:0:0:
448,192,27250,1,0,3:0:0:0:
320,192,27336,1,0,3:0:0:0:
192,192,27421,1,0,3:0:0:0:
448,192,27507,1,0,3:0:0:0:
64,192,27593,1,0,3:0:0:0:
192,192,27679,1,0,3:0:0:0:
320,192,27764,1,0,3:0:0:0:
64,192,27850,1,0,3:0:0:0:
448,192,27936,1,0,0:0:0:0:
320,192,27936,1,4,0:0:0:0:
192,192,27936,1,0,3:0:0:0:
64,192,28193,1,0,3:0:0:0:
192,192,28193,1,0,0:0:0:0:
320,192,28193,1,4,0:0:0:0:
448,192,28450,1,4,0:0:0:0:
320,192,28450,1,0,0:0:0:0:
192,192,28450,1,0,3:0:0:0:
64,192,28621,128,0,28707:0:0:0:0:
192,192,28707,128,0,28793:0:0:0:0:
448,192,28793,128,0,28879:0:0:0:0:
320,192,28879,128,0,28964:0:0:0:0:
64,192,28964,1,4,0:0:0:0:
192,192,28964,1,8,0:0:0:0:
448,192,29307,1,4,0:0:0:0:
320,192,29307,1,0,0:0:0:0:
192,192,29307,1,0,3:0:0:0:
448,192,29650,1,0,0:0:0:0:
64,192,29650,1,8,3:0:0:0:
192,192,29821,1,0,3:0:0:0:
320,192,30164,1,0,3:0:0:0:
448,192,30336,1,0,0:0:0:0:
64,192,30336,1,8,3:0:0:0:
192,192,30679,1,0,3:0:0:0:
320,192,31021,1,8,3:0:0:0:
448,192,31021,1,0,0:0:0:0:
64,192,31193,1,0,3:0:0:0:
448,192,31536,1,0,3:0:0:0:
192,192,31707,1,0,0:0:0:0:
64,192,31707,1,8,3:0:0:0:
320,192,32050,1,0,3:0:0:0:
192,192,32393,1,0,0:0:0:0:
448,192,32393,1,8,3:0:0:0:
64,192,32564,1,0,3:0:0:0:
448,192,32907,1,0,3:0:0:0:
320,192,33079,1,8,3:0:0:0:
64,192,33079,1,0,0:0:0:0:
448,192,33421,1,4,0:0:0:0:
320,192,33421,1,0,0:0:0:0:
192,192,33421,1,0,3:0:0:0:
64,192,33764,1,4,0:0:0:0:
320,192,33764,1,0,0:0:0:0:
448,192,33764,1,0,3:0:0:0:
64,192,34107,1,0,3:0:0:0:
192,192,34107,1,0,0:0:0:0:
448,192,34107,1,4,0:0:0:0:
64,192,34450,1,4,0:0:0:0:
192,192,34450,1,0,0:0:0:0:
320,192,34450,1,0,3:0:0:0:
320,192,34793,1,0,0:0:0:0:
448,192,34793,1,4,0:0:0:0:
64,192,34793,1,0,3:0:0:0:
192,192,35136,1,8,3:0:0:0:
448,192,35136,1,0,0:0:0:0:
320,192,35307,1,0,3:0:0:0:
192,192,35650,1,0,3:0:0:0:
64,192,35821,1,0,0:0:0:0:
448,192,35821,1,8,3:0:0:0:
320,192,36164,1,0,3:0:0:0:
64,192,36507,1,8,3:0:0:0:
192,192,36507,1,0,0:0:0:0:
448,192,36679,1,0,3:0:0:0:
64,192,37021,1,0,3:0:0:0:
320,192,37193,1,0,0:0:0:0:
448,192,37193,1,8,3:0:0:0:
192,192,37536,1,0,3:0:0:0:
448,192,37879,1,8,3:0:0:0:
64,192,37879,1,0,0:0:0:0:
320,192,38050,1,0,3:0:0:0:
192,192,38393,1,0,3:0:0:0:
448,192,38564,1,0,0:0:0:0:
64,192,38564,1,8,3:0:0:0:
64,192,38907,1,4,0:0:0:0:
320,192,38907,1,0,3:0:0:0:
192,192,38907,1,0,0:0:0:0:
448,192,39250,1,4,0:0:0:0:
192,192,39250,1,0,0:0:0:0:
64,192,39250,1,0,3:0:0:0:
64,192,39593,1,4,0:0:0:0:
320,192,39593,1,0,0:0:0:0:
448,192,39593,1,0,3:0:0:0:
192,192,39936,1,0,3:0:0:0:
448,192,39936,1,4,0:0:0:0:
320,192,39936,1,0,0:0:0:0:
64,192,40279,1,4,0:0:0:0:
192,192,40279,1,0,0:0:0:0:
448,192,40279,1,0,3:0:0:0:
320,192,40450,1,0,0:0:0:0:
448,192,40621,1,8,0:0:0:0:
64,192,40621,1,0,3:0:0:0:
192,192,40793,1,0,0:0:0:0:
320,192,40964,1,0,3:0:0:0:
448,192,40964,1,0,0:0:0:0:
64,192,41136,1,0,0:0:0:0:
192,192,41307,1,0,3:0:0:0:
320,192,41307,1,8,0:0:0:0:
448,192,41479,1,0,0:0:0:0:
192,192,41650,1,0,0:0:0:0:
64,192,41650,1,0,3:0:0:0:
320,192,41821,1,0,0:0:0:0:
192,192,41993,1,0,3:0:0:0:
448,192,41993,1,8,0:0:0:0:
64,192,42164,1,0,0:0:0:0:
320,192,42336,1,0,3:0:0:0:
448,192,42336,1,0,0:0:0:0:
192,192,42507,1,0,0:0:0:0:
64,192,42679,1,0,3:0:0:0:
448,192,42679,1,8,0:0:0:0:
320,192,42850,1,0,0:0:0:0:
192,192,43021,1,0,0:0:0:0:
64,192,43021,1,0,3:0:0:0:
448,192,43193,1,0,0:0:0:0:
192,192,43364,1,0,3:0:0:0:
320,192,43364,1,8,0:0:0:0:
64,192,43536,1,0,0:0:0:0:
320,192,43707,1,0,3:0:0:0:
448,192,43707,1,0,0:0:0:0:
192,192,43879,1,0,0:0:0:0:
320,192,44050,1,8,0:0:0:0:
64,192,44050,1,0,3:0:0:0:
448,192,44221,1,0,0:0:0:0:
64,192,44393,128,0,44736:0:0:0:0:
192,192,44393,1,0,3:0:0:0:
448,192,44736,128,0,45079:3:0:0:0:
320,192,44736,1,8,0:0:0:0:
192,192,45079,128,0,45421:0:0:0:0:
64,192,45079,1,0,3:0:0:0:
320,192,45421,128,0,45764:0:0:0:0:
448,192,45421,1,8,3:0:0:0:
64,192,45593,1,0,3:0:0:0:
64,192,45764,1,8,3:0:0:0:
448,192,45764,1,4,0:0:0:0:
192,192,45764,1,0,0:0:0:0:
320,192,45936,1,0,0:0:0:0:
64,192,46107,1,8,3:0:0:0:
448,192,46107,1,8,0:0:0:0:
192,192,46279,1,0,0:0:0:0:
320,192,46450,1,8,3:0:0:0:
448,192,46450,1,0,0:0:0:0:
64,192,46621,1,0,0:0:0:0:
320,192,46793,1,8,0:0:0:0:
192,192,46793,1,8,3:0:0:0:
448,192,46964,1,0,0:0:0:0:
192,192,47136,1,8,3:0:0:0:
64,192,47136,1,4,0:0:0:0:
320,192,47136,1,0,0:0:0:0:
64,192,47307,1,0,0:0:0:0:
192,192,47479,1,8,3:0:0:0:
448,192,47479,1,8,0:0:0:0:
320,192,47650,1,0,0:0:0:0:
448,192,47821,1,0,0:0:0:0:
64,192,47821,1,8,3:0:0:0:
192,192,47993,1,0,0:0:0:0:
320,192,48164,1,8,3:0:0:0:
448,192,48164,1,8,0:0:0:0:
192,192,48336,1,0,0:0:0:0:
64,192,48336,1,0,3:0:0:0:
448,192,48507,1,8,3:0:0:0:
320,192,48507,1,4,0:0:0:0:
64,192,48507,1,0,0:0:0:0:
192,192,48679,1,0,3:0:0:0:
448,192,48679,1,0,0:0:0:0:
320,192,48850,1,0,3:0:0:0:
64,192,48850,1,0,0:0:0:0:
192,192,49021,1,0,3:0:0:0:
448,192,49021,1,0,0:0:0:0:
64,192,49193,1,0,3:0:0:0:
448,192,49279,1,0,3:0:0:0:
192,192,49364,1,0,3:0:0:0:
320,192,49450,1,0,3:0:0:0:
64,192,49536,1,0,3:0:0:0:
192,192,49621,1,0,3:0:0:0:
448,192,49707,1,0,3:0:0:0:
320,192,49793,1,0,3:0:0:0:
192,192,49879,1,0,3:0:0:0:
448,192,49879,1,4,0:0:0:0:
64,192,49879,128,0,51250:0:0:0:0:
448,192,50564,1,0,3:0:0:0:
320,192,50564,1,4,0:0:0:0:
192,192,50907,1,0,3:0:0:0:
448,192,51079,1,0,3:0:0:0:
192,192,51250,1,0,3:0:0:0:
320,192,51250,1,4,0:0:0:0:
448,192,51421,1,0,0:0:0:0:
64,192,51593,1,0,3:0:0:0:
320,192,51593,1,8,0:0:0:0:
192,192,51764,1,0,0:0:0:0:
448,192,51936,1,0,0:0:0:0:
320,192,51936,1,0,3:0:0:0:
64,192,52107,1,0,0:0:0:0:
192,192,52279,1,0,3:0:0:0:
320,192,52279,1,8,0:0:0:0:
448,192,52450,1,0,0:0:0:0:
320,192,52621,1,0,0:0:0:0:
64,192,52621,1,0,3:0:0:0:
192,192,52793,1,0,0:0:0:0:
448,192,52964,1,0,3:0:0:0:
64,192,52964,1,8,0:0:0:0:
320,192,53136,1,0,0:0:0:0:
448,192,53307,1,0,0:0:0:0:
64,192,53307,1,0,3:0:0:0:
320,192,53650,1,0,3:0:0:0:
192,192,53650,1,8,0:0:0:0:
448,192,53993,1,0,0:0:0:0:
64,192,53993,1,0,3:0:0:0:
320,192,54164,1,0,0:0:0:0:
192,192,54336,1,8,0:0:0:0:
448,192,54336,1,0,3:0:0:0:
64,192,54507,1,0,0:0:0:0:
320,192,54679,1,0,3:0:0:0:
192,192,54679,1,0,0:0:0:0:
448,192,54850,1,0,0:0:0:0:
64,192,55021,1,0,3:0:0:0:
320,192,55021,1,8,0:0:0:0:
192,192,55193,1,0,0:0:0:0:
448,192,55364,1,0,3:0:0:0:
64,192,55364,1,0,0:0:0:0:
320,192,55536,1,0,0:0:0:0:
192,192,55707,1,8,0:0:0:0:
64,192,55707,1,0,3:0:0:0:
448,192,55879,1,0,0:0:0:0:
320,192,56050,1,0,3:0:0:0:
192,192,56050,1,0,0:0:0:0:
64,192,56221,1,0,0:0:0:0:
320,192,56393,1,0,3:0:0:0:
448,192,56393,1,8,0:0:0:0:
192,192,56564,1,0,3:0:0:0:
320,192,56564,1,0,0:0:0:0:
64,192,56736,1,8,3:0:0:0:
192,192,56736,1,4,0:0:0:0:
448,192,56736,1,0,0:0:0:0:
64,192,56907,1,0,3:0:0:0:
320,192,57079,1,0,3:0:0:0:
448,192,57250,1,0,0:0:0:0:
192,192,57250,1,4,0:0:0:0:
64,192,57250,1,8,3:0:0:0:
448,192,57421,1,0,3:0:0:0:
64,192,57593,1,0,3:0:0:0:
448,192,57764,1,8,3:0:0:0:
320,192,57764,1,4,0:0:0:0:
192,192,57764,1,0,0:0:0:0:
320,192,57936,1,0,3:0:0:0:
192,192,58107,1,4,0:0:0:0:
448,192,58107,1,0,0:0:0:0:
64,192,58107,1,8,3:0:0:0:
64,192,58279,1,0,3:0:0:0:
320,192,58450,1,0,3:0:0:0:
64,192,58621,1,0,0:0:0:0:
192,192,58621,1,4,0:0:0:0:
448,192,58621,1,8,3:0:0:0:
192,192,58793,1,0,3:0:0:0:
448,192,58964,1,0,3:0:0:0:
320,192,59136,1,0,0:0:0:0:
192,192,59136,1,4,0:0:0:0:
64,192,59136,1,8,3:0:0:0:
192,192,59307,1,0,3:0:0:0:
320,192,59479,1,4,0:0:0:0:
64,192,59479,1,8,3:0:0:0:
448,192,59479,1,0,0:0:0:0:
192,192,59650,1,8,3:0:0:0:
64,192,59650,1,0,0:0:0:0:
320,192,59821,1,8,3:0:0:0:
448,192,59821,1,0,0:0:0:0:
192,192,59993,1,8,3:0:0:0:
64,192,59993,1,0,0:0:0:0:
448,192,60164,1,8,3:0:0:0:
320,192,60250,1,8,3:0:0:0:
64,192,60336,1,8,3:0:0:0:
192,192,60421,1,8,3:0:0:0:
320,192,60507,1,8,3:0:0:0:
64,192,60593,1,8,3:0:0:0:
448,192,60679,1,4,0:0:0:0:
192,192,60679,1,8,3:0:0:0:
320,192,60679,1,0,0:0:0:0:
64,192,61021,1,4,0:0:0:0:
192,192,61021,1,0,0:0:0:0:
320,192,61021,1,0,3:0:0:0:
448,192,61364,1,0,3:0:0:0:
192,192,61364,1,4,0:0:0:0:
320,192,61364,128,0,61450:0:0:0:0:
64,192,61536,128,0,61621:0:0:0:0:
448,192,61621,128,0,61707:0:0:0:0:
192,192,61707,128,0,61793:0:0:0:0:
320,192,61793,128,0,61879:0:0:0:0:
64,192,61879,128,8,62221:0:0:0:0:
448,192,62221,1,0,3:0:0:0:
192,192,62221,1,4,0:0:0:0:
320,192,62393,1,0,0:0:0:0:
192,192,62564,1,0,3:0:0:0:
448,192,62564,1,8,0:0:0:0:
64,192,62736,1,0,0:0:0:0:
192,192,62907,1,0,3:0:0:0:
320,192,62907,1,0,0:0:0:0:
448,192,63079,1,0,0:0:0:0:
192,192,63250,1,8,0:0:0:0:
64,192,63250,1,0,3:0:0:0:
320,192,63421,1,0,0:0:0:0:
448,192,63593,1,0,3:0:0:0:
192,192,63593,1,0,0:0:0:0:
64,192,63764,1,0,0:0:0:0:
192,192,63936,1,0,3:0:0:0:
320,192,63936,1,8,0:0:0:0:
448,192,64107,1,0,0:0:0:0:
64,192,64279,1,0,3:0:0:0:
320,192,64279,1,0,0:0:0:0:
192,192,64450,1,0,0:0:0:0:
448,192,64621,1,8,0:0:0:0:
320,192,64621,1,0,3:0:0:0:
64,192,64793,1,0,0:0:0:0:
448,192,64964,1,0,0:0:0:0:
192,192,64964,1,0,3:0:0:0:
64,192,65136,1,0,0:0:0:0:
192,192,65221,1,0,0:0:0:0:
448,192,65307,1,0,3:0:0:0:
320,192,65307,1,8,0:0:0:0:
64,192,65393,1,0,0:0:0:0:
448,192,65479,1,0,0:0:0:0:
320,192,65564,1,0,0:0:0:0:
192,192,65650,1,0,0:0:0:0:
64,192,65650,1,0,3:0:0:0:
448,192,65736,1,0,0:0:0:0:
64,192,65821,1,0,0:0:0:0:
192,192,65907,1,0,0:0:0:0:
320,192,65993,1,0,3:0:0:0:
448,192,65993,1,8,0:0:0:0:
64,192,66079,1,0,0:0:0:0:
448,192,66164,1,0,0:0:0:0:
320,192,66250,1,0,0:0:0:0:
192,192,66336,1,0,0:0:0:0:
64,192,66336,1,0,3:0:0:0:
448,192,66507,128,0,66679:0:0:0:0:
320,192,66679,128,8,66850:0:0:0:0:
192,192,66679,1,0,3:0:0:0:
64,192,66850,128,0,67021:0:0:0:0:
192,192,67021,128,0,67193:3:0:0:0:
448,192,67193,128,0,67364:0:0:0:0:
64,192,67364,128,8,67536:0:0:0:0:
320,192,67364,1,0,3:0:0:0:
192,192,67536,1,0,0:0:0:0:
448,192,67707,1,0,0:0:0:0:
320,192,67707,1,0,3:0:0:0:
64,192,67879,1,0,0:0:0:0:
192,192,68050,1,0,3:0:0:0:
448,192,68050,1,8,0:0:0:0:
320,192,68221,1,0,0:0:0:0:
64,192,68393,1,0,3:0:0:0:
448,192,68393,1,0,0:0:0:0:
192,192,68564,1,0,0:0:0:0:
320,192,68736,1,0,3:0:0:0:
64,192,68736,1,8,0:0:0:0:
448,192,68907,1,0,0:0:0:0:
192,192,69079,1,0,3:0:0:0:
320,192,69079,1,0,0:0:0:0:
64,192,69250,1,0,0:0:0:0:
448,192,69421,1,8,0:0:0:0:
192,192,69421,1,0,3:0:0:0:
320,192,69593,1,0,0:0:0:0:
64,192,69764,1,0,3:0:0:0:
448,192,69764,1,0,0:0:0:0:
192,192,69936,1,0,0:0:0:0:
320,192,70107,1,0,3:0:0:0:
64,192,70107,1,8,0:0:0:0:
448,192,70279,1,0,0:0:0:0:
64,192,70450,1,0,3:0:0:0:
320,192,70450,1,0,0:0:0:0:
448,192,70621,1,0,0:0:0:0:
320,192,70707,1,0,0:0:0:0:
64,192,70793,1,0,3:0:0:0:
192,192,70793,1,8,0:0:0:0:
448,192,70879,1,0,0:0:0:0:
320,192,70964,1,0,0:0:0:0:
64,192,71050,1,0,0:0:0:0:
192,192,71136,1,0,0:0:0:0:
448,192,71136,1,0,3:0:0:0:
320,192,71221,1,0,0:0:0:0:
64,192,71307,1,0,0:0:0:0:
448,192,71393,1,0,0:0:0:0:
320,192,71479,1,8,0:0:0:0:
192,192,71479,1,0,3:0:0:0:
448,192,71650,1,0,0:0:0:0:
192,192,71736,1,0,0:0:0:0:
320,192,71821,1,4,0:0:0:0:
64,192,71821,1,0,3:0:0:0:
448,192,71821,1,0,0:0:0:0:
64,192,72079,1,0,0:0:0:0:
192,192,72079,1,4,0:0:0:0:
448,192,72079,1,0,3:0:0:0:
448,192,72336,1,0,0:0:0:0:
320,192,72336,1,4,0:0:0:0:
192,192,72336,1,0,3:0:0:0:
64,192,72507,1,0,0:0:0:0:
192,192,72507,1,4,0:0:0:0:
320,192,72507,1,0,3:0:0:0:
448,192,72764,1,0,0:0:0:0:
64,192,72764,1,0,3:0:0:0:
320,192,72764,1,4,0:0:0:0:
64,192,73021,1,0,0:0:0:0:
192,192,73021,1,4,0:0:0:0:
448,192,73021,1,0,3:0:0:0:
448,192,73193,1,0,0:0:0:0:
320,192,73193,1,4,0:0:0:0:
192,192,73193,1,0,3:0:0:0:
64,192,73364,1,0,0:0:0:0:
192,192,73536,1,0,3:0:0:0:
448,192,73536,1,8,0:0:0:0:
320,192,73707,1,0,0:0:0:0:
64,192,73879,1,0,3:0:0:0:
192,192,73879,1,0,0:0:0:0:
448,192,74050,1,0,0:0:0:0:
320,192,74221,1,8,0:0:0:0:
192,192,74221,1,0,3:0:0:0:
64,192,74393,1,0,0:0:0:0:
448,192,74564,1,0,0:0:0:0:
192,192,74564,1,0,3:0:0:0:
320,192,74736,1,0,0:0:0:0:
64,192,74907,1,8,0:0:0:0:
448,192,74907,1,0,3:0:0:0:
192,192,75079,1,0,0:0:0:0:
320,192,75250,1,0,3:0:0:0:
64,192,75250,1,0,0:0:0:0:
448,192,75421,1,0,0:0:0:0:
192,192,75593,1,0,3:0:0:0:
320,192,75593,1,8,0:0:0:0:
64,192,75764,1,0,0:0:0:0:
448,192,75936,1,0,0:0:0:0:
192,192,75936,1,0,3:0:0:0:
192,192,76107,1,0,0:0:0:0:
64,192,76193,1,0,0:0:0:0:
320,192,76279,1,8,0:0:0:0:
448,192,76279,1,0,3:0:0:0:
192,192,76364,1,0,0:0:0:0:
320,192,76450,1,0,0:0:0:0:
448,192,76536,1,0,0:0:0:0:
64,192,76621,1,0,3:0:0:0:
192,192,76621,1,0,0:0:0:0:
320,192,76707,1,0,0:0:0:0:
192,192,76793,1,0,0:0:0:0:
64,192,76879,1,0,0:0:0:0:
448,192,76964,1,8,0:0:0:0:
320,192,76964,1,0,3:0:0:0:
192,192,77050,1,0,0:0:0:0:
320,192,77136,1,0,0:0:0:0:
448,192,77221,1,0,0:0:0:0:
64,192,77307,1,0,3:0:0:0:
192,192,77307,1,0,0:0:0:0:
320,192,77479,128,0,77650:0:0:0:0:
64,192,77650,128,8,77821:0:0:0:0:
448,192,77650,1,0,3:0:0:0:
192,192,77821,128,0,77993:0:0:0:0:
448,192,77993,128,0,78164:3:0:0:0:
320,192,78164,128,0,78336:0:0:0:0:
64,192,78336,128,0,78507:3:0:0:0:
192,192,78336,1,8,0:0:0:0:
448,192,78507,1,0,0:0:0:0:
192,192,78679,1,0,0:0:0:0:
320,192,78679,1,8,3:0:0:0:
64,192,78679,1,4,0:0:0:0:
448,192,79021,1,8,0:0:0:0:
320,192,79021,1,0,0:0:0:0:
192,192,79021,1,8,3:0:0:0:
64,192,79364,1,0,0:0:0:0:
320,192,79364,1,8,3:0:0:0:
448,192,79364,1,0,0:0:0:0:
64,192,79707,1,0,0:0:0:0:
192,192,79707,1,8,3:0:0:0:
448,192,79707,1,8,0:0:0:0:
448,192,80050,1,0,0:0:0:0:
320,192,80050,1,8,3:0:0:0:
192,192,80050,1,4,0:0:0:0:
64,192,80393,1,8,0:0:0:0:
192,192,80393,1,8,3:0:0:0:
320,192,80393,1,0,0:0:0:0:
448,192,80736,1,0,0:0:0:0:
64,192,80736,1,0,0:0:0:0:
320,192,80736,1,8,3:0:0:0:
448,192,81079,1,8,3:0:0:0:
320,192,81079,1,8,3:0:0:0:
192,192,81250,1,0,3:0:0:0:
64,192,81250,1,0,0:0:0:0:
448,192,81421,1,8,3:0:0:0:
320,192,81421,1,4,0:0:0:0:
64,192,81421,1,0,0:0:0:0:
192,192,81593,1,0,3:0:0:0:
448,192,81593,1,0,0:0:0:0:
320,192,81764,1,0,3:0:0:0:
64,192,81764,1,0,0:0:0:0:
192,192,81936,1,0,3:0:0:0:
448,192,81936,1,0,0:0:0:0:
64,192,82107,1,0,3:0:0:0:
320,192,82193,1,0,3:0:0:0:
192,192,82279,1,0,3:0:0:0:
64,192,82364,1,0,3:0:0:0:
448,192,82450,1,0,3:0:0:0:
192,192,82536,1,0,3:0:0:0:
320,192,82621,1,0,3:0:0:0:
448,192,82707,1,0,3:0:0:0:
64,192,82793,1,0,3:0:0:0:
192,192,82793,1,4,0:0:0:0:
320,192,82793,1,0,0:0:0:0:
192,192,83479,1,4,0:0:0:0:
64,192,83479,1,0,3:0:0:0:
320,192,83650,1,0,3:0:0:0:
192,192,83650,1,4,0:0:0:0:
448,192,83821,1,0,3:0:0:0:
320,192,83821,1,4,0:0:0:0:
448,192,84164,1,0,0:0:0:0:
64,192,84164,1,0,3:0:0:0:
192,192,84250,1,0,0:0:0:0:
320,192,84336,1,0,0:0:0:0:
192,192,84421,1,0,0:0:0:0:
448,192,84507,1,8,3:0:0:0:
64,192,84507,1,0,0:0:0:0:
320,192,84593,1,0,0:0:0:0:
192,192,84679,1,0,3:0:0:0:
320,192,84764,1,0,0:0:0:0:
448,192,84850,1,0,0:0:0:0:
64,192,84936,1,0,0:0:0:0:
192,192,85021,1,0,3:0:0:0:
320,192,85107,1,0,0:0:0:0:
448,192,85193,1,8,3:0:0:0:
64,192,85193,1,0,0:0:0:0:
192,192,85364,1,0,3:0:0:0:
320,192,85364,1,0,0:0:0:0:
448,192,85536,1,4,0:0:0:0:
320,192,85536,1,0,0:0:0:0:
64,192,85536,1,0,3:0:0:0:
192,192,85621,1,0,0:0:0:0:
448,192,85707,1,0,0:0:0:0:
320,192,85793,1,0,0:0:0:0:
64,192,85879,1,0,0:0:0:0:
192,192,85964,1,0,0:0:0:0:
448,192,86050,1,0,0:0:0:0:
320,192,86136,1,0,0:0:0:0:
64,192,86221,1,0,3:0:0:0:
192,192,86221,1,4,0:0:0:0:
448,192,86221,1,0,0:0:0:0:
320,192,86564,1,4,0:0:0:0:
64,192,86564,1,0,0:0:0:0:
448,192,86564,1,0,3:0:0:0:
64,192,86907,1,0,3:0:0:0:
192,192,86907,1,0,0:0:0:0:
448,192,86907,1,4,0:0:0:0:
320,192,86993,1,0,0:0:0:0:
192,192,87079,1,0,0:0:0:0:
64,192,87164,1,0,0:0:0:0:
448,192,87250,1,8,0:0:0:0:
320,192,87250,1,0,3:0:0:0:
192,192,87336,1,0,0:0:0:0:
448,192,87421,1,0,0:0:0:0:
64,192,87507,1,0,0:0:0:0:
320,192,87593,1,0,3:0:0:0:
192,192,87679,1,0,0:0:0:0:
320,192,87764,1,0,0:0:0:0:
448,192,87850,1,0,0:0:0:0:
64,192,87936,1,0,3:0:0:0:
192,192,87936,1,8,0:0:0:0:
320,192,88021,1,0,0:0:0:0:
192,192,88107,1,0,0:0:0:0:
64,192,88193,1,0,0:0:0:0:
448,192,88279,1,0,3:0:0:0:
320,192,88364,1,0,0:0:0:0:
192,192,88450,1,0,0:0:0:0:
448,192,88536,1,0,0:0:0:0:
64,192,88621,1,0,3:0:0:0:
320,192,88621,1,8,0:0:0:0:
192,192,88707,1,0,0:0:0:0:
448,192,88793,1,0,0:0:0:0:
64,192,88879,1,0,0:0:0:0:
320,192,88964,1,0,3:0:0:0:
192,192,89050,1,0,0:0:0:0:
320,192,89136,1,0,0:0:0:0:
448,192,89221,1,0,0:0:0:0:
192,192,89307,1,8,0:0:0:0:
64,192,89307,1,0,3:0:0:0:
320,192,89479,1,0,0:0:0:0:
448,192,89479,1,0,0:0:0:0:
64,192,89650,1,0,3:0:0:0:
192,192,89650,1,0,0:0:0:0:
448,192,89736,1,0,0:0:0:0:
320,192,89821,1,0,0:0:0:0:
64,192,89907,1,0,0:0:0:0:
192,192,89993,1,0,3:0:0:0:
448,192,89993,1,8,0:0:0:0:
320,192,90079,1,0,0:0:0:0:
64,192,90164,1,0,0:0:0:0:
448,192,90250,1,0,0:0:0:0:
320,192,90336,1,0,3:0:0:0:
192,192,90421,1,0,0:0:0:0:
320,192,90507,1,0,0:0:0:0:
448,192,90593,1,0,0:0:0:0:
64,192,90679,1,0,3:0:0:0:
192,192,90679,1,8,0:0:0:0:
320,192,90764,1,0,0:0:0:0:
448,192,90850,1,0,0:0:0:0:
64,192,90936,1,0,0:0:0:0:
192,192,91021,1,0,3:0:0:0:
448,192,91107,1,0,0:0:0:0:
320,192,91193,1,0,0:0:0:0:
192,192,91279,1,0,0:0:0:0:
320,192,91364,1,0,3:0:0:0:
64,192,91364,1,8,0:0:0:0:
448,192,91450,1,0,0:0:0:0:
192,192,91536,1,0,0:0:0:0:
320,192,91621,1,0,0:0:0:0:
64,192,91707,1,0,3:0:0:0:
448,192,91707,1,0,0:0:0:0:
192,192,91879,1,0,0:0:0:0:
320,192,91879,1,0,0:0:0:0:
64,192,92050,1,8,0:0:0:0:
448,192,92050,1,0,3:0:0:0:
320,192,92221,1,0,0:0:0:0:
448,192,92393,1,8,3:0:0:0:
64,192,92393,1,4,0:0:0:0:
192,192,92393,1,0,0:0:0:0:
320,192,92564,1,0,0:0:0:0:
192,192,92564,1,0,0:0:0:0:
64,192,92736,1,8,0:0:0:0:
448,192,92736,1,8,3:0:0:0:
320,192,92736,1,0,0:0:0:0:
448,192,92907,1,0,0:0:0:0:
192,192,92907,1,0,0:0:0:0:
192,192,93079,1,0,0:0:0:0:
64,192,93079,1,8,3:0:0:0:
320,192,93079,1,0,0:0:0:0:
448,192,93250,1,0,0:0:0:0:
320,192,93336,1,0,0:0:0:0:
64,192,93336,1,0,0:0:0:0:
192,192,93421,1,0,0:0:0:0:
448,192,93507,1,0,0:0:0:0:
64,192,93593,1,0,0:0:0:0:
192,192,93593,1,0,0:0:0:0:
448,192,93764,1,0,0:0:0:0:
320,192,93764,1,0,0:0:0:0:
64,192,93764,1,8,3:0:0:0:
192,192,93936,1,0,0:0:0:0:
320,192,93936,1,0,0:0:0:0:
192,192,94107,1,8,3:0:0:0:
448,192,94107,1,8,0:0:0:0:
64,192,94107,1,0,0:0:0:0:
448,192,94279,1,0,0:0:0:0:
320,192,94364,1,0,0:0:0:0:
192,192,94364,1,0,0:0:0:0:
64,192,94450,1,8,3:0:0:0:
320,192,94536,1,0,0:0:0:0:
192,192,94621,1,0,0:0:0:0:
448,192,94621,1,0,0:0:0:0:
448,192,94793,1,8,3:0:0:0:
320,192,94793,1,0,0:0:0:0:
64,192,94793,1,0,0:0:0:0:
320,192,94964,1,0,0:0:0:0:
192,192,94964,1,8,3:0:0:0:
192,192,95136,1,0,0:0:0:0:
64,192,95136,1,8,3:0:0:0:
448,192,95136,1,4,0:0:0:0:
320,192,95307,1,0,0:0:0:0:
64,192,95307,1,0,3:0:0:0:
192,192,95479,1,8,0:0:0:0:
448,192,95479,1,0,0:0:0:0:
64,192,95650,1,0,0:0:0:0:
320,192,95650,1,0,3:0:0:0:
448,192,95821,1,0,0:0:0:0:
192,192,95821,1,4,0:0:0:0:
64,192,95821,1,0,3:0:0:0:
448,192,96079,1,0,3:0:0:0:
320,192,96079,1,4,0:0:0:0:
64,192,96079,1,0,0:0:0:0:
64,192,96336,1,0,3:0:0:0:
192,192,96336,1,4,0:0:0:0:
320,192,96336,1,0,0:0:0:0:
448,192,96507,1,4,0:0:0:0:
320,192,96507,1,0,0:0:0:0:
192,192,96507,1,0,3:0:0:0:
64,192,96764,1,0,3:0:0:0:
192,192,96764,1,0,0:0:0:0:
448,192,96764,1,4,0:0:0:0:
448,192,97021,1,0,0:0:0:0:
320,192,97021,1,0,3:0:0:0:
64,192,97021,1,4,0:0:0:0:
192,192,97193,1,0,3:0:0:0:
448,192,97279,1,0,3:0:0:0:
320,192,97364,1,0,3:0:0:0:
64,192,97450,1,0,3:0:0:0:
192,192,97536,1,0,3:0:0:0:
448,192,97621,1,0,3:0:0:0:
64,192,97707,1,0,3:0:0:0:
320,192,97793,1,0,3:0:0:0:
448,192,97879,1,4,0:0:0:0:
64,192,97879,128,0,99079:0:0:0:0:
192,192,97879,128,0,98564:3:0:0:0:
