osu file format v14

[General]
AudioFilename: audio.mp3
AudioLeadIn: 0
PreviewTime: 33449
Countdown: 0
SampleSet: Soft
StackLeniency: 0.2
Mode: 0
LetterboxInBreaks: 0
WidescreenStoryboard: 1

[Editor]
Bookmarks: 15779,23914,64592,72728,82897,97134
DistanceSpacing: 2.2
BeatDivisor: 4
GridSize: 4
TimelineZoom: 1.2

[Metadata]
Title:INM Heaven Fever ~Kitanai Wrestler Kaiken~
TitleUnicode:みんなのインム天国~汚いレスラー会見~
Artist:MUR/KMR/YJSNPI
ArtistUnicode:三浦&木村&野獣先輩
Creator:Akino Hana
Version:Soudayo
Source:
Tags:inm mur kmr yjsnpi senpai 114514 810 真夏の夜の淫夢 manatsu no yoru no inmu
BeatmapID:2175599
BeatmapSetID:1040995

[Difficulty]
HPDrainRate:5
CircleSize:5
OverallDifficulty:7.5
ApproachRate:9
SliderMultiplier:2.2
SliderTickRate:3

[Events]
//Background and Video events
0,0,"Snipaste_2019-09-22_20-21-13.png",0,0
//Break Periods
2,5682,15029
//Storyboard Layer 0 (Background)
//Storyboard Layer 1 (Fail)
//Storyboard Layer 2 (Pass)
//Storyboard Layer 3 (Foreground)
//Storyboard Layer 4 (Overlay)
//Storyboard Sound Samples

[TimingPoints]
144,508.474576271186,4,2,1,100,1,0
144,-133.333333333333,4,2,1,35,0,0
15779,508.474576271186,4,2,1,100,1,0
15779,-100,4,1,1,80,0,0
23914,-100,4,2,1,60,0,0
31033,-40,4,2,1,60,0,1
32050,-100,4,2,1,60,0,0
35101,-40,4,2,1,75,0,1
35863,-40,4,2,1,60,0,1
36117,-100,4,2,1,60,0,0
39423,-100,4,2,1,60,0,1
39677,-50,4,2,1,60,0,1
40185,-100,4,2,1,60,0,0
43490,-50,4,2,1,60,0,1
43745,-40,4,2,1,60,0,1
44253,-100,4,2,1,60,0,0
47304,-31.25,4,2,1,80,0,1
48321,-100,4,2,1,60,0,0
51372,-31.25,4,2,1,80,0,1
52389,-100,4,2,1,60,0,0
54423,-133.333333333333,4,2,1,70,0,0
54931,-40,4,2,1,70,0,1
55185,-40,4,2,1,70,0,0
55694,-40,4,2,1,70,0,1
55948,-30.3030303030303,4,2,1,70,0,1
56456,-100,4,2,1,60,0,0
57982,-40,4,2,1,70,0,1
58490,-40,4,2,1,70,0,0
59507,-33.3333333333333,4,2,1,80,0,1
60524,-100,4,2,1,60,0,0
63829,-40,4,2,1,70,0,1
64592,-100,4,2,1,70,0,0
65609,-33.3333333333333,4,2,1,80,0,1
66626,-100,4,2,1,70,0,0
67897,-30.3030303030303,4,2,1,90,0,1
68151,-27.027027027027,4,2,1,90,0,1
68660,-100,4,2,1,70,0,0
70185,-33.3333333333333,4,2,1,80,0,1
71202,-100,4,2,1,70,0,0
71711,-100,4,2,1,50,0,0
72728,-100,4,2,1,70,0,0
76287,-33.3333333333333,4,2,1,80,0,1
77812,-25,4,2,1,85,0,1
78321,-20,4,2,1,90,0,1
78829,-33.3333333333333,4,2,1,80,0,1
79846,-50,4,2,1,80,0,1
80355,-25,4,2,1,85,0,1
81372,-100,4,2,1,50,0,0
82897,-100,4,2,1,70,0,0
90143,-100,4,2,1,80,0,1
90651,-50,4,2,1,80,0,1
91033,-100,4,2,1,80,0,0
96245,-40,4,2,1,80,0,1
97134,-100,4,2,1,90,0,1
98151,-50,4,2,1,90,0,1
98660,-100,4,2,1,90,0,1
99677,-26.3157894736842,4,2,1,90,0,1
101202,-25,4,2,1,100,0,1
103363,-25,4,2,1,70,0,0
104762,-25,4,2,1,40,0,0
105778,-25,4,2,1,30,0,0
107304,-25,4,2,1,10,0,0

[Colours]
Combo1 : 221,81,81
Combo2 : 160,131,226
Combo3 : 115,210,135
Combo4 : 99,140,234

[HitObjects]
256,192,144,5,2,0:0:0:0:
256,192,398,1,2,0:0:0:0:
256,44,906,5,0,0:0:0:0:
256,120,1160,1,2,0:0:0:0:
256,192,1415,1,8,0:0:0:0:
308,244,1669,1,0,0:0:0:0:
336,268,1796,1,0,0:0:0:0:
376,268,1923,1,0,0:0:0:0:
388,232,2050,1,0,0:0:0:0:
360,208,2177,1,0,0:0:0:0:
324,204,2305,1,0,0:0:0:0:
308,244,2432,5,8,0:0:0:0:
204,244,2686,1,0,0:0:0:0:
360,208,2940,5,8,1:0:0:0:
256,312,3194,1,8,1:0:0:0:
152,208,3449,1,8,1:0:0:0:
256,104,3703,2,0,B|272:116|288:116|304:100|304:80|296:60|268:52|248:52|228:60|208:72|204:88|204:112|216:136|232:148|256:156|272:156|292:152|312:140|336:120|336:92|336:76|332:52|308:32|284:28|260:24|240:28|220:36|204:44|196:52|192:68|184:88|180:108|180:124|192:148|204:164|216:172|236:180|256:184|280:180|296:176|308:172|320:164|332:132,1,577.500022029878,8|2,1:0|0:0,0:0:0:0:
408,68,15779,5,0,0:0:0:0:
300,68,16033,1,0,0:0:0:0:
300,176,16287,1,8,0:0:0:0:
300,232,16414,1,0,0:0:0:0:
244,232,16541,1,0,0:0:0:0:
188,232,16668,1,0,0:0:0:0:
76,232,16923,1,0,0:0:0:0:
76,124,17177,1,0,0:0:0:0:
132,124,17304,1,8,0:0:0:0:
188,124,17431,1,0,0:0:0:0:
132,124,17558,5,0,0:0:0:0:
132,124,18067,1,0,0:0:0:0:
176,228,18321,1,8,0:0:0:0:
232,228,18448,1,0,0:0:0:0:
204,276,18575,1,0,0:0:0:0:
148,276,18702,1,0,0:0:0:0:
204,184,18956,1,0,0:0:0:0:
304,276,19211,1,0,0:0:0:0:
352,276,19338,1,8,0:0:0:0:
304,276,19465,1,0,0:0:0:0:
256,276,19592,5,0,0:0:0:0:
256,168,19846,1,0,0:0:0:0:
256,56,20101,1,0,0:0:0:0:
144,112,20355,1,8,0:0:0:0:
144,56,20482,1,0,0:0:0:0:
200,56,20609,1,0,0:0:0:0:
256,56,20736,1,0,0:0:0:0:
364,56,20990,1,0,0:0:0:0:
364,168,21245,1,0,0:0:0:0:
308,168,21372,1,8,0:0:0:0:
364,168,21499,1,0,0:0:0:0:
420,168,21626,1,0,0:0:0:0:
256,228,21880,5,8,0:0:0:0:
188,228,22007,1,0,0:0:0:0:
256,228,22134,1,0,0:0:0:0:
256,156,22389,5,8,0:0:0:0:
324,156,22516,1,0,0:0:0:0:
256,156,22643,1,0,0:0:0:0:
188,300,22897,5,8,0:0:0:0:
120,300,23024,1,0,0:0:0:0:
188,300,23151,1,0,0:0:0:0:
324,84,23406,5,8,0:0:0:0:
392,84,23533,1,0,0:0:0:0:
324,84,23660,1,0,0:0:0:0:
256,192,23914,5,2,0:0:0:0:
236,232,24041,1,0,0:0:0:0:
212,192,24168,1,2,0:0:0:0:
192,232,24295,1,0,0:0:0:0:
172,192,24423,1,8,0:0:0:0:
152,232,24550,1,0,0:0:0:0:
132,192,24677,2,0,L|72:192,2,55,0|0|8,0:0|0:0|1:0,0:0:0:0:
132,24,25440,5,8,0:0:0:0:
132,108,25567,1,0,0:0:0:0:
132,192,25694,1,0,0:0:0:0:
132,192,25948,5,2,0:0:0:0:
132,208,26202,1,8,1:0:0:0:
132,224,26456,1,8,1:0:0:0:
132,240,26711,5,8,1:0:0:0:
132,240,26838,1,8,1:0:0:0:
132,256,27092,5,8,1:0:0:0:
200,256,27346,1,8,1:0:0:0:
200,256,27473,1,8,1:0:0:0:
268,256,27728,1,8,1:0:0:0:
336,256,27982,5,2,0:0:0:0:
376,236,28109,1,0,0:0:0:0:
336,212,28236,1,2,0:0:0:0:
376,192,28363,1,0,0:0:0:0:
336,156,28491,1,8,0:0:0:0:
376,120,28618,1,0,0:0:0:0:
336,84,28745,2,0,L|336:29,2,55,2|2|8,0:0|0:0|1:0,0:0:0:0:
40,96,29507,5,8,0:0:0:0:
124,96,29634,1,0,0:0:0:0:
208,96,29762,1,2,0:0:0:0:
104,224,30016,1,0,1:0:0:0:
136,284,30143,1,0,0:0:0:0:
196,320,30270,1,0,0:0:0:0:
256,224,30397,1,2,0:0:0:0:
316,320,30524,1,8,0:0:0:0:
256,292,31033,2,0,L|256:4,1,275,4|0,0:0|0:0,0:0:0:0:
256,17,31541,2,0,L|256:164,1,137.5,2|0,0:0|0:0,0:0:0:0:
256,154,32050,5,2,0:0:0:0:
304,168,32177,1,0,0:0:0:0:
320,120,32304,1,2,0:0:0:0:
368,136,32431,1,0,0:0:0:0:
352,184,32558,1,8,0:0:0:0:
400,200,32685,1,0,0:0:0:0:
380,248,32812,1,2,0:0:0:0:
332,232,32940,1,0,0:0:0:0:
380,248,33067,1,2,0:0:0:0:
380,248,33575,5,8,0:0:0:0:
420,320,33702,1,0,0:0:0:0:
336,320,33829,1,2,0:0:0:0:
192,320,34084,1,0,1:0:0:0:
136,276,34211,1,0,0:0:0:0:
100,216,34338,1,0,0:0:0:0:
168,160,34465,1,2,0:0:0:0:
100,104,34592,1,8,0:0:0:0:
28,160,35101,2,0,L|348:160,1,275,4|0,0:0|0:0,0:0:0:0:
367,160,35609,1,2,0:0:0:0:
197,160,35863,1,0,0:0:0:0:
28,160,36117,5,2,0:0:0:0:
27,208,36245,1,0,0:0:0:0:
75,208,36372,1,2,0:0:0:0:
75,256,36499,1,0,0:0:0:0:
123,256,36626,1,8,0:0:0:0:
123,304,36753,1,0,0:0:0:0:
171,304,36880,1,2,0:0:0:0:
219,304,37007,1,0,0:0:0:0:
171,304,37134,1,2,0:0:0:0:
75,304,37643,5,8,0:0:0:0:
219,304,37770,1,0,0:0:0:0:
363,304,37897,1,2,0:0:0:0:
363,304,38151,2,0,B|456:308|452:240|360:240,1,165,2|0,0:0|0:0,0:0:0:0:
361,240,38660,1,8,0:0:0:0:
151,240,38914,1,0,0:0:0:0:
361,240,39168,1,2,0:0:0:0:
416,192,39423,2,0,L|508:192,1,55,2|0,0:0|0:0,0:0:0:0:
416,124,39677,2,0,L|104:124,1,220,4|0,0:0|0:0,0:0:0:0:
196,124,40185,5,2,0:0:0:0:
176,176,40312,1,0,0:0:0:0:
156,124,40440,1,2,0:0:0:0:
144,72,40567,1,0,0:0:0:0:
128,124,40694,1,8,0:0:0:0:
112,176,40821,1,0,0:0:0:0:
128,228,40948,1,2,0:0:0:0:
144,280,41075,1,0,0:0:0:0:
88,280,41202,1,2,0:0:0:0:
88,280,41711,5,8,0:0:0:0:
200,280,41838,1,0,0:0:0:0:
312,280,41965,1,2,0:0:0:0:
380,280,42219,2,0,B|379:187|311:191|311:283,1,165,2|0,0:0|0:0,0:0:0:0:
346,336,42728,1,8,0:0:0:0:
346,136,42982,1,0,0:0:0:0:
346,336,43236,1,2,0:0:0:0:
456,136,43490,2,0,L|336:136,1,110,8|0,1:0|0:0,0:0:0:0:
301,190,43745,2,0,B|155:223|155:55|299:79,1,275,8|0,0:0|0:0,0:0:0:0:
346,136,44253,5,2,0:0:0:0:
370,184,44380,1,0,0:0:0:0:
362,240,44507,1,2,0:0:0:0:
414,220,44634,1,0,0:0:0:0:
362,240,44762,1,8,0:0:0:0:
310,260,44889,1,0,0:0:0:0:
258,244,45016,1,2,0:0:0:0:
206,224,45143,1,0,0:0:0:0:
206,280,45270,1,2,0:0:0:0:
414,220,45778,5,8,0:0:0:0:
414,92,45906,1,0,0:0:0:0:
414,220,46033,1,2,0:0:0:0:
296,260,46287,5,0,1:0:0:0:
340,188,46414,1,0,0:0:0:0:
414,220,46541,1,0,0:0:0:0:
296,260,46668,1,2,0:0:0:0:
176,220,46795,1,8,0:0:0:0:
218,291,47304,6,0,B|267:142|267:142|275:120|282:100|284:74|283:54|255:42|233:43|220:59|211:73|206:89|201:105|199:113|196:128,1,352,8|0,1:0|0:0,0:0:0:0:
196,126,47812,2,0,B|199:111|201:103|206:87|211:71|220:57|233:41|255:40|283:52|284:72|282:98|275:120|275:119,1,176,2|0,0:0|0:0,0:0:0:0:
272,120,48321,5,2,0:0:0:0:
328,120,48448,1,0,0:0:0:0:
328,64,48575,5,2,0:0:0:0:
328,120,48702,1,2,0:0:0:0:
328,176,48829,5,8,0:0:0:0:
328,120,48956,1,0,0:0:0:0:
384,120,49084,5,2,0:0:0:0:
328,120,49211,1,0,0:0:0:0:
272,120,49338,1,2,0:0:0:0:
108,120,49719,1,0,0:0:0:0:
108,184,49846,1,8,0:0:0:0:
108,312,50101,1,2,0:0:0:0:
108,248,50228,1,2,0:0:0:0:
168,216,50355,2,0,L|236:216,1,55,8|0,1:0|0:0,0:0:0:0:
343,216,50609,2,0,L|288:216,1,55
256,164,50863,5,8,0:0:0:0:
256,164,51372,2,0,B|256:92|256:92|232:80|216:60|228:32|255:17|295:28|298:59|284:82|237:106|259:258,1,352,2|0,0:0|0:0,0:0:0:0:
255,224,51880,2,0,B|236:105|283:81|297:58|294:27|254:16|227:31|215:59|231:79|255:91|255:163,1,176,2|2,0:0|0:0,0:0:0:0:
276,52,52389,5,2,0:0:0:0:
340,52,52516,1,0,0:0:0:0:
340,116,52643,1,2,0:0:0:0:
276,116,52770,1,2,0:0:0:0:
276,180,52897,1,8,0:0:0:0:
276,244,53024,1,0,0:0:0:0:
276,180,53151,1,2,0:0:0:0:
220,212,53278,1,0,0:0:0:0:
220,276,53406,1,2,0:0:0:0:
480,276,53914,1,8,0:0:0:0:
480,192,54041,1,0,0:0:0:0:
480,108,54168,1,2,0:0:0:0:
480,108,54423,6,0,L|368:108,1,82.5000031471254,2|2,0:0|0:0,0:0:0:0:
396,108,54931,2,0,L|98:108,1,275,8|2,0:0|0:0,0:0:0:0:
120,108,55440,1,2,0:0:0:0:
120,108,55694,6,0,B|60:144|60:144|120:176,1,137.5,0|0,1:0|0:0,0:0:0:0:
148,48,55948,2,0,B|-8:144|-8:144|152:240,1,363.000003461838,8|2,1:0|0:0,0:0:0:0:
180,144,56456,5,2,0:0:0:0:
180,144,56584,1,0,0:0:0:0:
244,144,56711,1,2,0:0:0:0:
308,144,56838,1,2,0:0:0:0:
276,200,56965,1,8,0:0:0:0:
276,264,57092,1,0,0:0:0:0:
308,320,57219,1,2,0:0:0:0:
244,320,57346,1,2,0:0:0:0:
276,264,57473,1,8,1:0:0:0:
408,264,57728,1,2,0:0:0:0:
408,264,57982,6,0,B|476:160|408:136|408:136|340:160|412:272,1,275,8|2,0:0|0:0,0:0:0:0:
408,264,58490,1,0,1:0:0:0:
368,200,58617,1,0,0:0:0:0:
408,136,58744,1,0,0:0:0:0:
448,200,58872,1,2,0:0:0:0:
408,264,58999,1,8,0:0:0:0:
408,264,59507,6,0,B|368:276|364:304|368:324|376:348|392:360|416:368|448:360|460:348|468:332|472:308|472:288|460:268|432:260|408:260|408:260|192:260,1,495.000018882752,4|0,0:0|0:0,0:0:0:0:
195,260,60016,2,0,B|408:260|408:260|432:260|460:268|472:288|472:308|468:332|460:348|448:360|416:368|392:360|376:348|368:324|364:304|368:276,1,330.000012588501,2|0,0:0|0:0,0:0:0:0:
419,307,60524,5,2,0:0:0:0:
419,307,60651,1,0,0:0:0:0:
419,243,60778,1,2,0:0:0:0:
419,243,60906,1,2,0:0:0:0:
419,179,61033,1,8,0:0:0:0:
419,179,61160,1,0,0:0:0:0:
419,179,61287,5,2,0:0:0:0:
419,243,61414,1,0,0:0:0:0:
419,307,61541,1,8,1:0:0:0:
156,308,62050,1,8,0:0:0:0:
240,308,62177,1,0,0:0:0:0:
200,236,62304,1,2,0:0:0:0:
200,236,62558,6,0,L|104:236,2,55,4|0|2,0:0|0:0|0:0,0:0:0:0:
312,148,63067,2,0,L|408:148,2,55,8|0|2,0:0|0:0|0:0,0:0:0:0:
256,192,63575,1,2,0:0:0:0:
116,164,63829,2,0,B|98:153|87:142|99:121|115:126|132:136|132:136|187:169,1,137.5,8|0,1:0|0:0,0:0:0:0:
396,220,64084,2,0,B|413:230|424:241|412:262|396:257|379:247|379:247|324:214,1,137.5,8|0,1:0|0:0,0:0:0:0:
256,192,64592,5,2,0:0:0:0:
256,48,64846,1,2,0:0:0:0:
256,120,64973,1,0,0:0:0:0:
256,192,65101,1,8,0:0:0:0:
256,192,65355,5,2,0:0:0:0:
332,204,65609,2,0,B|448:228|448:228|356:244,1,165.000006294251,0|0,1:0|0:0,0:0:0:0:
180,204,65863,2,0,B|64:228|64:228|156:244,1,165.000006294251,2|0,0:0|0:0,0:0:0:0:
256,264,66117,2,0,L|256:84,1,165.000006294251,2|0,0:0|0:0,0:0:0:0:
256,99,66372,1,2,0:0:0:0:
400,100,66626,5,2,0:0:0:0:
400,172,66753,1,0,0:0:0:0:
432,236,66880,1,2,0:0:0:0:
400,300,67007,1,2,0:0:0:0:
328,300,67134,1,8,0:0:0:0:
364,236,67389,5,2,0:0:0:0:
400,172,67643,1,2,0:0:0:0:
436,108,67897,2,0,L|208:108,1,165.000006294251,8|0,0:0|0:0,0:0:0:0:
196,172,68151,2,0,L|400:172,1,203.499999223709,8|0,0:0|0:0,0:0:0:0:
400,172,68660,5,2,0:0:0:0:
400,316,68914,1,2,0:0:0:0:
256,316,69168,1,0,1:0:0:0:
256,244,69295,1,0,0:0:0:0:
184,244,69423,1,0,0:0:0:0:
112,244,69550,1,2,0:0:0:0:
112,316,69677,1,6,0:0:0:0:
256,316,69931,1,2,0:0:0:0:
256,244,70185,6,0,B|368:244|368:244|276:216|276:216|344:216|344:216|312:192|304:168,1,330.000012588501,8|0,0:0|0:0,0:0:0:0:
255,109,70694,2,0,B|367:109|367:109|275:137|275:137|343:137|343:137|311:161|306:176,1,330.000012588501,2|2,0:0|0:0,0:0:0:0:
306,175,71202,2,0,L|240:176,1,55,8|0,0:0|0:0,0:0:0:0:
306,175,71456,2,0,L|376:176,1,55,2|2,0:0|0:0,0:0:0:0:
306,175,71711,5,2,0:0:0:0:
306,175,72050,1,2,0:0:0:0:
306,175,72389,1,8,0:0:0:0:
306,107,72728,5,2,0:0:0:0:
306,175,72982,1,2,0:0:0:0:
246,143,73236,1,8,0:0:0:0:
366,143,73490,1,2,0:0:0:0:
306,39,73745,1,2,0:0:0:0:
306,243,73999,1,2,0:0:0:0:
178,143,74253,1,8,0:0:0:0:
434,143,74507,1,2,0:0:0:0:
500,144,74762,5,2,0:0:0:0:
468,208,74889,1,0,0:0:0:0:
432,144,75016,1,2,0:0:0:0:
396,208,75143,1,2,0:0:0:0:
364,144,75270,1,8,0:0:0:0:
432,0,75524,1,2,0:0:0:0:
432,72,75651,1,0,0:0:0:0:
432,144,75778,1,2,0:0:0:0:
432,268,76033,2,0,L|352:268,1,55,8|0,1:0|0:0,0:0:0:0:
377,268,76287,2,0,L|52:268,1,165.000006294251,8|0,1:0|0:0,0:0:0:0:
212,268,76541,1,2,0:0:0:0:
80,128,76795,5,0,1:0:0:0:
168,80,76923,1,0,0:0:0:0:
256,128,77050,1,2,0:0:0:0:
344,80,77177,1,2,0:0:0:0:
432,128,77305,1,8,0:0:0:0:
256,328,77812,2,0,B|256:232|256:232|228:220|195:226|195:226|279:220|315:224|315:224|222:195|222:195|256:204|299:193|299:193,1,440,2|0,1:0|0:0,0:0:0:0:
260,24,78321,2,0,B|248:52|236:68|236:68|280:68|280:68|212:92|212:92|256:88|304:92|304:92|180:132|180:132|264:124|344:132|344:132,1,550,8|0,0:0|0:0,0:0:0:0:
420,204,78829,6,0,L|56:204,1,330.000012588501,2|0,0:0|0:0,0:0:0:0:
88,204,79338,1,8,0:0:0:0:
256,204,79592,1,2,0:0:0:0:
424,204,79846,2,0,B|412:96|412:96|396:228,1,220,8|0,1:0|0:0,0:0:0:0:
256,204,80355,2,0,B|236:152|236:152|244:136|244:136|240:112|240:112|256:91|256:91|272:112|272:112|268:136|268:136|276:152|276:152|265:201|265:201|284:244|284:244|256:277|256:277|228:244|228:244|244:182,1,440,8|0,0:0|0:0,0:0:0:0:
88,204,80863,2,0,B|100:96|100:96|116:228,1,220,2|0,0:0|0:0,0:0:0:0:
256,204,81372,5,0,0:0:0:0:
256,192,81499,12,0,82643,0:0:0:0:
256,192,82897,5,2,0:0:0:0:
328,192,83024,1,0,0:0:0:0:
292,132,83151,1,2,0:0:0:0:
364,132,83278,1,0,0:0:0:0:
328,68,83406,1,8,0:0:0:0:
256,68,83533,1,0,0:0:0:0:
220,132,83660,1,2,0:0:0:0:
256,192,83787,1,2,0:0:0:0:
292,132,83914,1,2,0:0:0:0:
328,68,84423,5,8,0:0:0:0:
256,192,84550,1,0,0:0:0:0:
188,312,84677,1,2,0:0:0:0:
188,312,84931,5,2,0:0:0:0:
116,312,85058,1,0,0:0:0:0:
152,252,85185,1,2,0:0:0:0:
80,252,85312,1,0,0:0:0:0:
44,312,85440,1,8,0:0:0:0:
116,312,85567,1,0,0:0:0:0:
80,252,85694,1,2,0:0:0:0:
116,192,85821,1,2,0:0:0:0:
152,252,85948,1,2,0:0:0:0:
116,192,86456,5,8,0:0:0:0:
256,192,86584,1,0,0:0:0:0:
396,192,86711,1,2,0:0:0:0:
396,192,86965,5,2,0:0:0:0:
396,264,87092,1,0,0:0:0:0:
460,300,87219,1,2,0:0:0:0:
460,228,87346,1,0,0:0:0:0:
396,192,87473,1,8,0:0:0:0:
396,264,87601,1,0,0:0:0:0:
336,300,87728,1,2,0:0:0:0:
332,228,87855,1,2,0:0:0:0:
396,192,87982,1,2,0:0:0:0:
256,192,88236,5,2,0:0:0:0:
256,192,88363,1,2,0:0:0:0:
304,140,88490,2,0,L|337:96,1,55,8|0,0:0|0:0,0:0:0:0:
208,140,88745,2,0,L|175:96,1,55,2|0,0:0|0:0,0:0:0:0:
68,92,88999,2,0,B|68:116|68:132|74:145|87:149|100:144|104:132|104:116|104:92,1,110,4|2,0:0|0:0,0:0:0:0:
84,28,89507,1,8,0:0:0:0:
84,208,89762,2,0,L|16:208,2,55,2|8|0,0:0|1:0|0:0,0:0:0:0:
136,260,90143,6,0,L|204:260,1,55,0|0,0:0|1:0,0:0:0:0:
136,156,90397,2,0,L|204:156,1,55,0|0,0:0|1:0,0:0:0:0:
244,208,90651,2,0,L|404:208,1,110,0|0,0:0|1:0,0:0:0:0:
356,208,91033,5,2,0:0:0:0:
432,208,91160,1,0,0:0:0:0:
396,140,91287,1,2,0:0:0:0:
472,140,91414,1,0,0:0:0:0:
432,72,91541,1,8,0:0:0:0:
508,72,91668,1,0,0:0:0:0:
396,140,91795,1,2,0:0:0:0:
396,4,91923,1,2,0:0:0:0:
396,140,92050,1,2,0:0:0:0:
396,140,92558,5,8,0:0:0:0:
256,192,92685,1,0,0:0:0:0:
116,140,92812,1,2,0:0:0:0:
116,140,93067,5,2,0:0:0:0:
184,224,93194,1,0,0:0:0:0:
216,124,93321,1,2,0:0:0:0:
256,192,93448,1,0,0:0:0:0:
296,124,93575,1,8,0:0:0:0:
328,224,93702,1,0,0:0:0:0:
396,140,93829,1,2,0:0:0:0:
256,268,93956,1,2,0:0:0:0:
396,140,94084,1,2,0:0:0:0:
396,140,94592,5,8,0:0:0:0:
396,268,94719,1,2,0:0:0:0:
396,204,95101,6,0,L|256:204,1,110,4|2,0:0|0:0,0:0:0:0:
212,204,95609,2,0,L|212:136,1,55,8|2,0:0|0:0,0:0:0:0:
136,148,95863,2,0,L|136:224,1,55,2|0,0:0|0:0,0:0:0:0:
212,204,96117,1,2,0:0:0:0:
213,272,96245,2,0,L|76:272,1,137.5,0|8,0:0|1:0,0:0:0:0:
74,76,96499,2,0,L|212:76,1,137.5,0|8,0:0|1:0,0:0:0:0:
212,76,96880,1,0,0:0:0:0:
212,76,97134,5,0,1:0:0:0:
304,136,97262,1,0,0:0:0:0:
208,192,97389,1,2,0:0:0:0:
304,248,97516,1,2,0:0:0:0:
212,308,97644,1,8,0:0:0:0:
212,308,98151,2,0,B|136:308|136:308|200:280|200:280|120:280,1,220,4|0,0:0|0:0,0:0:0:0:
124,280,98660,5,8,0:0:0:0:
148,160,98787,1,0,0:0:0:0:
256,104,98914,1,2,0:0:0:0:
364,160,99041,1,2,0:0:0:0:
388,280,99168,1,8,1:0:0:0:
388,280,99677,2,0,B|400:304|412:320|440:328|464:320|480:304|484:280|484:256|476:232|452:220|428:216|404:224|388:244|392:268|372:276|356:288|328:296|296:296|269:290|248:272|236:256|230:234|235:217|247:200,1,417.999988838196,6|2,0:0|0:0,0:0:0:0:
256,192,100185,5,0,1:0:0:0:
336,128,100312,1,0,0:0:0:0:
176,128,100440,1,2,0:0:0:0:
336,256,100567,1,2,0:0:0:0:
176,256,100695,1,8,0:0:0:0:
176,256,101202,2,0,B|140:229|124:196|124:196|101:273|93:325|90:351|84:371|76:373|56:381|31:386|12:375|-6:361|-9:337|-9:316|1:297|21:281|54:274|77:287|94:314|94:341|80:358,1,440,6|2,0:0|0:0,0:0:0:0:
88,312,101711,5,8,0:0:0:0:
360,312,101838,1,0,0:0:0:0:
360,44,101965,1,2,0:0:0:0:
88,44,102092,1,2,0:0:0:0:
224,184,102219,1,8,1:0:0:0:
224,184,102728,6,0,B|245:184|262:198|265:216|267:232|258:253|239:263|219:270|196:266|180:253|168:239|160:216|163:197|178:181|197:170|221:165|235:150|239:131|239:113|234:100|222:88|205:79|205:79|206:137|229:250|236:319|236:319|240:341|227:359|212:366|183:362|167:349|159:333,1,660,6|0,0:0|0:0,0:0:0:0:
179,353,103236,1,4,1:0:0:0:
256,192,103363,12,0,107304,0:0:0:0:
