osu file format v14

[General]
AudioFilename: audio 1.600x.mp3
AudioLeadIn: 0
PreviewTime: 0
Countdown: 0
SampleSet: None
StackLeniency: 0.7
Mode: 0
LetterboxInBreaks: 0
WidescreenStoryboard: 0

[Editor]
Bookmarks: 27059,27917,28345
DistanceSpacing: 1.5
BeatDivisor: 4
GridSize: 8
TimelineZoom: 1

[Metadata]
Title:Hudi
TitleUnicode:Худи
Artist:MUKKA
ArtistUnicode:МУККА
Creator:Ymnaia_Moska
Version:Tekilla Sunrise 1.6x
Source:
Tags:osutrainer
BeatmapID:2866902
BeatmapSetID:1386194

[Difficulty]
HPDrainRate:5
CircleSize:4
OverallDifficulty:10
ApproachRate:10
SliderMultiplier:1.8
SliderTickRate:1

[Events]
//Background and Video events
0,0,"e346a28b48510993e3992ba5d50989c2.jpg",0,0
//Break Periods
//Storyboard Layer 0 (Background)
//Storyboard Layer 1 (Fail)
//Storyboard Layer 2 (Pass)
//Storyboard Layer 3 (Foreground)
//Storyboard Layer 4 (Overlay)
//Storyboard Sound Samples

[TimingPoints]
36,267.857142857143,4,1,0,100,1,0
34055,-133.333333333333,4,1,0,100,0,0

[HitObjects]
32,73,8608,5,0,0:0:0:0:
56,266,8876,1,0,0:0:0:0:
233,104,9144,1,0,0:0:0:0:
370,321,9411,1,0,0:0:0:0:
420,44,9680,5,0,0:0:0:0:
136,192,9948,1,0,0:0:0:0:
221,18,10215,1,0,0:0:0:0:
298,328,10483,1,0,0:0:0:0:
42,141,10751,5,0,0:0:0:0:
352,59,11019,1,0,0:0:0:0:
201,327,11286,1,0,0:0:0:0:
123,46,11555,1,0,0:0:0:0:
384,198,11823,1,0,0:0:0:0:
186,321,12090,5,0,0:0:0:0:
66,65,12358,1,0,0:0:0:0:
321,162,12626,1,0,0:0:0:0:
44,330,12894,1,0,0:0:0:0:
6,44,13161,1,0,0:0:0:0:
238,58,13430,1,0,0:0:0:0:
346,291,13698,1,0,0:0:0:0:
491,93,13965,5,0,0:0:0:0:
218,289,14233,1,0,0:0:0:0:
512,264,14501,1,0,0:0:0:0:
242,60,14769,1,0,0:0:0:0:
426,339,15036,1,0,0:0:0:0:
63,24,16911,5,0,0:0:0:0:
45,162,17180,1,0,0:0:0:0:
352,18,17448,5,0,0:0:0:0:
173,335,17581,1,0,0:0:0:0:
250,26,17715,5,0,0:0:0:0:
389,367,17849,1,0,0:0:0:0:
459,156,17983,5,0,0:0:0:0:
70,152,18117,1,0,0:0:0:0:
452,304,18251,1,0,0:0:0:0:
200,14,18385,1,0,0:0:0:0:
174,344,18519,5,0,0:0:0:0:
36,37,18653,1,0,0:0:0:0:
384,152,18786,1,0,0:0:0:0:
15,255,18921,1,0,0:0:0:0:
277,18,19055,5,0,0:0:0:0:
411,346,19188,1,0,0:0:0:0:
17,135,19323,1,0,0:0:0:0:
422,11,19456,1,0,0:0:0:0:
305,358,19590,1,0,0:0:0:0:
112,15,19724,1,0,0:0:0:0:
381,217,19858,2,0,L|496:244,1,90
422,43,20126,5,0,0:0:0:0:
78,218,20260,1,0,0:0:0:0:
495,118,20394,1,0,0:0:0:0:
276,370,20528,1,0,0:0:0:0:
298,21,20661,1,0,0:0:0:0:
0,293,20795,1,0,0:0:0:0:
360,182,20930,2,0,L|458:171,1,90
169,352,21198,5,0,0:0:0:0:
266,17,21331,1,0,0:0:0:0:
9,133,21465,1,0,0:0:0:0:
452,107,21599,1,0,0:0:0:0:
290,363,21733,1,0,0:0:0:0:
146,10,21867,1,0,0:0:0:0:
189,354,22001,5,0,0:0:0:0:
512,273,22135,1,0,0:0:0:0:
378,22,22269,1,0,0:0:0:0:
260,281,22403,1,0,0:0:0:0:
114,109,22536,1,0,0:0:0:0:
395,111,22671,5,0,0:0:0:0:
140,336,22805,1,0,0:0:0:0:
504,73,22938,5,0,0:0:0:0:
241,372,23073,1,0,0:0:0:0:
459,270,23206,5,0,0:0:0:0:
99,160,23340,1,0,0:0:0:0:
328,352,23474,5,0,0:0:0:0:
277,79,23608,1,0,0:0:0:0:
124,306,23742,1,0,0:0:0:0:
406,191,23876,1,0,0:0:0:0:
124,128,24010,1,0,0:0:0:0:
349,343,24144,1,0,0:0:0:0:
260,57,24278,2,0,P|291:35|341:33,1,90
456,193,24546,1,0,0:0:0:0:
160,366,24680,5,0,0:0:0:0:
339,49,24813,1,0,0:0:0:0:
262,358,24947,5,0,0:0:0:0:
123,17,25081,1,0,0:0:0:0:
330,227,25215,2,0,L|416:199,1,90
60,80,25483,1,0,0:0:0:0:
312,370,25617,1,0,0:0:0:0:
338,40,25751,5,0,0:0:0:0:
476,347,25885,1,0,0:0:0:0:
128,232,26018,1,0,0:0:0:0:
497,129,26153,1,0,0:0:0:0:
235,366,26286,5,0,0:0:0:0:
101,38,26420,1,0,0:0:0:0:
495,249,26555,1,0,0:0:0:0:
90,373,26688,1,0,0:0:0:0:
207,26,26822,1,0,0:0:0:0:
400,369,26956,1,0,0:0:0:0:
26,164,27090,1,0,0:0:0:0:
418,52,27224,1,0,0:0:0:0:
90,341,27358,5,0,0:0:0:0:
434,166,27492,1,0,0:0:0:0:
2,265,27626,1,0,0:0:0:0:
241,12,27760,1,0,0:0:0:0:
223,366,27893,1,0,0:0:0:0:
490,75,28027,1,0,0:0:0:0:
114,185,28161,1,0,0:0:0:0:
512,369,28295,1,0,0:0:0:0:
180,72,28430,2,0,P|227:29|275:28,1,90
503,251,28698,5,0,0:0:0:0:
27,315,28831,1,0,0:0:0:0:
163,73,28965,1,0,0:0:0:0:
366,374,29099,1,0,0:0:0:0:
323,30,29233,5,0,0:0:0:0:
19,95,29367,1,0,0:0:0:0:
463,93,29501,2,0,P|477:143|452:167,1,90
342,365,29769,1,0,0:0:0:0:
62,243,29903,5,0,0:0:0:0:
342,23,30036,1,0,0:0:0:0:
137,311,30170,5,0,0:0:0:0:
271,12,30305,1,0,0:0:0:0:
53,114,30438,5,0,0:0:0:0:
413,224,30572,1,0,0:0:0:0:
137,73,30706,5,0,0:0:0:0:
271,372,30841,1,0,0:0:0:0:
53,270,30975,5,0,0:0:0:0:
413,160,31108,1,0,0:0:0:0:
184,352,31242,5,0,0:0:0:0:
235,79,31376,1,0,0:0:0:0:
388,306,31510,1,0,0:0:0:0:
106,191,31644,1,0,0:0:0:0:
388,128,31778,1,0,0:0:0:0:
163,343,31912,1,0,0:0:0:0:
235,39,32046,1,0,0:0:0:0:
463,303,32180,1,0,0:0:0:0:
56,193,32314,1,0,0:0:0:0:
352,18,32448,5,0,0:0:0:0:
173,335,32581,1,0,0:0:0:0:
239,36,32715,6,0,L|265:137,1,90
459,156,32983,5,0,0:0:0:0:
70,152,33117,1,0,0:0:0:0:
452,304,33251,1,0,0:0:0:0:
200,14,33385,1,0,0:0:0:0:
174,344,33519,5,0,0:0:0:0:
36,37,33653,1,0,0:0:0:0:
290,151,33786,2,0,P|326:110|362:116,1,90
271,320,34055,2,0,B|386:213|408:303|519:180,1,270
