osu file format v14

[General]
AudioFilename: audio.mp3
AudioLeadIn: 0
PreviewTime: 12985
Countdown: 0
SampleSet: Soft
StackLeniency: 0.4
Mode: 0
LetterboxInBreaks: 0
WidescreenStoryboard: 1

[Editor]
Bookmarks: 76985,89785,102585,115385,134585,153785
DistanceSpacing: 0.9
BeatDivisor: 4
GridSize: 32
TimelineZoom: 1.3

[Metadata]
Title:DEVOCHKA S KARE
TitleUnicode:ДЕВОЧКА С КАРЕ
Artist:MUKKA
ArtistUnicode:МУККА
Creator:DendyHere
Version:Collab Insane
Source:
Tags:Rock Рок Russian Русский Punk Testo -Mikan Mikan Daycore MiracleE vanucik
BeatmapID:1997261
BeatmapSetID:956109

[Difficulty]
HPDrainRate:5.5
CircleSize:4
OverallDifficulty:8
ApproachRate:8
SliderMultiplier:2.65
SliderTickRate:1

[Events]
//Background and Video events
0,0,"devochka2.jpg",0,0
//Break Periods
2,77584,89035
//Storyboard Layer 0 (Background)
//Storyboard Layer 1 (Fail)
//Storyboard Layer 2 (Pass)
//Storyboard Layer 3 (Foreground)
//Storyboard Sound Samples

[TimingPoints]
185,400,4,2,22,70,1,0
185,-142.857142857143,4,2,22,70,0,0
9685,-142.857142857143,4,2,22,5,0,0
9785,-142.857142857143,4,2,22,70,0,0
10185,-133.333333333333,4,2,22,70,0,0
10585,-125,4,2,22,70,0,0
10985,-117.647058823529,4,2,22,70,0,0
11385,-111.111111111111,4,2,22,70,0,0
12985,-100,4,2,22,70,0,1
25785,-125,4,2,22,70,0,0
38585,-111.111111111111,4,2,22,70,0,0
51385,-99.9999999999999,4,2,22,70,0,1
76985,-99.9999999999999,4,2,22,70,0,0
89785,-200,4,2,22,50,0,0
102585,-111.111111111111,4,2,22,60,0,0
115385,-100,4,2,22,70,0,1
153785,-100,4,2,22,70,0,0

[Colours]
Combo1 : 234,80,21
Combo2 : 221,226,29
Combo3 : 224,159,63

[HitObjects]
256,192,6585,12,0,9685,0:0:0:0:
94,82,9785,6,0,P|111:120|126:183,1,92.7499971694947,10|8,0:2|0:2,0:0:0:0:
235,39,10185,2,0,P|230:80|212:142,1,99.3750037908555,8|8,0:2|0:2,0:0:0:0:
387,85,10585,2,0,P|362:118|315:163,1,106,10|8,0:2|0:2,0:0:0:0:
451,221,10985,2,0,P|408:240|336:257,1,112.625002148151,8|8,0:2|0:2,0:0:0:0:
204,348,11385,5,10,0:2:0:0:
94,82,11585,1,8,0:2:0:0:
110,312,11785,1,8,0:2:0:0:
180,142,11985,1,8,0:2:0:0:
5,342,12185,6,0,B|74:340|48:297|118:294,3,119.249996360779,2|0|2|2,0:2|0:2|0:2|0:2,0:0:0:0:
270,167,12985,6,0,P|200:269|218:356,1,198.75,4|0,1:2|0:0,0:0:0:0:
209,337,13385,5,8,0:2:0:0:
417,258,13585,1,2,0:2:0:0:
417,258,13685,1,0,3:2:0:0:
417,258,13785,2,0,P|353:241|302:295,1,132.5,2|2,3:2|3:2,0:0:0:0:
488,353,14185,1,10,0:2:0:0:
461,146,14385,1,2,3:2:0:0:
227,244,14585,6,0,B|270:215|326:243|315:257|371:286|419:254,1,198.75,6|0,1:2|0:0,0:0:0:0:
416,257,14985,1,10,0:2:0:0:
395,27,15185,1,2,0:2:0:0:
393,40,15285,1,0,3:2:0:0:
391,53,15385,2,0,P|376:121|375:190,1,132.5,2|2,3:2|3:2,0:0:0:0:
480,65,15785,1,10,0:2:0:0:
307,0,15985,1,2,0:2:0:0:
186,140,16185,6,0,B|271:135|271:135|293:149|293:149|417:141,1,198.75,6|0,3:2|0:0,0:0:0:0:
380,143,16585,1,10,0:2:0:0:
434,321,16785,1,2,3:2:0:0:
434,321,16885,1,0,3:2:0:0:
434,321,16985,2,0,P|370:285|372:207,1,132.5,2|2,3:2|3:2,0:0:0:0:
403,63,17385,1,10,0:2:0:0:
250,260,17585,1,2,0:2:0:0:
117,87,17785,6,0,P|213:88|256:190,1,198.75,6|0,1:2|0:0,0:0:0:0:
250,260,18185,1,10,0:2:0:0:
149,361,18385,1,2,3:2:0:0:
149,361,18485,1,0,3:2:0:0:
149,361,18585,1,2,3:2:0:0:
168,167,18785,1,2,3:2:0:0:
332,292,18985,1,10,0:2:0:0:
66,253,19185,1,2,0:2:0:0:
228,76,19385,6,0,P|276:131|241:241,1,198.75,6|0,1:2|0:0,0:0:0:0:
240,241,19785,1,10,0:2:0:0:
405,365,19985,1,2,0:2:0:0:
405,365,20085,1,0,3:2:0:0:
405,365,20185,2,0,L|419:217,1,132.5,2|2,0:2|3:2,0:0:0:0:
512,70,20585,1,10,0:2:0:0:
345,104,20785,1,2,0:2:0:0:
512,186,20985,6,0,B|414:153|422:232|303:193,1,198.75,6|0,1:2|0:0,0:0:0:0:
318,197,21385,1,10,0:2:0:0:
206,41,21585,1,2,3:2:0:0:
206,41,21685,1,0,3:2:0:0:
206,41,21785,2,0,P|220:105|206:169,1,132.5,2|2,3:2|3:2,0:0:0:0:
107,231,22185,1,10,0:2:0:0:
49,32,22385,1,2,0:2:0:0:
11,188,22585,6,0,B|112:172|111:224|220:200,1,198.75,6|0,1:2|0:0,0:0:0:0:
206,202,22985,1,10,0:2:0:0:
151,355,23185,1,2,3:2:0:0:
136,356,23285,1,0,3:2:0:0:
124,358,23385,2,0,P|109:301|121:217,1,132.5,2|2,3:2|3:2,0:0:0:0:
166,66,23785,1,10,0:2:0:0:
231,295,23985,1,2,0:2:0:0:
320,120,24185,6,0,B|276:89|219:118|235:134|171:163|126:130,1,198.75,6|0,1:2|0:0,0:0:0:0:
132,134,24585,1,10,0:2:0:0:
72,19,24785,1,2,3:2:0:0:
72,19,24885,1,0,3:2:0:0:
72,19,24985,1,2,0:2:0:0:
26,285,25185,1,2,3:2:0:0:
280,192,25385,1,10,0:2:0:0:
132,134,25585,1,2,0:2:0:0:
252,332,25785,6,0,B|310:365|361:340|338:322|399:293|456:328,1,212,2|2,1:2|0:2,0:0:0:0:
512,270,26385,1,2,0:2:0:0:
433,136,26585,2,0,P|452:182|435:234,1,106,2|0,0:2|0:0,0:0:0:0:
272,179,26985,2,0,B|325:164|325:164|382:193,1,106,2|2,0:2|0:2,0:0:0:0:
205,347,27385,6,0,B|136:315|148:228|148:228|185:204|188:151,1,212,2|2,0:2|0:2,0:0:0:0:
157,91,27985,1,2,0:2:0:0:
0,167,28185,2,0,L|112:156,1,106,2|0,0:2|0:0,0:0:0:0:
157,91,28585,1,2,0:2:0:0:
213,208,28785,1,2,0:2:0:0:
401,29,28985,6,0,B|379:140|464:110|443:231,1,212,2|2,0:2|0:2,0:0:0:0:
351,286,29585,1,2,0:2:0:0:
508,306,29785,2,0,P|463:257|407:253,1,106,2|2,0:2|0:2,0:0:0:0:
261,328,30185,2,0,P|325:313|357:267,1,106,2|2,0:2|0:2,0:0:0:0:
206,177,30585,6,0,P|239:261|372:274,1,212,2|2,0:2|0:2,0:0:0:0:
426,250,31185,1,2,0:2:0:0:
320,79,31385,2,0,L|308:205,1,106,2|0,0:2|0:0,0:0:0:0:
227,137,31785,1,2,0:2:0:0:
396,155,31985,1,2,0:2:0:0:
423,24,32185,6,0,B|312:4|330:76|201:43,1,212,2|2,0:2|0:2,0:0:0:0:
135,1,32785,1,2,0:2:0:0:
42,119,32985,2,0,P|55:154|73:240,1,106,2|2,0:2|0:2,0:0:0:0:
143,354,33385,2,0,P|154:302|171:252,1,106,2|2,0:2|0:2,0:0:0:0:
228,130,33785,6,0,B|279:167|333:137|321:121|377:97|430:130,1,212,2|2,0:2|0:2,0:0:0:0:
495,193,34385,1,2,0:2:0:0:
399,305,34585,2,0,P|374:251|386:196,1,106,2|0,0:2|0:0,0:0:0:0:
428,129,34985,1,2,0:2:0:0:
382,53,35185,1,2,0:2:0:0:
197,203,35385,2,0,P|291:250|380:206,1,212,2|2,0:2|0:2,0:0:0:0:
289,142,35985,1,2,0:2:0:0:
447,348,36185,2,0,L|326:330,1,106,2|0,0:2|0:0,0:0:0:0:
289,142,36585,1,2,0:2:0:0:
492,208,36785,1,2,0:2:0:0:
342,332,36985,6,0,P|306:241|360:135,1,212,2|2,0:2|0:2,0:0:0:0:
403,239,37585,1,2,0:2:0:0:
210,235,37785,2,0,B|156:255|96:210|122:198|69:151|9:177,1,212,2|2,0:2|0:2,0:0:0:0:
37,257,38385,1,2,0:2:0:0:
200,26,38585,6,0,P|155:128|226:245,1,238.499992721558,2|10,1:2|0:2,0:0:0:0:
279,101,39185,1,2,0:2:0:0:
271,110,39285,1,0,3:2:0:0:
266,121,39385,1,2,0:2:0:0:
315,220,39585,1,0,3:2:0:0:
476,107,39785,2,0,P|412:102|365:163,1,119.249996360779,10|2,0:2|3:2,0:0:0:0:
485,365,40185,6,0,P|518:250|429:172,1,238.499992721558,2|10,1:2|0:2,0:0:0:0:
387,286,40785,1,2,0:2:0:0:
398,284,40885,1,0,3:2:0:0:
409,282,40985,1,2,0:2:0:0:
295,384,41185,1,0,3:2:0:0:
207,155,41385,2,0,P|245:215|239:282,1,119.249996360779,10|2,0:2|0:2,0:0:0:0:
45,216,41785,5,2,1:2:0:0:
144,238,41985,1,2,0:2:0:0:
241,57,42185,5,10,0:2:0:0:
152,78,42385,1,2,0:2:0:0:
140,80,42485,1,0,3:2:0:0:
128,83,42585,1,2,0:2:0:0:
328,34,42785,1,0,3:2:0:0:
412,220,42985,2,0,L|295:243,1,119.249996360779,10|2,0:2|0:2,0:0:0:0:
452,9,43385,5,2,1:2:0:0:
434,108,43585,1,2,0:2:0:0:
209,162,43785,5,10,0:2:0:0:
223,83,43985,1,2,0:2:0:0:
225,71,44085,1,0,3:2:0:0:
227,59,44185,1,2,0:2:0:0:
193,244,44385,1,0,3:2:0:0:
326,144,44585,2,0,L|195:164,1,119.249996360779,10|2,0:2|0:2,0:0:0:0:
133,325,44985,6,0,P|183:302|188:234,1,119.249996360779,2|0,1:2|0:2,0:0:0:0:
157,57,45385,1,10,0:2:0:0:
48,42,45585,1,2,0:2:0:0:
59,44,45685,1,0,3:2:0:0:
70,46,45785,1,2,0:2:0:0:
244,70,45985,1,0,3:2:0:0:
140,175,46185,2,0,L|157:50,1,119.249996360779,10|2,0:2|0:2,0:0:0:0:
429,101,46585,6,0,P|336:23|235:84,1,238.499992721558,2|10,1:2|0:2,0:0:0:0:
327,153,47185,1,2,0:2:0:0:
328,141,47285,1,0,3:2:0:0:
329,129,47385,1,2,0:2:0:0:
318,233,47585,1,0,3:2:0:0:
512,200,47785,2,0,L|368:187,1,119.249996360779,10|2,0:2|0:2,0:0:0:0:
219,223,48185,5,2,1:2:0:0:
230,119,48385,1,2,0:2:0:0:
445,236,48585,5,10,0:2:0:0:
435,323,48785,1,2,3:2:0:0:
434,334,48885,1,0,3:2:0:0:
432,345,48985,1,2,3:2:0:0:
459,145,49185,1,0,3:2:0:0:
326,222,49385,2,0,L|453:236,1,119.249996360779,10|2,0:2|0:2,0:0:0:0:
248,324,49785,5,2,1:2:0:0:
146,309,49985,1,2,0:2:0:0:
188,96,50185,5,10,0:2:0:0:
273,108,50385,1,2,0:2:0:0:
284,110,50485,1,0,3:2:0:0:
295,112,50585,1,2,0:2:0:0:
102,83,50785,1,0,3:2:0:0:
355,173,50985,2,0,P|381:121|358:53,1,119.249996360779,10|2,0:2|0:2,0:0:0:0:
411,237,51385,6,0,P|460:143|418:-8,1,265,6|10,1:2|0:2,0:0:0:0:
190,59,51985,1,2,0:2:0:0:
190,59,52085,1,0,1:2:0:0:
190,59,52185,2,0,P|164:111|190:186,1,132.5,2|2,0:2|1:2,0:0:0:0:
243,119,52585,1,10,0:2:0:0:
100,60,52785,1,2,3:2:0:0:
0,210,52985,6,0,B|144:195|84:304|263:278,1,265,6|10,1:2|0:2,0:0:0:0:
403,228,53585,1,2,0:2:0:0:
389,225,53685,1,0,1:2:0:0:
377,218,53785,2,0,P|353:184|351:158,1,66.25,2|0,0:2|0:0,0:0:0:0:
453,51,53985,2,0,P|435:88|414:103,1,66.25,2|0,1:2|0:0,0:0:0:0:
234,23,54185,2,0,P|275:19|340:89,1,132.5,10|2,0:2|0:2,0:0:0:0:
277,353,54585,6,0,B|226:197|226:197|261:88,1,265,6|10,1:2|0:2,0:0:0:0:
6,106,55185,1,2,0:2:0:0:
6,127,55285,1,0,1:2:0:0:
6,143,55385,2,0,P|59:180|124:181,1,132.5,2|2,0:2|1:2,0:0:0:0:
234,105,55785,1,10,0:2:0:0:
100,288,55985,1,2,0:2:0:0:
349,235,56185,6,0,B|192:210|250:318|95:287,1,265,6|10,1:2|0:2,0:0:0:0:
37,46,56785,1,2,0:2:0:0:
28,56,56885,1,0,1:2:0:0:
21,67,56985,2,0,P|11:103|13:145,1,66.25,2|0,0:2|0:0,0:0:0:0:
147,201,57185,2,0,P|157:165|155:123,1,66.25,2|0,1:2|0:0,0:0:0:0:
12,325,57385,2,0,P|58:313|156:334,1,132.5,10|2,0:2|0:2,0:0:0:0:
353,363,57785,6,0,P|297:333|258:146,1,265,6|10,1:2|0:2,0:0:0:0:
366,17,58385,1,2,0:2:0:0:
365,32,58485,1,0,1:2:0:0:
364,45,58585,1,2,0:2:0:0:
354,199,58785,1,2,1:2:0:0:
254,39,58985,1,10,0:2:0:0:
471,96,59185,1,2,0:2:0:0:
170,150,59385,6,0,B|229:111|302:155|283:168|360:211|419:160,1,265,6|10,1:2|0:2,0:0:0:0:
415,266,59985,1,2,0:2:0:0:
412,280,60085,1,0,1:2:0:0:
408,293,60185,2,0,P|375:279|340:287,1,66.25,2|0,0:2|0:0,0:0:0:0:
292,370,60385,2,0,P|278:337|248:318,1,66.25,2|0,1:2|0:0,0:0:0:0:
155,344,60585,2,0,P|168:310|140:207,1,132.5,10|2,0:2|0:2,0:0:0:0:
24,106,60985,6,0,B|158:60|136:177|295:126,1,265,6|10,1:2|0:2,0:0:0:0:
395,28,61585,1,2,0:2:0:0:
386,46,61685,1,0,1:2:0:0:
382,65,61785,1,2,0:2:0:0:
438,172,61985,1,2,1:2:0:0:
329,260,62185,1,10,0:2:0:0:
277,130,62385,1,2,0:2:0:0:
227,346,62585,6,0,B|251:203|123:260|159:86,1,265,6|10,1:2|0:2,0:0:0:0:
297,26,63185,1,2,0:2:0:0:
293,45,63285,1,0,1:2:0:0:
289,64,63385,2,0,L|275:137,1,66.25,2|0,0:2|0:0,0:0:0:0:
155,104,63585,2,0,L|169:31,1,66.25,2|0,1:2|0:0,0:0:0:0:
262,226,63785,2,0,P|202:192|132:207,1,132.5,10|2,0:2|0:2,0:0:0:0:
201,373,64185,6,0,P|267:318|456:349,1,265,6|10,1:2|0:2,0:0:0:0:
470,212,64785,1,2,0:2:0:0:
450,210,64885,1,0,1:2:0:0:
430,207,64985,2,0,P|405:151|428:85,1,132.5,2|2,0:2|1:2,0:0:0:0:
509,52,65385,1,10,0:2:0:0:
439,0,65585,1,2,0:2:0:0:
229,140,65785,6,0,B|298:111|353:166|353:166|396:99|489:131,1,265,6|10,1:2|0:2,0:0:0:0:
478,237,66385,1,2,0:2:0:0:
458,233,66485,1,0,1:2:0:0:
438,230,66585,2,0,P|453:267|450:308,1,66.25,2|0,0:2|0:0,0:0:0:0:
353,165,66785,2,0,P|377:133|414:115,1,66.25,2|0,1:2|0:0,0:0:0:0:
338,266,66985,2,0,B|278:280|269:239|200:251,1,132.5,10|2,0:2|0:2,0:0:0:0:
118,333,67385,6,0,B|56:251|123:158|123:158|91:135|86:88,1,265,6|10,1:2|0:2,0:0:0:0:
293,68,67985,1,2,0:2:0:0:
297,87,68085,1,0,1:2:0:0:
301,102,68185,2,0,L|146:86,1,132.5,2|2,0:2|1:2,0:0:0:0:
120,23,68585,1,10,0:2:0:0:
214,218,68785,1,2,0:2:0:0:
20,171,68985,2,0,P|154:177|297:201,1,265,6|10,1:2|0:2,0:0:0:0:
374,289,69585,1,2,0:2:0:0:
366,270,69685,1,0,1:2:0:0:
361,250,69785,2,0,P|363:215|375:176,1,66.25,2|0,0:2|0:0,0:0:0:0:
463,113,69985,2,0,P|428:111|389:99,1,66.25,2|0,1:2|0:0,0:0:0:0:
294,18,70185,2,0,P|308:84|275:151,1,132.5,10|2,0:2|0:2,0:0:0:0:
73,62,70585,6,0,P|181:40|286:163,1,265,6|10,1:2|0:2,0:0:0:0:
238,263,71185,1,2,0:2:0:0:
224,250,71285,1,0,1:2:0:0:
218,239,71385,2,0,P|216:207|293:140,1,132.5,2|2,0:2|1:2,0:0:0:0:
333,335,71785,1,10,0:2:0:0:
97,298,71985,1,2,0:2:0:0:
238,3,72185,6,0,P|177:117|229:250,1,265,6|10,1:2|0:2,0:0:0:0:
339,71,72785,1,2,0:2:0:0:
324,85,72885,1,0,1:2:0:0:
312,104,72985,2,0,P|307:140|322:175,1,66.25,2|0,0:2|0:0,0:0:0:0:
222,302,73185,2,0,P|227:266|212:231,1,66.25,2|0,1:2|0:0,0:0:0:0:
72,104,73385,2,0,B|141:87|134:143|220:120,1,132.5,10|2,0:2|0:2,0:0:0:0:
426,21,73785,6,0,P|353:74|331:247,1,265,6|10,1:2|0:2,0:0:0:0:
447,356,74385,1,2,0:2:0:0:
440,337,74485,1,0,1:2:0:0:
425,323,74585,1,2,0:2:0:0:
278,353,74785,1,2,1:2:0:0:
323,127,74985,1,10,0:2:0:0:
364,384,75185,1,2,0:2:0:0:
219,166,75385,6,0,P|313:91|439:150,1,265,6|10,1:2|0:2,0:0:0:0:
199,301,75985,1,2,0:2:0:0:
182,289,76085,1,0,1:2:0:0:
162,286,76185,2,0,P|139:306|102:312,1,66.25,2|0,0:2|0:0,0:0:0:0:
130,160,76385,2,0,P|127:190|105:220,1,66.25,2|0,1:2|0:0,0:0:0:0:
28,97,76585,2,0,P|70:152|157:148,1,132.5,10|2,0:2|0:2,0:0:0:0:
315,57,76985,6,0,P|206:42|147:216,1,265,2|10,1:2|0:2,0:0:0:0:
368,208,89785,5,2,0:2:0:0:
368,208,90185,2,0,L|288:204,1,66.25,2|2,0:2|0:2,0:0:0:0:
452,257,90585,2,0,P|463:213|424:132,1,132.5,2|2,0:2|0:2,0:0:0:0:
346,84,91185,1,2,0:2:0:0:
192,158,91385,2,0,L|196:309,1,132.5,2|2,0:2|0:2,0:0:0:0:
283,226,91985,1,2,0:2:0:0:
98,218,92185,2,0,L|102:361,1,132.5,2|2,0:2|0:2,0:0:0:0:
195,290,92785,1,2,0:2:0:0:
4,275,92985,1,2,0:2:0:0:
4,275,93385,5,2,0:2:0:0:
94,217,93585,1,2,0:2:0:0:
187,359,93785,1,2,0:2:0:0:
205,259,93985,1,2,0:0:0:0:
391,317,94185,1,2,0:2:0:0:
316,234,94385,1,2,0:2:0:0:
466,155,94585,6,0,P|428:129|340:136,1,132.5,2|2,0:2|0:2,0:0:0:0:
249,187,95185,1,2,0:2:0:0:
253,54,95385,2,0,L|248:202,1,132.5,2|2,0:2|0:2,0:0:0:0:
344,133,95985,1,2,0:2:0:0:
155,109,96185,1,2,0:2:0:0:
237,358,96585,5,2,0:2:0:0:
323,259,96785,1,2,0:2:0:0:
198,239,96985,1,2,0:2:0:0:
322,343,97185,1,2,0:2:0:0:
265,184,97385,1,2,0:2:0:0:
408,220,97585,1,2,0:2:0:0:
148,311,97785,1,2,0:2:0:0:
148,311,98185,5,2,0:2:0:0:
322,343,98385,1,2,0:2:0:0:
265,184,98585,2,0,P|215:163|132:179,1,132.5,2|2,0:2|0:2,0:0:0:0:
308,112,99185,1,2,0:2:0:0:
403,267,99385,6,0,L|399:341,1,66.25,2|2,0:2|0:0,0:0:0:0:
489,310,99785,1,2,0:2:0:0:
310,300,99985,1,2,0:2:0:0:
411,162,100185,2,0,P|426:124|431:87,1,66.25,2|0,0:2|0:0,0:0:0:0:
216,37,100585,1,2,0:2:0:0:
173,133,100785,1,2,0:2:0:0:
309,32,100985,5,2,0:2:0:0:
124,43,101185,1,2,0:2:0:0:
324,31,101385,1,2,0:2:0:0:
166,147,101585,1,2,0:2:0:0:
370,231,101785,2,0,P|381:197|383:158,1,66.25,2|0,0:2|0:0,0:0:0:0:
287,185,102185,1,2,0:2:0:0:
469,212,102385,1,2,0:2:0:0:
214,288,102585,6,0,B|165:284|165:284|145:292|145:292|70:286,1,119.249996360779,2|0,1:2|0:2,0:0:0:0:
269,74,102985,6,0,P|296:129|278:199,1,119.249996360779,10|2,0:2|3:2,0:0:0:0:
382,180,103285,1,0,3:2:0:0:
382,180,103385,2,0,P|388:128|382:99,1,59.6249981803895,2|0,3:2|3:2,0:0:0:0:
457,229,103585,1,2,1:2:0:0:
248,283,103785,1,10,0:2:0:0:
280,374,103985,1,2,0:2:0:0:
382,180,104185,6,0,P|387:124|363:48,1,119.249996360779,2|0,1:2|3:2,0:0:0:0:
151,143,104585,2,0,L|153:271,1,119.249996360779,10|2,0:2|3:2,0:0:0:0:
245,199,104885,1,0,3:2:0:0:
245,199,104985,2,0,P|254:145|249:115,1,59.6249981803895,2|0,3:2|3:2,0:0:0:0:
211,58,105185,1,2,1:2:0:0:
362,170,105385,1,10,0:2:0:0:
322,71,105585,1,2,3:2:0:0:
151,143,105785,6,0,B|129:199|129:199|164:265,1,119.249996360779,2|0,1:2|3:2,0:0:0:0:
391,364,106185,2,0,P|409:301|394:247,1,119.249996360779,10|2,0:2|3:2,0:0:0:0:
317,202,106485,1,0,3:2:0:0:
317,202,106585,2,0,P|305:243|309:284,1,59.6249981803895,2|0,3:2|3:2,0:0:0:0:
418,161,106785,1,2,1:2:0:0:
215,153,106985,1,10,0:2:0:0:
283,86,107185,1,2,3:2:0:0:
395,250,107385,6,0,L|388:378,1,119.249996360779,2|0,1:2|3:2,0:0:0:0:
152,246,107785,1,10,0:2:0:0:
247,296,107985,1,2,3:2:0:0:
70,310,108185,1,2,3:2:0:0:
243,196,108385,2,0,P|249:166|245:122,1,59.6249981803895,2|0,1:2|3:2,0:0:0:0:
189,37,108585,1,10,0:2:0:0:
303,32,108785,1,2,3:2:0:0:
155,155,108985,6,0,P|86:168|43:144,1,119.249996360779,2|0,1:2|3:2,0:0:0:0:
376,91,109385,2,0,L|377:225,1,119.249996360779,10|2,0:2|3:2,0:0:0:0:
378,310,109685,1,0,3:2:0:0:
378,310,109785,2,0,P|317:301|287:300,1,59.6249981803895,2|0,3:2|3:2,0:0:0:0:
459,269,109985,1,2,1:2:0:0:
268,223,110185,1,10,0:2:0:0:
216,318,110385,1,2,3:2:0:0:
376,210,110585,6,0,B|403:156|403:156|374:91,1,119.249996360779,2|0,1:2|3:2,0:0:0:0:
145,38,110985,2,0,L|147:174,1,119.249996360779,10|2,0:2|3:2,0:0:0:0:
237,92,111285,1,0,3:2:0:0:
237,92,111385,2,0,P|246:34|239:5,1,59.6249981803895,2|0,3:2|3:2,0:0:0:0:
52,96,111585,1,2,1:2:0:0:
259,187,111785,1,10,0:2:0:0:
338,113,111985,1,2,3:2:0:0:
119,178,112185,6,0,B|92:231|92:231|114:297,1,119.249996360779,2|0,1:2|3:2,0:0:0:0:
357,381,112585,2,0,P|391:334|382:257,1,119.249996360779,10|2,0:2|3:2,0:0:0:0:
346,189,112885,1,0,3:2:0:0:
346,189,112985,2,0,P|338:135|343:106,1,59.6249981803895,2|0,3:2|3:2,0:0:0:0:
445,148,113185,1,2,1:2:0:0:
231,164,113385,1,10,0:2:0:0:
331,11,113585,1,2,3:2:0:0:
331,11,113685,1,0,3:2:0:0:
331,11,113785,6,0,L|339:141,1,119.249996360779,2|0,1:2|3:2,0:0:0:0:
276,317,114185,1,10,0:2:0:0:
190,278,114385,1,2,3:2:0:0:
316,236,114585,1,2,3:2:0:0:
160,369,114785,1,2,1:2:0:0:
160,369,114885,1,8,3:2:0:0:
160,369,114985,1,10,0:2:0:0:
404,275,115185,1,2,3:2:0:0:
223,170,115385,6,0,B|138:174|138:174|118:157|118:157|8:162,1,198.75,6|0,1:2|0:0,0:0:0:0:
20,180,115785,2,0,P|85:181|140:104,1,132.5,10|2,0:2|0:2,0:0:0:0:
176,41,116085,1,0,0:0:0:0:
176,41,116185,2,0,P|218:58|257:54,1,66.25,2|0,0:2|0:0,0:0:0:0:
345,100,116385,1,2,1:2:0:0:
271,264,116585,1,10,0:2:0:0:
414,221,116785,1,2,0:2:0:0:
199,130,116985,6,0,P|126:131|118:250,1,198.75,6|0,1:2|0:0,0:0:0:0:
121,259,117385,2,0,B|147:241|147:241|145:129,1,132.5,10|2,0:2|0:2,0:0:0:0:
142,28,117785,1,2,0:2:0:0:
253,38,117985,1,2,1:2:0:0:
231,269,118185,1,10,0:2:0:0:
121,259,118385,1,2,0:2:0:0:
359,49,118585,6,0,L|343:258,1,198.75,6|0,1:2|0:0,0:0:0:0:
342,277,118985,2,0,B|372:292|372:292|380:181,1,132.5,10|2,0:2|0:2,0:0:0:0:
182,82,119385,1,2,0:2:0:0:
187,187,119585,1,2,1:2:0:0:
328,128,119785,1,10,0:2:0:0:
108,144,119985,1,2,0:2:0:0:
108,144,120085,1,0,0:0:0:0:
108,144,120185,6,0,L|106:293,1,132.5,6|0,1:2|0:2,0:0:0:0:
384,320,120585,1,10,0:2:0:0:
265,199,120785,1,2,0:2:0:0:
270,300,120985,1,2,0:2:0:0:
383,223,121185,1,2,1:2:0:0:
383,223,121285,1,2,3:2:0:0:
383,223,121385,1,10,0:2:0:0:
156,176,121585,1,2,0:2:0:0:
161,279,121785,1,6,1:2:0:0:
350,48,122185,6,0,B|322:28|322:28|316:168,1,132.5,10|2,0:2|0:2,0:0:0:0:
319,210,122485,1,0,0:0:0:0:
319,210,122585,2,0,P|359:224|392:220,1,66.25,2|0,0:2|0:0,0:0:0:0:
441,118,122785,1,2,1:2:0:0:
196,150,122985,1,10,0:2:0:0:
198,47,123185,1,2,0:2:0:0:
197,257,123385,6,0,P|235:317|356:291,1,198.75,6|0,1:2|0:0,0:0:0:0:
360,284,123785,2,0,B|374:246|374:246|278:252,1,132.5,10|2,0:2|0:2,0:0:0:0:
197,257,124085,1,0,0:0:0:0:
197,257,124185,2,0,P|206:195|201:167,1,66.25,2|0,0:2|0:0,0:0:0:0:
152,95,124385,1,2,1:2:0:0:
360,127,124585,1,10,0:2:0:0:
304,39,124785,1,2,0:2:0:0:
411,33,124985,6,0,B|399:54|399:54|202:62,1,198.75,6|0,1:2|0:0,0:0:0:0:
152,95,125385,1,10,0:2:0:0:
168,189,125585,1,2,0:2:0:0:
324,285,125785,1,2,0:2:0:0:
341,177,125985,1,2,1:2:0:0:
90,254,126185,1,10,0:2:0:0:
116,374,126385,1,2,0:2:0:0:
219,247,126585,6,0,B|236:215|236:215|173:59,1,198.75,6|0,1:2|0:0,0:0:0:0:
167,49,126985,1,10,0:2:0:0:
266,73,127185,1,2,0:2:0:0:
337,0,127385,1,2,0:2:0:0:
300,175,127585,1,2,1:2:0:0:
300,175,127685,1,0,3:2:0:0:
300,175,127785,1,10,0:2:0:0:
415,102,127985,1,2,0:2:0:0:
167,49,128185,6,0,P|115:48|51:167,1,198.75,6|0,1:2|0:0,0:0:0:0:
58,189,128585,2,0,B|119:219|119:219|198:192,1,132.5,10|2,0:2|0:2,0:0:0:0:
263,158,128885,1,0,0:0:0:0:
263,158,128985,2,0,P|279:116|279:80,1,66.25,2|0,0:2|0:0,0:0:0:0:
140,130,129185,1,2,1:2:0:0:
303,264,129385,1,10,0:2:0:0:
382,187,129585,1,2,0:2:0:0:
230,332,129785,6,0,B|197:354|197:354|38:309,1,198.75,6|0,1:2|0:0,0:0:0:0:
76,331,130185,2,0,L|199:251,1,132.5,10|2,0:2|0:2,0:0:0:0:
336,156,130585,1,2,0:2:0:0:
219,111,130785,1,2,1:2:0:0:
344,298,130985,1,10,0:2:0:0:
352,145,131185,1,2,0:2:0:0:
155,280,131385,6,0,B|110:309|110:309|114:151,1,198.75,6|0,1:2|0:0,0:0:0:0:
117,133,131785,1,10,0:2:0:0:
219,144,131985,1,2,0:2:0:0:
312,14,132185,1,2,0:2:0:0:
200,19,132385,1,2,1:2:0:0:
322,233,132585,1,10,0:2:0:0:
447,240,132785,1,2,0:2:0:0:
447,240,132885,1,0,0:0:0:0:
447,240,132985,6,0,B|487:240|487:240|483:79,1,198.75,6|0,1:2|0:0,0:0:0:0:
481,59,133385,1,8,0:2:0:0:
295,25,133585,1,2,0:2:0:0:
224,198,133785,1,2,0:2:0:0:
117,185,133985,1,2,1:2:0:0:
117,185,134085,1,0,3:2:0:0:
117,185,134185,1,10,0:2:0:0:
187,103,134385,1,2,0:2:0:0:
149,288,134585,6,0,P|97:342|18:266,1,198.75,6|0,1:2|0:0,0:0:0:0:
43,286,134985,2,0,B|81:299|81:299|180:259,1,132.5,10|2,0:2|0:2,0:0:0:0:
273,227,135285,1,0,0:0:0:0:
273,227,135385,2,0,P|286:180|279:130,1,66.25,2|0,0:2|0:0,0:0:0:0:
235,70,135585,1,2,1:2:0:0:
359,71,135785,1,10,0:2:0:0:
176,159,135985,1,2,0:2:0:0:
435,32,136185,6,0,L|430:249,1,198.75,6|0,1:2|0:0,0:0:0:0:
430,255,136585,2,0,B|458:243|458:243|332:238,1,132.5,10|2,0:2|0:2,0:0:0:0:
146,231,136985,1,2,0:2:0:0:
244,133,137185,1,2,1:2:0:0:
85,294,137385,1,10,0:2:0:0:
79,169,137585,1,2,0:2:0:0:
311,233,137785,6,0,P|358:171|331:53,1,198.75,6|0,1:2|0:0,0:0:0:0:
316,41,138185,1,10,0:2:0:0:
452,67,138385,1,2,0:2:0:0:
248,142,138585,1,2,0:2:0:0:
387,201,138785,1,2,1:2:0:0:
154,228,138985,1,10,0:2:0:0:
286,321,139185,1,2,0:2:0:0:
248,142,139385,6,0,P|183:104|64:133,1,198.75,6|0,1:2|0:0,0:0:0:0:
48,160,139785,1,10,0:2:0:0:
154,228,139985,1,2,0:2:0:0:
108,16,140185,1,2,0:2:0:0:
241,14,140385,1,2,1:2:0:0:
262,13,140485,1,0,3:2:0:0:
279,12,140585,1,10,0:2:0:0:
172,115,140785,1,2,0:2:0:0:
399,229,140985,6,0,P|424:158|327:73,1,198.75,6|0,1:2|0:0,0:0:0:0:
326,75,141385,2,0,B|296:96|296:96|299:193,1,132.5,10|2,0:2|0:2,0:0:0:0:
205,200,141685,1,0,0:0:0:0:
205,200,141785,2,0,P|199:166|211:115,1,66.25,2|0,0:2|0:0,0:0:0:0:
242,36,141985,1,2,1:2:0:0:
268,279,142185,1,10,0:2:0:0:
122,268,142385,1,2,0:2:0:0:
408,286,142585,6,0,B|434:322|434:322|255:310,1,198.75,6|0,1:2|0:0,0:0:0:0:
268,279,142985,2,0,B|249:210|249:210|285:150,1,132.5,10|0,0:2|0:2,0:0:0:0:
367,52,143385,1,2,0:2:0:0:
384,163,143585,1,2,1:2:0:0:
189,41,143785,1,10,0:2:0:0:
149,138,143985,1,2,0:2:0:0:
367,52,144185,6,0,B|411:29|411:29|249:16,1,198.75,6|0,1:2|0:0,0:0:0:0:
261,35,144585,2,0,B|262:93|262:93|277:109|277:109|278:186,1,132.5,10|2,0:2|0:2,0:0:0:0:
279,326,144985,1,2,0:2:0:0:
169,250,145185,1,2,1:2:0:0:
383,244,145385,1,10,0:2:0:0:
277,161,145585,1,2,0:2:0:0:
277,161,145685,1,0,0:0:0:0:
277,161,145785,6,0,B|226:139|226:139|63:170,1,198.75,6|0,1:2|0:0,0:0:0:0:
59,174,146185,1,10,0:2:0:0:
99,66,146385,1,2,0:2:0:0:
222,137,146585,1,2,0:2:0:0:
222,40,146785,1,2,1:2:0:0:
222,40,146885,1,0,3:2:0:0:
222,40,146985,1,10,0:2:0:0:
381,96,147185,1,2,0:2:0:0:
339,1,147385,1,6,0:2:0:0:
190,234,147785,6,0,B|168:259|168:259|299:253,1,132.5,10|2,0:2|0:2,0:0:0:0:
351,250,148085,1,0,0:0:0:0:
351,250,148185,2,0,P|365:293|367:333,1,66.25,2|0,0:2|0:0,0:0:0:0:
267,354,148385,1,2,1:2:0:0:
428,169,148585,1,10,0:2:0:0:
461,269,148785,1,2,0:2:0:0:
314,154,148985,6,0,B|272:123|272:123|115:151,1,198.75,6|0,1:2|0:0,0:0:0:0:
87,160,149385,2,0,B|121:179|121:179|231:160,1,132.5,10|0,0:2|0:0,0:0:0:0:
394,128,149785,1,2,0:2:0:0:
252,243,149985,1,2,1:2:0:0:
300,69,150185,1,10,0:2:0:0:
367,232,150385,1,2,0:2:0:0:
213,135,150585,6,0,B|179:114|179:114|168:294,1,198.75,6|0,1:2|0:0,0:0:0:0:
176,330,150985,2,0,L|185:184,1,132.5,10|2,0:2|0:2,0:0:0:0:
78,110,151385,1,2,0:2:0:0:
44,210,151585,1,2,1:2:0:0:
226,72,151785,1,10,0:2:0:0:
264,176,151985,1,2,0:2:0:0:
371,18,152185,2,0,L|475:105,1,132.5,6|0,1:2|0:2,0:0:0:0:
292,343,152585,5,10,0:2:0:0:
168,279,152785,1,2,0:2:0:0:
346,217,152985,1,2,0:2:0:0:
259,118,153185,1,2,1:2:0:0:
259,118,153285,1,0,3:2:0:0:
259,118,153385,1,10,0:2:0:0:
463,131,153585,1,2,0:2:0:0:
408,0,153785,5,2,0:2:0:0:
