osu file format v14

[General]
AudioFilename: audio.mp3
AudioLeadIn: 0
PreviewTime: -1
Countdown: 0
SampleSet: None
StackLeniency: 0.7
Mode: 0
LetterboxInBreaks: 0
WidescreenStoryboard: 0

[Editor]
DistanceSpacing: 1.6
BeatDivisor: 4
GridSize: 32
TimelineZoom: 1.15

[Metadata]
Title:Nirvana (TV Size)
TitleUnicode:ニルヴァーナ (TV Size)
Artist:MUCC
ArtistUnicode:MUCC
Creator:yokomi
Version:Warmth
Source:妖狐×僕SS
Tags:
BeatmapID:2937372
BeatmapSetID:1426435

[Difficulty]
HPDrainRate:6
CircleSize:4
OverallDifficulty:9
ApproachRate:9.6
SliderMultiplier:1.4
SliderTickRate:1

[Events]
//Background and Video events
0,0,"inu-boku-ss-wallpaper-hd-1920x1080-89429.jpg",0,0
Video,50,"opening - inu x boku ss [BD 1080p].mp4"
//Break Periods
//Storyboard Layer 0 (Background)
//Storyboard Layer 1 (Fail)
//Storyboard Layer 2 (Pass)
//Storyboard Layer 3 (Foreground)
//Storyboard Layer 4 (Overlay)
//Storyboard Sound Samples

[TimingPoints]
15,333.333333333333,4,2,0,30,1,0
39348,319.148936170213,4,2,0,30,1,8
40014,333.333333333333,4,2,0,30,1,0
86023,333.333333333333,4,2,0,30,1,0
86689,333.333333333333,4,2,0,30,1,0

[HitObjects]
93,305,15,6,0,P|133:285|154:242,1,70
37,161,349,2,0,P|51:195|97:223,1,70
138,159,682,2,0,P|181:148|199:98,1,70
64,21,1014,2,0,P|84:69|126:86,1,70
251,61,1348,2,0,P|232:100|188:122,1,70
211,256,1681,2,0,P|227:216|268:192,1,70
389,116,2015,2,0,P|429:129|451:175,1,70
379,317,2348,2,0,P|338:290|315:245,1,70
158,253,2682,5,0,0:0:0:0:
223,91,2848,1,0,0:0:0:0:
280,266,3015,1,0,0:0:0:0:
132,145,3182,1,0,0:0:0:0:
315,145,3348,1,0,0:0:0:0:
156,261,3515,1,0,0:0:0:0:
223,91,3682,1,0,0:0:0:0:
283,260,3848,1,0,0:0:0:0:
73,294,4015,5,0,0:0:0:0:
80,279,4182,1,0,0:0:0:0:
94,254,4348,2,0,L|133:193,1,70
258,103,4682,1,0,0:0:0:0:
277,134,4848,1,0,0:0:0:0:
301,166,5014,2,0,L|346:245,1,70
162,113,5348,6,0,P|124:125|145:158,3,70
203,240,6015,2,0,P|226:239|216:185,3,70
379,148,6682,2,0,P|372:183|330:209,1,70
101,190,7015,2,0,P|110:152|151:134,1,70
379,148,7348,2,0,P|383:187|337:208,1,70
89,187,7682,2,0,P|96:149|141:133,1,70
360,294,8015,5,0,0:0:0:0:
359,254,8182,1,0,0:0:0:0:
353,210,8348,1,0,0:0:0:0:
334,170,8515,1,0,0:0:0:0:
165,230,8682,1,0,0:0:0:0:
180,187,8848,1,0,0:0:0:0:
183,140,9015,1,0,0:0:0:0:
183,95,9182,1,0,0:0:0:0:
277,150,9348,5,0,0:3:0:0:
289,162,9515,1,0,0:0:0:0:
289,162,9681,1,0,0:0:0:0:
289,162,9848,1,0,0:0:0:0:
289,162,10014,6,0,L|335:217,3,70
128,96,10682,5,8,0:0:0:0:
174,183,11015,1,8,0:0:0:0:
227,110,11348,1,8,0:0:0:0:
265,212,11682,1,8,0:0:0:0:
388,108,12015,5,8,0:0:0:0:
354,235,12348,1,8,0:0:0:0:
289,123,12682,1,8,0:0:0:0:
217,232,13015,1,8,0:0:0:0:
101,152,13348,6,8,B|249:149|246:130|183:122,1,140
422,133,14015,2,8,B|291:159|284:138|349:121,1,140,8|8,0:3|0:3,0:3:0:0:
240,138,14682,2,8,B|218:208|347:170,1,140
248,50,15348,1,8,0:0:0:0:
82,122,15848,6,0,L|112:188,1,70
341,298,16182,2,0,L|369:227,1,70
440,91,16515,1,8,0:0:0:0:
411,282,16682,1,8,0:0:0:0:
262,36,16848,1,8,0:0:0:0:
242,274,17015,1,8,0:0:0:0:
135,85,17182,1,8,0:0:0:0:
114,319,17348,1,8,0:0:0:0:
48,39,17515,5,8,0:0:0:0:
345,344,17682,1,8,0:0:0:0:
438,27,17848,1,8,0:0:0:0:
137,324,18015,1,8,0:0:0:0:
474,178,18182,1,8,0:0:0:0:
181,25,18348,1,8,0:0:0:0:
80,156,18514,6,2,P|145:190|224:179,1,140
229,162,19014,1,0,0:0:0:0:
392,73,19181,2,2,P|391:157|353:211,1,140
212,269,19681,2,2,P|144:221|127:154,1,140
165,74,20181,6,2,B|252:143|272:116|235:78,1,140
364,218,20681,2,2,B|272:279|244:249|308:210,1,140
305,190,21181,1,0,0:0:0:0:
221,146,21348,2,2,B|185:203|117:204|77:151,1,140
83,123,21848,1,0,0:0:0:0:
221,74,22014,6,2,P|262:130|267:210,1,140
197,257,22514,1,0,0:0:0:0:
113,290,22681,2,2,P|67:229|58:136,1,140
129,67,23181,1,0,0:0:0:0:
272,281,23348,5,0,0:0:0:0:
277,286,23431,1,0,0:0:0:0:
277,286,23514,2,2,P|309:262|314:214,1,70
340,91,24014,5,8,0:0:0:0:
340,91,24181,2,8,P|330:143|308:159,1,70
179,126,24514,1,8,0:0:0:0:
93,319,24681,2,8,B|76:241|91:201|129:165,1,140,8|0,0:0|0:0,0:0:0:0:
107,100,25181,1,8,0:0:0:0:
184,54,25348,2,0,B|221:75|245:111|240:180,1,140,0|2,0:0|0:0,0:0:0:0:
234,221,26014,1,0,0:0:0:0:
338,109,26181,5,0,0:0:0:0:
319,126,26264,2,2,L|309:183,3,35
101,221,26681,5,8,0:0:0:0:
219,143,26848,1,8,0:0:0:0:
222,266,27014,1,8,0:0:0:0:
148,92,27181,2,2,P|191:143|191:146,3,70
258,261,27848,2,2,B|195:225|189:243|182:219|112:185,1,140
159,130,28348,1,0,0:0:0:0:
169,134,28514,2,2,L|306:178,1,140
302,176,29014,1,4,0:0:0:0:
223,89,29348,5,8,0:0:0:0:
283,262,29514,1,8,0:0:0:0:
157,192,29681,1,8,0:0:0:0:
303,165,29848,2,2,P|240:230|181:235,2,140,10|10|2,0:0|0:0|0:0,0:0:0:0:
109,192,30681,1,0,0:0:0:0:
249,177,30848,2,2,L|101:194,1,140,10|10,0:0|0:0,0:0:0:0:
175,275,31348,1,0,0:0:0:0:
255,208,31514,6,2,P|291:184|299:150,1,70
140,76,31848,2,2,P|101:97|93:138,1,70,2|10,0:0|0:0,0:0:0:0:
157,221,32181,1,8,0:0:0:0:
259,275,32348,2,10,B|331:189|365:208|305:280,1,140
321,258,32848,1,8,0:0:0:0:
169,307,33014,2,2,L|137:234,1,70,2|6,0:0|0:0,0:0:0:0:
58,168,33514,1,4,0:0:0:0:
442,173,33848,1,4,0:0:0:0:
169,172,34514,6,2,P|169:141|224:122,1,70
304,267,34848,1,0,0:0:0:0:
127,286,35014,1,0,0:0:0:0:
332,150,35181,1,0,0:0:0:0:
147,126,35348,1,0,0:0:0:0:
344,227,35514,1,0,0:0:0:0:
125,205,35681,1,0,0:0:0:0:
324,104,35848,1,0,0:0:0:0:
155,125,36014,6,2,P|159:166|210:175,1,70
336,239,36348,1,0,0:0:0:0:
477,104,36514,1,0,0:0:0:0:
474,292,36681,1,0,0:0:0:0:
351,101,36848,1,0,0:0:0:0:
248,270,37014,1,0,0:0:0:0:
428,203,37181,1,0,0:0:0:0:
258,137,37348,1,0,0:0:0:0:
381,293,37514,6,2,P|360:249|323:225,1,70
174,121,37848,1,0,0:0:0:0:
309,170,38014,1,0,0:0:0:0:
109,254,38181,1,0,0:0:0:0:
233,123,38348,1,0,0:0:0:0:
78,93,38514,1,0,0:0:0:0:
219,228,38681,1,0,0:0:0:0:
217,96,38848,1,0,0:0:0:0:
100,263,39014,6,2,P|105:219|151:195,1,70
425,66,39348,1,0,0:0:0:0:
417,88,39427,1,0,0:0:0:0:
401,107,39507,1,0,0:0:0:0:
380,119,39587,1,0,0:0:0:0:
357,128,39667,1,0,0:0:0:0:
332,130,39746,1,0,0:0:0:0:
307,134,39826,1,0,0:0:0:0:
282,135,39906,1,0,0:0:0:0:
256,128,39986,2,10,P|218:142|160:128,1,70
59,124,40347,5,0,0:0:0:0:
195,250,40514,1,0,0:0:0:0:
200,88,40680,1,0,0:0:0:0:
76,250,40847,1,0,0:0:0:0:
269,183,41014,1,0,0:0:0:0:
108,95,41180,1,0,0:0:0:0:
219,268,41347,1,0,0:0:0:0:
71,157,41514,1,0,0:0:0:0:
246,77,41680,6,2,P|277:77|331:108,1,70
314,136,42014,1,0,0:0:0:0:
312,160,42097,1,0,0:0:0:0:
310,184,42180,1,0,0:0:0:0:
118,134,42347,2,2,L|143:205,1,70
217,259,42680,1,0,0:0:0:0:
228,57,42847,2,2,L|227:150,1,70
159,313,43180,5,0,0:0:0:0:
65,155,43347,1,0,0:0:0:0:
257,182,43514,1,0,0:0:0:0:
75,236,43680,1,0,0:0:0:0:
245,104,43847,1,0,0:0:0:0:
199,265,44013,1,0,0:0:0:0:
126,77,44180,1,0,0:0:0:0:
324,179,44347,1,0,0:0:0:0:
103,277,44513,5,0,0:0:0:0:
267,90,44680,1,0,0:0:0:0:
326,317,44847,1,0,0:0:0:0:
80,124,45013,1,0,0:0:0:0:
398,201,45180,1,0,0:0:0:0:
107,327,45347,1,4,0:0:0:0:
245,166,45680,5,8,0:0:0:0:
245,166,45847,2,2,P|289:169|327:208,2,70,10|2|2,0:0|0:0|0:0,0:0:0:0:
100,112,46347,1,8,0:0:0:0:
202,297,46513,1,8,0:0:0:0:
249,94,46680,1,0,0:0:0:0:
82,241,46847,1,0,0:0:0:0:
312,171,47013,1,8,0:0:0:0:
122,106,47180,1,8,0:0:0:0:
265,276,47347,1,0,0:0:0:0:
313,67,47513,6,2,P|296:109|256:143,1,70,2|10,0:0|0:0,0:0:0:0:
108,264,47847,1,8,0:0:0:0:
341,152,48013,1,0,0:0:0:0:
116,147,48180,1,0,0:0:0:0:
326,228,48347,1,8,0:0:0:0:
83,194,48513,1,8,0:0:0:0:
331,115,48680,1,0,0:0:0:0:
130,244,48847,1,0,0:0:0:0:
364,198,49013,1,8,0:0:0:0:
131,108,49180,1,8,0:0:0:0:
203,211,49347,6,2,P|193:245|219:283,1,70
288,304,49680,2,2,P|329:308|369:285,1,70
388,221,50013,2,2,P|394:178|371:136,1,70
310,87,50347,2,2,P|271:81|232:102,1,70
145,155,50680,1,0,0:0:0:0:
318,108,50847,1,0,0:0:0:0:
182,273,51013,1,8,0:0:0:0:
362,205,51180,1,8,0:0:0:0:
109,74,51347,6,2,P|85:117|98:160,1,70
102,305,51680,1,8,0:0:0:0:
218,128,51847,1,8,0:0:0:0:
299,335,52013,1,0,0:0:0:0:
301,119,52180,1,0,0:0:0:0:
196,336,52347,1,8,0:0:0:0:
136,118,52513,1,8,0:0:0:0:
296,266,52680,1,0,0:0:0:0:
243,89,52847,5,0,0:0:0:0:
139,266,53013,1,8,0:0:0:0:
96,129,53180,1,8,0:0:0:0:
233,279,53347,1,0,0:0:0:0:
332,133,53513,1,0,0:0:0:0:
164,328,53680,1,8,0:0:0:0:
58,118,53847,1,8,0:0:0:0:
244,342,54013,1,0,0:0:0:0:
321,109,54180,5,0,0:0:0:0:
112,205,54347,1,8,0:0:0:0:
374,286,54513,1,8,0:0:0:0:
203,50,54680,1,0,0:0:0:0:
186,330,54847,1,0,0:0:0:0:
354,88,55013,1,0,0:0:0:0:
101,209,55180,1,0,0:0:0:0:
375,273,55347,1,0,0:0:0:0:
366,249,55430,5,0,0:0:0:0:
351,229,55513,1,0,0:0:0:0:
336,209,55597,1,0,0:0:0:0:
323,188,55680,1,0,0:0:0:0:
308,168,55763,1,0,0:0:0:0:
290,150,55847,1,0,0:0:0:0:
270,134,55930,1,0,0:0:0:0:
247,124,56013,2,6,P|211:101|167:105,2,70,6|6|14,0:0|0:0|0:0,0:0:0:0:
149,289,56513,5,8,0:0:0:0:
371,145,56680,1,0,0:0:0:0:
134,92,56847,1,0,0:0:0:0:
328,268,57013,1,8,0:0:0:0:
256,65,57180,1,8,0:0:0:0:
112,250,57347,1,0,0:0:0:0:
330,117,57513,1,0,0:0:0:0:
108,68,57680,1,8,0:0:0:0:
240,311,57847,6,2,P|284:286|299:250,1,70,10|2,0:0|0:0,0:0:0:0:
424,66,58180,1,0,0:0:0:0:
218,135,58347,1,8,0:0:0:0:
405,294,58513,1,8,0:0:0:0:
300,42,58680,1,0,0:0:0:0:
274,280,58847,1,0,0:0:0:0:
475,155,59013,1,8,0:0:0:0:
191,73,59180,1,8,0:0:0:0:
396,297,59347,6,2,P|397:249|374:203,1,70,2|10,0:0|0:0,0:0:0:0:
317,49,59680,1,0,0:0:0:0:
250,310,59847,1,8,0:0:0:0:
117,105,60013,1,0,0:0:0:0:
408,145,60180,1,0,0:0:0:0:
143,261,60347,1,0,0:0:0:0:
195,45,60513,1,0,0:0:0:0:
346,263,60680,1,0,0:0:0:0:
116,232,60847,2,2,P|127:201|183:187,4,70,10|10|10|2|2,0:0|0:0|0:0|0:0|0:0,0:0:0:0:
316,73,61680,5,0,0:0:0:0:
121,182,61847,1,0,0:0:0:0:
326,280,62013,1,0,0:0:0:0:
183,56,62180,1,0,0:0:0:0:
189,326,62347,1,0,0:0:0:0:
409,171,62513,1,0,0:0:0:0:
75,51,62680,1,0,0:0:0:0:
341,289,62847,1,0,0:0:0:0:
399,33,63013,1,0,0:0:0:0:
102,311,63180,1,0,0:0:0:0:
226,44,63347,1,0,0:0:0:0:
460,325,63513,1,0,0:0:0:0:
73,296,63680,2,0,L|157:273,1,70
453,216,64013,5,0,0:0:0:0:
422,177,64097,1,0,0:0:0:0:
386,143,64180,1,0,0:0:0:0:
342,121,64263,1,0,0:0:0:0:
292,116,64347,1,0,0:0:0:0:
244,129,64430,1,0,0:0:0:0:
209,163,64513,1,0,0:0:0:0:
185,206,64597,1,0,0:0:0:0:
153,243,64680,5,0,0:0:0:0:
105,255,64763,1,0,0:0:0:0:
62,230,64847,1,0,0:0:0:0:
33,190,64930,1,0,0:0:0:0:
28,141,65013,1,0,0:0:0:0:
47,95,65097,1,0,0:0:0:0:
79,58,65180,1,0,0:0:0:0:
127,50,65263,1,0,0:0:0:0:
186,53,65347,5,0,0:0:0:0:
244,61,65430,1,0,0:0:0:0:
299,80,65513,1,0,0:0:0:0:
354,102,65597,1,0,0:0:0:0:
395,139,65680,1,0,0:0:0:0:
421,188,65763,1,0,0:0:0:0:
437,242,65847,1,0,0:0:0:0:
448,296,65930,1,0,0:0:0:0:
423,245,66013,1,0,0:0:0:0:
385,203,66097,1,0,0:0:0:0:
338,171,66180,1,0,0:0:0:0:
287,147,66263,1,0,0:0:0:0:
232,130,66347,1,0,0:0:0:0:
178,115,66430,1,0,0:0:0:0:
122,111,66513,1,0,0:0:0:0:
66,120,66597,1,0,0:0:0:0:
39,139,66680,6,10,B|109:153|-13:227|76:246,1,140
451,240,67180,1,8,0:0:0:0:
158,315,67347,1,0,0:0:0:0:
259,85,67513,1,0,0:0:0:0:
349,310,67680,1,8,0:0:0:0:
144,144,67847,1,8,0:0:0:0:
393,155,68013,1,0,0:0:0:0:
162,299,68180,1,0,0:0:0:0:
343,63,68347,6,10,P|342:102|315:145,1,70
260,331,68680,1,0,0:0:0:0:
141,76,68847,1,0,0:0:0:0:
387,142,69013,1,8,0:0:0:0:
130,279,69180,1,8,0:0:0:0:
263,53,69347,1,0,0:0:0:0:
349,279,69513,1,0,0:0:0:0:
110,131,69680,1,0,0:0:0:0:
405,127,69847,6,10,P|375:157|320:165,1,70
138,253,70180,1,0,0:0:0:0:
251,61,70347,1,8,0:0:0:0:
348,257,70513,1,8,0:0:0:0:
142,128,70680,1,0,0:0:0:0:
369,121,70847,1,0,0:0:0:0:
229,314,71013,1,0,0:0:0:0:
184,55,71180,1,0,0:0:0:0:
331,284,71347,6,2,P|321:247|287:222,1,70
119,87,71680,1,0,0:0:0:0:
398,135,71847,1,0,0:0:0:0:
183,266,72013,1,0,0:0:0:0:
300,49,72180,1,0,0:0:0:0:
345,263,72347,1,8,0:0:0:0:
111,161,72513,1,8,0:0:0:0:
384,88,72680,1,0,0:0:0:0:
108,242,72847,6,2,P|138:225|188:227,1,70,2|10,0:0|0:0,0:0:0:0:
358,141,73180,1,8,0:0:0:0:
98,93,73347,1,0,0:0:0:0:
366,203,73513,1,0,0:0:0:0:
114,258,73680,1,0,0:0:0:0:
381,75,73847,1,8,0:0:0:0:
126,180,74013,1,0,0:0:0:0:
318,274,74180,1,0,0:0:0:0:
82,104,74347,6,10,P|121:130|168:131,1,70
389,198,74680,1,0,0:0:0:0:
127,262,74847,1,0,0:0:0:0:
258,61,75013,1,8,0:0:0:0:
319,305,75180,1,8,0:0:0:0:
135,110,75347,1,0,0:0:0:0:
389,131,75513,1,0,0:0:0:0:
142,287,75680,1,8,0:0:0:0:
327,61,75847,6,2,P|320:107|296:131,1,70,10|2,0:0|0:0,0:0:0:0:
207,292,76180,1,0,0:0:0:0:
240,81,76347,1,0,0:0:0:0:
309,306,76513,1,0,0:0:0:0:
162,91,76680,1,0,0:0:0:0:
101,321,76847,1,0,0:0:0:0:
321,95,77013,1,0,0:0:0:0:
262,337,77180,1,0,0:0:0:0:
55,64,77347,6,2,P|57:105|109:127,1,70
300,320,77680,1,8,0:0:0:0:
425,91,77847,1,0,0:0:0:0:
102,148,78013,1,8,0:0:0:0:
451,285,78180,1,0,0:0:0:0:
282,18,78347,1,8,0:0:0:0:
71,305,78513,1,0,0:0:0:0:
430,112,78680,1,8,0:0:0:0:
86,41,78847,5,0,0:0:0:0:
417,322,79013,1,8,0:0:0:0:
304,31,79180,1,0,0:0:0:0:
29,322,79347,1,8,0:0:0:0:
440,175,79513,1,0,0:0:0:0:
79,50,79680,1,8,0:0:0:0:
244,328,79847,1,0,0:0:0:0:
429,48,80013,1,8,0:0:0:0:
87,317,80180,5,0,0:0:0:0:
170,43,80347,1,8,0:0:0:0:
182,319,80513,1,0,0:0:0:0:
96,43,80680,1,8,0:0:0:0:
280,323,80847,1,0,0:0:0:0:
23,164,81013,1,8,0:0:0:0:
362,78,81180,1,0,0:0:0:0:
173,334,81347,1,8,0:0:0:0:
96,43,81513,5,0,0:0:0:0:
374,209,81680,1,8,0:0:0:0:
36,203,81847,1,0,0:0:0:0:
362,62,82013,1,8,0:0:0:0:
182,335,82180,1,0,0:0:0:0:
112,61,82347,1,8,0:0:0:0:
417,276,82513,1,0,0:0:0:0:
39,176,82680,6,6,L|188:194,1,140
431,85,83347,2,14,L|298:155,1,140
106,37,84013,2,14,L|164:174,1,140
435,302,84680,2,14,L|289:234,1,140
397,37,85347,2,14,L|333:171,1,140
64,291,86013,2,14,L|208:247,1,140
142,300,86689,6,10,L|101:235,2,46.6666666666667
227,256,87022,2,10,L|250:205,2,46.6666666666667
113,162,87355,1,8,0:0:0:0:
124,134,87466,2,6,L|136:87,1,46.6666666666667
212,58,87689,1,8,0:0:0:0:
218,81,87800,2,6,L|238:128,1,46.6666666666667
256,192,88022,1,14,0:0:0:0:
256,192,88355,12,4,92466,0:0:0:0:
