osu file format v14

[General]
AudioFilename: audio.mp3
AudioLeadIn: 0
PreviewTime: 45337
Countdown: 0
SampleSet: Soft
StackLeniency: 0.5
Mode: 0
LetterboxInBreaks: 0
WidescreenStoryboard: 1

[Editor]
Bookmarks: 10671,18671,24004,34671,45337,61170,66670,77337,88003
DistanceSpacing: 0.9
BeatDivisor: 4
GridSize: 4
TimelineZoom: 1.7

[Metadata]
Title:Nirvana (TV Size)
TitleUnicode:ニルヴァーナ (TV Size)
Artist:MUCC
ArtistUnicode:MUCC
Creator:-Mikan
Version:Frakturehawkens' Normal
Source:妖狐×僕SS
Tags:Agatsu Frakturehawkens OzzyOzrock Nardoxyribonucleic Cynplytholowazy -GN Junior Blizs ムック inu x boku the dog and me secret service opening op japanese anime
BeatmapID:2296059
BeatmapSetID:1057449

[Difficulty]
HPDrainRate:4
CircleSize:3
OverallDifficulty:4
ApproachRate:5
SliderMultiplier:1.2
SliderTickRate:1

[Events]
//Background and Video events
0,0,"thumb-1920-227222.jpg",0,0
Video,-398,"opening.avi"
//Break Periods
//Storyboard Layer 0 (Background)
//Storyboard Layer 1 (Fail)
//Storyboard Layer 2 (Pass)
//Storyboard Layer 3 (Foreground)
//Storyboard Layer 4 (Overlay)
//Storyboard Sound Samples

[TimingPoints]
5,333.333333333333,4,2,1,30,1,0
5,-125,4,2,1,30,0,0
10671,-111.111111111111,4,2,1,40,0,0
15838,-100,4,2,1,40,0,0
16338,-100,4,2,1,60,0,0
18504,-100,4,2,1,60,0,1
24004,-125,4,2,1,60,0,0
24005,-125,4,2,1,40,0,0
34504,-111.111111111111,4,2,1,60,0,0
39338,319.148936170213,4,2,1,60,1,8
39338,-111.111111111111,4,2,1,60,0,0
40004,333.333333333333,4,2,1,60,1,0
40004,-111.111111111111,4,2,1,60,0,0
45337,-100,4,2,1,70,0,1
61170,-100,4,2,1,70,0,0
64003,-100,4,2,1,50,0,0
64337,-100,4,2,1,60,0,0
64670,-100,4,2,1,70,0,0
65003,-100,4,2,1,80,0,0
65337,-100,4,2,1,50,0,0
65670,-100,4,2,1,60,0,0
66003,-100,4,2,1,70,0,0
66337,-100,4,2,1,80,0,0
66670,-100,4,2,1,70,0,1
82670,-100,4,2,1,70,0,0
86013,333.333333333333,4,2,1,70,1,0
86679,333.333333333333,4,2,1,70,1,0
90680,-100,4,2,1,50,0,0
91347,-100,4,2,1,35,0,0
92013,-100,4,2,1,20,0,0
92347,-100,4,2,1,5,0,0

[Colours]
Combo1 : 255,121,121
Combo2 : 226,102,80
Combo3 : 231,84,183
Combo4 : 255,227,100
Combo5 : 162,224,255

[HitObjects]
13,222,5,5,2,0:0:0:0:
4,140,338,5,2,0:0:0:0:
4,140,504,2,0,L|110:122,1,96,2|0,0:0|0:0,0:0:0:0:
128,85,1004,1,2,0:0:0:0:
128,85,1171,1,2,0:0:0:0:
259,21,1671,5,2,0:0:0:0:
259,21,1837,2,0,L|241:127,1,96,2|0,0:0|0:0,0:0:0:0:
204,145,2337,1,2,0:0:0:0:
204,145,2504,1,2,0:0:0:0:
210,293,3004,5,2,0:0:0:0:
210,293,3171,1,2,0:0:0:0:
351,322,3671,5,2,0:0:0:0:
351,322,3838,1,2,0:0:0:0:
506,222,5338,5,2,0:3:0:0:
512,313,5672,5,2,0:0:0:0:
512,313,5838,2,0,P|463:318|406:331,1,96,0|0,0:0|0:0,0:0:0:0:
388,368,6338,1,2,0:0:0:0:
388,368,6504,1,0,0:0:0:0:
249,353,7005,5,2,0:0:0:0:
249,353,7171,2,0,P|242:303|231:247,1,96,2|0,0:0|0:0,0:0:0:0:
194,229,7671,1,2,0:0:0:0:
194,229,7838,1,0,0:0:0:0:
241,112,8338,5,0,0:0:0:0:
241,112,8504,1,2,0:0:0:0:
386,90,9004,5,2,0:0:0:0:
386,90,9171,1,0,0:0:0:0:
137,45,10671,5,0,0:0:0:0:
208,102,11004,5,2,0:0:0:0:
208,102,11171,2,0,P|205:157|203:226,1,107.999996704102,2|0,0:0|0:0,0:0:0:0:
231,249,11671,1,2,0:0:0:0:
231,249,11838,1,2,0:0:0:0:
260,380,12338,5,2,0:0:0:0:
260,380,12504,2,0,P|349:372|439:364,1,161.999995056153,2|2,0:0|0:0,0:0:0:0:
448,331,13171,2,0,P|455:224|463:163,1,161.999995056153,2|2,0:0|0:0,0:0:0:0:
468,126,13838,6,0,P|439:119|343:104,1,107.999996704102,2|0,0:0|0:0,0:0:0:0:
336,78,14338,1,2,0:0:0:0:
336,78,14504,1,2,0:0:0:0:
241,166,15004,1,2,0:0:0:0:
307,224,15338,6,0,P|391:216|491:208,1,161.999995056153,4|4,0:0|1:0,0:0:0:0:
324,135,16338,6,0,P|291:136|262:144,1,60,0|0,3:0|3:0,0:0:0:0:
242,93,16671,2,0,P|209:92|179:88,1,60,0|0,3:0|3:0,0:0:0:0:
154,42,17004,1,0,3:0:0:0:
110,142,17338,6,0,P|83:271|227:355,1,300,8|8,0:0|0:0,0:0:0:0:
313,384,18504,6,0,P|313:324|316:264,1,120,4|2,1:0|0:0,0:0:0:0:
275,228,19004,2,0,B|267:218|267:218|270:190|274:158,1,60,8|2,0:0|0:0,0:0:0:0:
316,139,19338,1,0,3:0:0:0:
316,139,19504,2,0,B|324:129|324:129|321:101|317:69,1,60,2|8,0:0|0:0,0:0:0:0:
284,40,19838,1,0,0:0:0:0:
238,68,20004,2,0,P|183:58|96:49,1,120,0|8,3:0|0:0,0:0:0:0:
68,33,20504,1,2,0:0:0:0:
35,139,20838,1,2,0:0:0:0:
35,139,21004,2,0,P|30:171|37:200,1,60,8|8,0:0|0:3,0:0:0:0:
80,229,21338,6,0,P|145:233|206:251,1,120,0|8,3:0|0:0,0:0:0:0:
241,287,21838,1,2,0:0:0:0:
241,287,22004,2,0,P|259:233|331:217,1,120,0|8,3:0|0:0,0:0:0:0:
348,170,22504,2,0,P|428:183|476:195,1,120,2|2,0:0|0:0,0:0:0:0:
492,239,23004,1,8,0:0:0:0:
449,340,23338,1,8,0:0:0:0:
449,340,23504,1,8,3:0:0:0:
323,367,24004,6,0,P|319:318|317:259,1,96,4|0,0:0|3:0,0:0:0:0:
341,235,24504,2,0,P|344:207|349:181,1,48,2|0,0:0|0:0,0:0:0:0:
318,154,24838,1,2,0:0:0:0:
308,66,25171,2,0,P|341:39|410:55,2,96,2|2|2,0:0|0:0|0:0,0:0:0:0:
233,22,26171,6,0,L|173:36,1,48,2|0,0:0|3:0,0:0:0:0:
197,80,26504,1,2,0:0:0:0:
197,80,26671,6,0,P|193:129|191:188,1,96,0|0,3:0|3:0,0:0:0:0:
221,207,27171,2,0,P|244:213|272:225,1,48,2|0,0:0|3:0,0:0:0:0:
272,265,27504,1,2,0:0:0:0:
312,341,27838,2,0,P|358:351|409:367,2,96,2|2|2,0:0|0:0|0:3,0:0:0:0:
230,372,28838,6,0,P|204:377|170:386,1,48,0|2,0:0|3:0,0:0:0:0:
156,356,29171,1,0,0:0:0:0:
156,356,29338,6,0,P|151:317|147:254,1,96,4|0,0:0|3:0,0:0:0:0:
184,238,29838,2,0,P|205:230|236:226,1,48,2|0,0:0|3:0,0:0:0:0:
259,194,30171,1,2,0:0:0:0:
346,191,30504,2,0,P|350:141|346:79,2,96,2|2|2,0:0|0:0|0:3,0:0:0:0:
361,281,31504,5,0,0:0:0:0:
361,281,31671,2,0,P|384:287|423:300,1,48,2|0,3:0|0:0,0:0:0:0:
442,269,32004,6,0,P|452:220|455:164,1,96,0|0,3:0|3:0,0:0:0:0:
424,144,32504,2,0,P|394:138|365:136,1,48,2|0,0:0|3:0,0:0:0:0:
343,108,32838,1,2,0:0:0:0:
273,158,33171,6,0,P|241:161|215:232,2,96,2|2|12,0:0|0:0|0:0,0:0:0:0:
416,298,34504,5,4,1:0:0:0:
416,298,34671,2,0,P|385:301|349:314,1,53.9999983520508,0|2,3:0|0:0,0:0:0:0:
328,341,35004,1,8,0:0:0:0:
255,285,35338,1,0,3:0:0:0:
255,285,35504,2,0,P|232:288|200:298,1,53.9999983520508,0|8,0:0|0:0,0:0:0:0:
173,257,35838,2,0,B|124:261|131:210|74:229,2,107.999996704102,2|2|2,0:0|0:0|0:0,0:0:0:0:
200,216,36671,2,0,L|208:146,1,53.9999983520508,0|2,0:0|0:3,0:0:0:0:
212,114,37004,1,8,0:0:0:0:
228,18,37338,6,0,P|266:11|300:13,1,53.9999983520508,0|2,3:0|0:0,0:0:0:0:
312,56,37671,1,8,0:0:0:0:
312,56,37838,1,2,0:0:0:0:
404,85,38171,2,0,P|403:115|397:160,1,53.9999983520508,2|8,0:0|0:0,0:0:0:0:
361,168,38504,2,0,P|322:216|342:278,2,107.999996704102,2|2|0,0:0|0:0|0:0,0:0:0:0:
409,184,39338,1,2,3:0:0:0:
500,217,39657,1,10,3:0:0:0:
451,305,40004,6,0,L|379:315,1,53.9999983520508,4|2,0:0|0:0,0:0:0:0:
355,337,40337,1,8,0:0:0:0:
333,380,40504,2,0,P|283:359|267:303,1,107.999996704102,2|2,0:0|0:0,0:0:0:0:
222,310,41004,1,8,0:0:0:0:
222,310,41170,2,0,P|166:317|97:333,2,107.999996704102,2|2|0,0:0|0:0|0:0,0:0:0:0:
254,273,42004,2,0,P|255:213|252:157,1,107.999996704102,8|8,0:0|0:0,0:0:0:0:
341,83,42670,6,0,B|390:63|390:63|435:105,1,107.999996704102,4|8,0:0|0:0,0:0:0:0:
470,144,43170,1,0,3:0:0:0:
438,194,43337,2,0,P|435:229|431:265,1,53.9999983520508,8|0,0:0|3:0,0:0:0:0:
392,291,43670,2,0,P|362:295|334:299,1,53.9999983520508,8|8,0:0|0:0,0:0:0:0:
298,262,44003,1,8,0:0:0:0:
298,262,44170,2,0,P|251:224|195:235,2,107.999996704102,0|0|0,3:0|3:0|1:0,0:0:0:0:
470,360,45337,6,0,P|467:302|459:239,1,120,4|8,1:0|0:0,0:0:0:0:
411,215,45837,2,0,P|336:213|320:263,1,120,0|0,0:0|3:0,0:0:0:0:
283,286,46337,2,0,P|285:333|287:368,1,60,8|0,0:0|0:0,0:0:0:0:
242,378,46670,1,0,3:0:0:0:
169,306,47003,1,8,0:0:0:0:
169,306,47170,2,0,L|181:223,1,60,0|0,0:0|3:0,0:0:0:0:
130,220,47503,2,0,L|47:232,1,60,0|8,3:0|0:0,0:0:0:0:
53,176,47837,6,0,P|84:98|179:82,1,180,0|8,0:0|0:0,0:0:0:0:
207,40,48503,2,0,L|352:62,1,120,0|0,0:0|3:0,0:0:0:0:
373,103,49003,1,8,0:0:0:0:
373,103,49170,1,0,0:0:0:0:
373,103,49337,1,2,3:0:0:0:
478,127,49670,1,8,0:0:0:0:
457,232,50003,1,2,3:0:0:0:
351,207,50337,1,8,0:0:0:0:
277,128,50670,6,0,P|219:131|156:139,1,120,4|8,1:0|0:0,0:0:0:0:
129,92,51170,2,0,B|83:53|83:53|22:67,1,120,0|0,0:0|3:0,0:0:0:0:
8,117,51670,2,0,P|10:164|12:199,1,60,8|0,0:0|0:0,0:0:0:0:
45,218,52003,1,0,0:0:0:0:
155,248,52337,1,8,0:0:0:0:
155,248,52503,2,0,B|172:273|172:273|167:322,1,60,0|0,0:0|3:0,0:0:0:0:
201,346,52837,2,0,L|272:363,1,60,0|8,3:0|0:0,0:0:0:0:
305,332,53170,6,0,P|374:294|337:191,1,180,0|8,0:0|0:0,0:0:0:0:
313,177,53836,2,0,L|335:32,1,120,0|0,0:0|3:0,0:0:0:0:
375,26,54336,1,8,0:0:0:0:
375,26,54503,1,0,0:0:0:0:
375,26,54670,1,2,3:0:0:0:
482,17,55003,1,8,0:0:0:0:
469,125,55337,2,0,L|454:204,1,60,2|0,3:0|1:0,0:0:0:0:
445,236,55670,2,0,L|430:315,1,60,8|0,0:3|3:0,0:0:0:0:
398,335,56003,6,0,P|340:338|277:346,1,120,4|8,0:0|0:0,0:0:0:0:
251,300,56503,2,0,P|176:298|160:348,1,120,0|0,0:0|3:0,0:0:0:0:
121,368,57003,1,8,0:0:0:0:
121,368,57170,2,0,P|74:370|39:372,1,60,0|0,0:0|3:0,0:0:0:0:
5,288,57670,1,8,0:0:0:0:
5,288,57837,2,0,L|17:205,1,60,0|0,0:0|3:0,0:0:0:0:
61,204,58170,2,0,L|144:216,1,60,0|8,3:0|0:0,0:0:0:0:
152,169,58503,6,0,P|160:94|260:50,1,180,0|8,3:0|0:0,0:0:0:0:
266,98,59169,2,0,B|315:130|315:130|407:107,1,120,0|0,0:0|3:0,0:0:0:0:
433,104,59669,1,8,0:0:0:0:
433,104,59836,1,0,0:0:0:0:
433,104,60003,1,2,3:0:0:0:
506,183,60336,1,8,0:0:0:0:
430,260,60669,1,2,3:0:0:0:
430,260,60837,2,0,P|424:302|415:345,1,60,2|8,0:0|0:0,0:0:0:0:
376,350,61170,6,0,B|297:382|300:291|190:334,1,180,4|8,1:0|0:0,0:0:0:0:
161,241,62003,1,8,0:0:0:0:
161,241,62170,1,0,3:0:0:0:
161,241,62337,2,0,L|69:229,1,60,8|0,0:0|3:0,0:0:0:0:
48,244,62670,6,0,B|28:187|28:187|80:143,1,120,8|8,0:0|0:0,0:0:0:0:
102,102,63170,2,0,L|310:123,1,180,0|8,3:0|0:0,0:0:0:0:
353,203,64003,6,0,P|365:143|360:60,1,120,4|4,3:2|3:2,0:0:0:0:
405,49,64503,1,0,1:0:0:0:
405,49,64670,1,4,3:2:0:0:
306,4,65003,1,4,3:2:0:0:
244,93,65337,6,0,P|227:156|244:254,2,120,6|2|2,3:2|3:0|3:0,0:0:0:0:
328,26,66337,1,2,3:0:0:0:
434,49,66670,6,0,B|467:99|467:99|436:173,1,120,4|8,1:0|0:0,0:0:0:0:
451,214,67170,2,0,B|401:251|401:251|303:213,1,120,0|0,3:0|3:0,0:0:0:0:
315,178,67670,2,0,P|283:171|240:168,1,60,8|0,0:0|0:0,0:0:0:0:
200,192,68003,1,0,3:0:0:0:
84,172,68337,1,8,0:0:0:0:
82,179,68503,2,0,P|51:176|15:171,1,60,0|0,0:0|3:0,0:0:0:0:
55,293,69003,1,8,0:0:0:0:
55,293,69170,6,0,B|106:326|106:326|181:296,1,120,0|0,0:0|0:0,0:0:0:0:
217,336,69670,1,8,0:0:0:0:
217,336,69837,2,0,B|268:369|268:369|343:339,1,120,0|0,0:0|3:0,0:0:0:0:
383,325,70337,1,8,0:0:0:0:
383,325,70503,1,0,0:0:0:0:
383,325,70670,1,0,3:0:0:0:
486,265,71003,1,8,0:0:0:0:
386,194,71337,2,0,L|365:109,1,60,2|8,3:0|0:0,0:0:0:0:
323,101,71670,2,0,L|302:16,1,60,2|8,3:0|0:0,0:0:0:0:
248,35,72003,6,0,B|215:85|215:85|246:159,1,120,4|8,1:0|0:0,0:0:0:0:
204,189,72503,2,0,B|254:226|254:226|352:188,1,120,0|0,0:0|3:0,0:0:0:0:
356,240,73003,2,0,P|363:272|366:315,1,60,8|0,0:0|0:0,0:0:0:0:
396,350,73337,1,0,3:0:0:0:
501,314,73670,1,8,0:0:0:0:
501,314,73836,2,0,P|512:276|496:242,1,60,0|0,0:0|3:0,0:0:0:0:
474,146,74336,1,8,0:0:0:0:
474,146,74503,6,0,B|423:113|423:113|348:143,1,120,0|0,0:0|0:0,0:0:0:0:
323,107,75003,1,8,0:0:0:0:
323,107,75170,2,0,P|261:97|178:82,1,120,0|0,0:0|3:0,0:0:0:0:
153,86,75670,1,8,0:0:0:0:
153,86,75836,1,0,0:0:0:0:
153,86,76003,1,0,3:0:0:0:
41,130,76337,1,8,0:0:0:0:
120,229,76670,1,0,1:0:0:0:
120,229,76837,2,0,L|203:205,2,60,0|0|0,3:0|1:0|3:0,0:0:0:0:
67,257,77337,6,0,B|56:317|56:317|102:368,1,120,4|8,1:0|0:0,0:0:0:0:
204,311,78003,2,0,L|346:340,1,120,0|8,1:0|0:0,0:0:0:0:
420,267,78670,2,0,L|437:195,1,60,0|0,1:0|3:0,0:0:0:0:
395,169,79003,1,8,0:0:0:0:
395,169,79170,2,0,L|225:134,1,120,0|0,3:0|3:0,0:0:0:0:
218,133,79670,1,8,0:0:0:0:
218,133,79837,6,0,B|176:173|176:173|89:151,1,120,0|0,3:0|3:0,0:0:0:0:
66,190,80337,1,8,0:0:0:0:
66,190,80503,1,0,3:0:0:0:
136,29,81003,1,8,0:0:0:0:
136,29,81170,1,0,3:0:0:0:
136,29,81337,5,0,1:0:0:0:
239,90,81670,2,0,L|306:105,1,60,8|0,0:0|3:0,0:0:0:0:
355,86,82003,1,4,1:2:0:0:
383,139,82170,2,0,L|456:131,1,60,0|0,0:0|1:0,0:0:0:0:
472,80,82503,1,0,1:0:0:0:
472,80,82670,6,0,P|489:194|494:344,1,240,4|8,1:0|0:0,0:0:0:0:
262,280,84003,1,0,3:0:0:0:
262,280,84170,2,0,P|263:193|277:93,2,180,0|8|6,3:0|0:0|0:3,0:0:0:0:
220,323,85337,6,0,B|115:301|165:393|35:359,1,180,4|2,1:0|3:0,0:0:0:0:
14,317,86013,1,8,0:0:0:0:
14,317,86180,1,0,1:0:0:0:
56,141,86680,6,0,L|41:55,2,80,2|0|0,3:0|1:0|1:0,0:0:0:0:
123,185,87345,6,0,L|209:170,2,80,10|8|4,0:3|0:3|0:3,0:0:0:0:
51,221,88013,5,4,1:0:0:0:
