osu file format v14

[General]
AudioFilename: audio.mp3
AudioLeadIn: 0
PreviewTime: 45337
Countdown: 0
SampleSet: Soft
StackLeniency: 0.3
Mode: 0
LetterboxInBreaks: 0
WidescreenStoryboard: 0

[Editor]
Bookmarks: 10671,18671,24004,34671,45337,61170,66670,77337,88003
DistanceSpacing: 1.2
BeatDivisor: 6
GridSize: 32
TimelineZoom: 2

[Metadata]
Title:Nirvana (TV Size)
TitleUnicode:ニルヴァーナ (TV Size)
Artist:MUCC
ArtistUnicode:MUCC
Creator:-Mikan
Version:Drama
Source:妖狐×僕SS
Tags:Agatsu Frakturehawkens OzzyOzrock Nardoxyribonucleic Cynplytholowazy -GN Junior Blizs ムック inu x boku the dog and me secret service opening op japanese anime
BeatmapID:2210201
BeatmapSetID:1057449

[Difficulty]
HPDrainRate:6
CircleSize:4
OverallDifficulty:9
ApproachRate:9.2
SliderMultiplier:1.7
SliderTickRate:1

[Events]
//Background and Video events
0,0,"thumb-1920-227222.jpg",0,0
Video,-398,"opening.avi"
//Break Periods
//Storyboard Layer 0 (Background)
//Storyboard Layer 1 (Fail)
//Storyboard Layer 2 (Pass)
//Storyboard Layer 3 (Foreground)
//Storyboard Layer 4 (Overlay)
//Storyboard Sound Samples

[TimingPoints]
5,333.333333333333,4,2,1,30,1,0
5,-200,4,2,1,30,0,0
254,-200,4,2,1,30,0,0
338,-200,4,2,1,30,0,0
504,-125,4,2,1,30,0,0
1171,-200,4,2,1,30,0,0
1838,-333.333333333333,4,2,1,30,0,0
2504,-142.857142857143,4,2,1,30,0,0
3171,-200,4,2,1,30,0,0
3838,-333.333333333333,4,2,1,30,0,0
5338,-200,4,2,1,30,0,0
5838,-125,4,2,1,30,0,0
7171,-166.666666666667,4,2,1,30,0,0
7838,-100,4,2,1,30,0,0
9171,-166.666666666667,4,2,1,30,0,0
10338,-250,4,2,1,30,0,0
10671,-125,4,2,1,40,0,0
15838,-100,4,2,1,40,0,0
16338,-100,4,2,1,60,0,0
18504,-83.3333333333333,4,2,1,60,0,1
24004,-111.111111111111,4,2,1,60,0,0
24005,-111.111111111111,4,2,1,40,0,0
34504,-111.111111111111,4,2,1,60,0,0
39338,319.148936170213,4,2,1,60,1,8
40004,333.333333333333,4,2,1,60,1,0
40004,-111.111111111111,4,2,1,60,0,0
44337,-90.9090909090908,4,2,1,60,0,0
45337,-80,4,2,1,70,0,1
61170,-80,4,2,1,70,0,0
64003,-80,4,2,1,30,0,1
64337,-80,4,2,1,40,0,1
64670,-80,4,2,1,50,0,1
65003,-80,4,2,1,60,0,1
65337,-80,4,2,1,30,0,1
65670,-80,4,2,1,40,0,1
66003,-80,4,2,1,50,0,1
66337,-80,4,2,1,60,0,1
66503,-66.6666666666667,4,2,1,60,0,0
66670,-58.8235294117647,4,2,1,70,0,1
67170,-80,4,2,1,70,0,1
82670,-80,4,2,1,70,0,0
83337,-100,4,2,1,70,0,0
86013,333.333333333333,4,2,1,70,1,0
86679,333.333333333333,4,2,1,70,1,0
88013,-285.714285714286,4,2,1,70,0,0
90680,-285.714285714286,4,2,1,50,0,0
91347,-285.714285714286,4,2,1,35,0,0
92013,-285.714285714286,4,2,1,20,0,0
92347,-285.714285714286,4,2,1,5,0,0

[Colours]
Combo1 : 255,121,121
Combo2 : 226,102,80
Combo3 : 231,84,183
Combo4 : 255,227,100
Combo5 : 162,224,255

[HitObjects]
62,330,5,6,0,P|56:286|40:262,1,63.75,2|0,0:0|0:0,0:0:0:0:
30,268,338,1,2,0:0:0:0:
156,384,504,6,0,P|167:317|214:232,1,136,2|0,0:0|0:0,0:0:0:0:
266,224,1004,1,2,0:0:0:0:
169,139,1171,6,0,P|133:172|94:166,1,85,2|0,0:0|0:0,0:0:0:0:
44,116,1671,1,2,0:0:0:0:
210,67,1838,6,0,P|175:55|162:39,1,50.9999984436036,2|0,0:0|0:0,0:0:0:0:
162,18,2338,1,2,0:0:0:0:
44,116,2504,6,0,P|49:165|47:250,1,118.999996368408,2|0,0:0|0:0,0:0:0:0:
31,312,3004,1,2,0:0:0:0:
159,291,3171,6,0,P|162:255|161:194,1,85,2|0,0:0|0:0,0:0:0:0:
150,167,3671,1,2,0:0:0:0:
263,147,3838,6,0,P|266:176|264:228,1,76.4999976654053,2|2,0:0|0:0,0:0:0:0:
274,299,4504,1,2,0:0:0:0:
343,335,4671,1,2,0:0:0:0:
411,303,4838,1,2,0:0:0:0:
343,335,5004,1,2,0:0:0:0:
411,303,5171,1,2,0:0:0:0:
486,329,5338,6,0,P|495:275|504:253,1,63.75,2|0,0:3|0:0,0:0:0:0:
509,257,5671,1,2,0:0:0:0:
457,94,5838,6,0,P|389:110|386:180,1,136,0|0,0:0|0:0,0:0:0:0:
431,224,6338,1,2,0:0:0:0:
318,256,6504,6,0,B|286:224|300:184|300:184|305:215|344:237,1,136,0|2,0:0|0:0,0:0:0:0:
379,167,7004,1,2,0:0:0:0:
486,329,7171,6,0,P|455:299|391:303,1,101.999996887207,2|0,0:0|0:0,0:0:0:0:
363,365,7671,1,2,0:0:0:0:
215,294,7838,6,0,P|234:236|332:230,1,170,0|0,0:0|0:0,0:0:0:0:
319,303,8338,1,0,0:0:0:0:
457,94,8504,6,0,B|402:90|377:134|389:180|412:187|412:187|412:152|432:132,1,170,2|0,0:0|0:0,0:0:0:0:
487,174,9004,1,2,0:0:0:0:
363,42,9171,6,0,P|315:52|251:55,1,101.999996887207,0|2,0:0|0:0,0:0:0:0:
200,15,9671,1,2,0:3:0:0:
123,22,9838,1,2,0:0:0:0:
44,116,10004,6,0,P|56:159|60:182,1,50.9999984436036,0|2,0:3|0:3,0:0:0:0:
75,181,10254,1,2,0:3:0:0:
75,181,10338,2,0,P|65:233|64:246,1,51,2|0,0:3|0:0,0:0:0:0:
80,304,10671,5,0,0:0:0:0:
80,304,11004,2,0,P|135:307|155:328,1,68,2|2,0:0|0:0,0:0:0:0:
250,384,11338,2,0,P|225:334|233:307,1,68,0|0,0:0|0:0,0:0:0:0:
172,245,11671,1,2,0:0:0:0:
235,200,11838,2,0,P|204:246|176:252,1,68,2|0,0:0|0:0,0:0:0:0:
140,133,12171,5,0,0:0:0:0:
105,198,12338,2,0,P|108:143|129:123,1,68,2|2,0:0|0:0,0:0:0:0:
185,28,12672,2,0,P|135:52|108:44,1,68,0|0,0:0|0:0,0:0:0:0:
42,107,13004,1,2,0:0:0:0:
1,43,13171,2,0,P|47:73|53:101,1,68,2|2,0:0|0:0,0:0:0:0:
176,176,13504,5,0,0:0:0:0:
105,198,13671,2,0,P|145:160|174:160,1,68,2|2,0:0|0:0,0:0:0:0:
281,131,14005,2,0,P|228:114|214:89,1,68,0|0,0:0|0:0,0:0:0:0:
123,89,14338,1,2,0:0:0:0:
138,15,14504,2,0,P|150:68|135:93,1,68,2|0,0:0|0:0,0:0:0:0:
176,176,14838,1,0,0:0:0:0:
105,198,15005,2,0,P|145:160|174:160,1,68,2|0,0:0|0:0,0:0:0:0:
143,313,15338,5,4,0:0:0:0:
143,313,15838,6,0,B|204:305|249:295|249:295|284:353|348:339,1,212.5,4|0,1:0|0:0,0:0:0:0:
359,327,16338,5,0,3:0:0:0:
272,194,16504,1,0,3:0:0:0:
455,46,16671,1,0,3:0:0:0:
409,220,16838,1,0,3:0:0:0:
272,94,17004,1,0,3:0:0:0:
394,243,17171,1,0,3:0:0:0:
473,32,17338,5,10,0:0:0:0:
433,15,17421,1,2,0:0:0:0:
390,20,17504,1,10,0:0:0:0:
360,50,17588,1,2,0:0:0:0:
351,93,17671,1,10,0:0:0:0:
326,127,17754,1,2,0:0:0:0:
277,143,17838,1,10,0:0:0:0:
222,133,17921,1,2,0:0:0:0:
183,89,18004,6,2,P|185:39|185:25,1,42.5,10|2,0:0|0:0,0:0:0:0:
310,227,18171,2,2,P|307:276|307:290,1,42.5,10|2,0:0|0:0,0:0:0:0:
76,345,18338,2,2,L|141:341,1,42.5,10|2,0:0|0:0,0:0:0:0:
201,227,18504,6,0,P|146:221|89:207,1,101.999996887207,4|0,1:0|0:0,0:0:0:0:
225,328,18838,1,2,0:0:0:0:
225,328,18921,1,2,0:0:0:0:
225,328,19004,1,8,0:0:0:0:
316,183,19171,1,2,0:0:0:0:
325,180,19254,1,0,0:0:0:0:
334,177,19338,2,0,P|325:122|324:107,1,50.9999984436036,0|0,3:0|0:0,0:0:0:0:
431,28,19504,2,0,P|422:83|421:98,1,50.9999984436036,2|0,0:0|0:0,0:0:0:0:
512,160,19671,5,8,0:0:0:0:
487,155,19754,1,0,0:0:0:0:
462,161,19837,1,0,0:0:0:0:
442,176,19920,1,0,0:0:0:0:
430,201,20004,2,0,P|358:186|263:177,1,152.999995330811,0|2,3:0|0:0,0:0:0:0:
267,188,20338,5,8,0:0:0:0:
59,138,20504,1,2,0:0:0:0:
67,132,20588,1,0,0:0:0:0:
75,126,20671,2,0,L|63:62,1,50.9999984436036,0|0,3:0|0:0,0:0:0:0:
170,218,20838,2,0,L|182:154,1,50.9999984436036,2|0,0:0|0:0,0:0:0:0:
16,260,21004,1,8,0:0:0:0:
36,258,21088,1,0,1:0:0:0:
54,265,21171,1,8,0:3:0:0:
69,277,21254,1,4,0:3:0:0:
78,295,21338,1,0,3:0:0:0:
259,245,21504,6,0,B|216:211|216:211|160:219,1,101.999996887207,2|8,0:0|0:0,0:0:0:0:
160,233,21754,1,0,0:0:0:0:
161,233,21838,1,2,0:0:0:0:
281,364,22004,2,0,L|338:353,1,50.9999984436036,0|0,3:0|0:0,0:0:0:0:
420,311,22171,1,2,0:0:0:0:
445,305,22254,1,2,0:0:0:0:
462,320,22338,1,8,0:0:0:0:
334,177,22504,6,0,L|342:113,1,50.9999984436036,2|0,0:0|0:0,0:0:0:0:
456,72,22671,2,0,L|448:136,1,50.9999984436036,0|0,3:0|0:0,0:0:0:0:
309,44,22838,1,2,0:0:0:0:
309,44,22921,1,0,0:0:0:0:
309,44,23004,2,0,L|374:41,1,50.9999984436036,8|0,0:0|0:0,0:0:0:0:
473,210,23171,2,0,L|392:202,1,50.9999984436036,2|0,0:0|0:0,0:0:0:0:
161,233,23338,5,8,0:0:0:0:
186,215,23421,1,8,0:0:0:0:
211,225,23504,2,0,P|220:286|220:300,1,50.9999984436036,8|0,3:0|0:0,0:0:0:0:
321,379,23671,1,8,0:0:0:0:
330,375,23754,2,0,P|339:314|339:300,1,50.9999984436036,8|0,3:0|0:0,0:0:0:0:
462,271,23921,5,8,0:0:0:0:
447,263,24004,2,0,P|436:204|434:165,1,76.4999976654053,4|2,0:0|0:0,0:0:0:0:
458,56,24338,1,0,3:0:0:0:
512,126,24504,2,0,P|459:144|405:116,1,114.749996498108,2|0,0:0|0:0,0:0:0:0:
404,109,24838,1,2,0:0:0:0:
458,56,25004,1,0,3:0:0:0:
311,14,25171,6,0,B|322:54|322:54|306:103,1,76.4999976654053,2|0,0:0|3:0,0:0:0:0:
211,84,25504,2,0,B|200:44|200:44|216:-5,1,76.4999976654053,2|0,0:0|3:0,0:0:0:0:
268,181,25838,2,0,P|201:166|166:166,1,76.4999976654053,2|0,0:0|3:0,0:0:0:0:
177,176,26088,1,2,0:0:0:0:
177,176,26171,1,2,0:0:0:0:
121,253,26338,1,0,3:0:0:0:
75,169,26504,1,2,0:0:0:0:
27,344,26671,6,0,P|92:327|122:324,1,76.4999976654053,0|2,3:0|0:0,0:0:0:0:
256,336,27004,1,0,3:0:0:0:
181,384,27171,2,0,P|178:321|174:290,1,76.4999976654053,2|0,0:0|3:0,0:0:0:0:
121,253,27504,1,2,0:0:0:0:
121,253,27588,1,0,0:0:0:0:
121,253,27671,1,0,3:0:0:0:
261,163,27838,6,0,P|309:172|331:222,1,76.4999976654053,2|0,0:0|3:0,0:0:0:0:
292,264,28171,2,0,P|244:255|222:205,1,76.4999976654053,2|0,0:0|3:0,0:0:0:0:
340,337,28504,2,0,P|379:324|439:317,1,76.4999976654053,2|0,0:3|3:0,0:0:0:0:
432,328,28754,1,2,0:3:0:0:
432,328,28838,1,0,0:0:0:0:
503,251,29004,1,2,3:0:0:0:
466,161,29171,5,0,0:0:0:0:
466,161,29254,1,0,0:3:0:0:
466,161,29338,2,0,P|427:148|367:141,1,76.4999976654053,4|0,0:0|0:0,0:0:0:0:
304,28,29671,1,0,3:0:0:0:
287,26,29754,1,0,0:0:0:0:
271,25,29838,2,0,P|256:86|273:110,1,76.4999976654053,2|0,0:0|3:0,0:0:0:0:
382,212,30171,2,0,P|396:150|379:126,1,76.4999976654053,2|0,0:0|3:0,0:0:0:0:
227,235,30504,6,0,B|202:194|156:202|156:202|136:241|92:243,1,152.999995330811,2|2,0:0|0:0,0:0:0:0:
3,134,31004,1,0,3:0:0:0:
79,95,31171,2,0,B|94:130|94:130|80:178,1,76.4999976654053,2|0,0:3|3:0,0:0:0:0:
72,175,31421,1,2,0:3:0:0:
72,175,31504,1,0,0:0:0:0:
6,303,31671,2,0,B|-9:268|-9:268|5:220,1,76.4999976654053,2|0,3:0|0:0,0:0:0:0:
99,357,32004,5,0,3:0:0:0:
175,288,32171,1,2,0:0:0:0:
114,364,32338,1,0,3:0:0:0:
231,355,32504,2,0,P|290:349|342:346,1,76.4999976654053,2|0,0:0|3:0,0:0:0:0:
457,384,32838,5,2,0:0:0:0:
457,384,32921,1,0,0:0:0:0:
457,384,33004,1,0,3:0:0:0:
394,247,33171,2,0,P|384:306|403:338,1,76.4999976654053,2|0,0:0|3:0,0:0:0:0:
505,323,33504,2,0,P|514:263|495:231,1,76.4999976654053,2|0,0:0|3:0,0:0:0:0:
512,129,33838,6,0,P|388:100|380:70,1,152.999995330811,12|2,0:0|0:3,0:0:0:0:
460,64,34338,1,2,0:3:0:0:
311,169,34504,5,4,1:0:0:0:
247,126,34671,2,0,P|254:71|256:30,1,76.4999976654053,0|2,3:0|0:0,0:0:0:0:
11,176,35004,2,0,B|94:167|94:167|128:189|120:215,1,114.749996498108,8|0,0:0|0:0,0:0:0:0:
113,208,35338,1,0,3:0:0:0:
171,26,35504,2,0,P|167:64|162:101,1,76.4999976654053,0|8,0:0|0:0,0:0:0:0:
301,237,35838,6,0,P|363:209|386:209,1,76.4999976654053,2|0,0:0|3:0,0:0:0:0:
494,358,36171,2,0,P|432:330|409:330,1,76.4999976654053,2|8,0:0|0:0,0:0:0:0:
506,126,36504,2,0,P|494:178|483:258,1,114.749996498108,2|0,0:0|0:0,0:0:0:0:
491,255,36838,1,2,0:3:0:0:
385,93,37004,5,8,0:0:0:0:
383,81,37088,1,0,0:0:0:0:
381,69,37171,1,2,0:3:0:0:
379,57,37254,1,0,0:0:0:0:
376,45,37338,1,0,3:0:0:0:
312,123,37504,1,2,0:0:0:0:
455,185,37671,1,8,0:0:0:0:
305,307,37838,6,0,B|288:278|288:278|302:231,1,76.4999976654053,2|0,0:0|3:0,0:0:0:0:
373,216,38088,1,0,0:0:0:0:
386,223,38171,2,0,B|403:252|403:252|389:299,1,76.4999976654053,2|8,0:0|0:0,0:0:0:0:
232,366,38504,6,0,P|177:361|139:358,1,76.4999976654053,2|0,0:0|3:0,0:0:0:0:
7,257,38838,2,0,P|61:261|99:264,1,76.4999976654053,2|8,0:0|0:0,0:0:0:0:
177,187,39171,1,0,0:0:0:0:
41,40,39338,5,2,3:0:0:0:
44,52,39417,1,2,0:3:0:0:
47,64,39497,1,2,0:3:0:0:
50,76,39577,1,2,0:3:0:0:
113,117,39657,5,10,3:0:0:0:
147,79,39736,1,2,3:0:0:0:
197,68,39816,1,6,3:0:0:0:
247,77,39896,1,2,3:0:0:0:
312,123,40004,6,0,P|304:176|304:212,2,76.4999976654053,4|2|8,0:0|0:0|0:0,0:0:0:0:
390,293,40504,2,0,B|311:281|321:347|232:333,1,152.999995330811,2|2,0:0|0:0,0:0:0:0:
83,263,41004,5,8,0:0:0:0:
129,336,41170,2,0,P|161:286|157:245,1,76.4999976654053,2|0,0:0|3:0,0:0:0:0:
75,130,41504,2,0,P|43:180|47:221,1,76.4999976654053,2|8,0:0|0:0,0:0:0:0:
83,263,41837,1,0,0:0:0:0:
246,121,42004,5,8,0:0:0:0:
237,97,42087,1,8,0:3:0:0:
247,74,42170,1,8,0:3:0:0:
341,206,42337,2,0,L|285:195,1,38.2499988327027,8|8,0:0|0:3,0:0:0:0:
129,336,42504,5,0,0:0:0:0:
143,333,42587,1,8,0:0:0:0:
159,331,42670,2,0,L|274:313,1,114.749996498108,4|0,0:0|0:0,0:0:0:0:
282,323,43004,5,8,0:0:0:0:
169,182,43170,1,0,3:0:0:0:
109,361,43337,1,8,0:0:0:0:
184,167,43504,1,0,3:0:0:0:
40,281,43670,5,8,0:0:0:0:
332,174,43837,1,8,0:0:0:0:
152,18,44003,6,0,L|146:63,3,38.2499988327027,8|0|0|0,0:0|0:0|3:0|0:0,0:0:0:0:
260,133,44337,2,0,L|205:124,1,46.7500014266968,8|0,0:0|0:0,0:0:0:0:
45,177,44503,2,0,L|93:184,1,46.7500014266968,0|0,3:0|0:0,0:0:0:0:
200,282,44670,5,0,1:0:0:0:
245,275,44753,1,0,1:0:0:0:
291,286,44837,1,0,1:0:0:0:
326,315,44920,1,0,1:0:0:0:
354,350,45003,1,0,3:0:0:0:
398,363,45087,1,0,3:0:0:0:
443,359,45170,2,0,L|451:307,1,46.7500014266968,0|0,3:0|3:0,0:0:0:0:
512,189,45337,6,0,B|463:196|405:212|405:212|370:193|375:153,1,159.375,4|0,1:0|0:0,0:0:0:0:
384,161,45670,1,8,0:0:0:0:
215,0,45837,2,0,B|283:8|283:8|265:153,1,212.5,0|0,0:0|3:0,0:0:0:0:
81,276,46337,5,8,0:0:0:0:
1,223,46503,2,0,P|39:188|91:183,1,106.25,0|0,0:0|3:0,0:0:0:0:
113,194,46753,1,0,0:0:0:0:
113,194,46837,1,0,0:0:0:0:
311,315,47003,1,8,0:0:0:0:
186,384,47170,2,0,P|193:322|196:266,1,106.25,0|0,0:0|3:0,0:0:0:0:
251,224,47420,1,8,0:0:0:0:
245,207,47503,1,0,3:0:0:0:
421,347,47670,1,8,0:0:0:0:
497,160,47837,5,0,0:0:0:0:
512,189,47920,1,0,0:0:0:0:
496,215,48003,2,0,P|426:203|323:197,1,159.375,0|0,3:0|0:0,0:0:0:0:
330,183,48337,1,8,0:0:0:0:
321,23,48503,2,0,P|363:72|409:109,1,106.25,0|0,0:0|3:0,0:0:0:0:
203,209,48837,1,0,3:0:0:0:
203,209,49003,2,0,P|228:136|231:86,1,106.25,8|0,0:0|0:0,0:0:0:0:
20,325,49337,6,0,B|96:318|96:318|111:325|111:325|210:316,1,159.375,2|0,3:0|0:0,0:0:0:0:
253,282,49670,2,0,B|225:313|225:313|245:401,1,106.25,8|2,0:0|0:3,0:0:0:0:
77,206,50003,1,2,3:0:0:0:
91,193,50087,1,8,0:0:0:0:
113,194,50170,1,0,3:0:0:0:
349,61,50337,5,8,0:0:0:0:
321,23,50420,1,0,0:0:0:0:
274,10,50503,1,2,0:3:0:0:
226,18,50587,1,0,0:0:0:0:
192,52,50670,2,0,P|209:132|223:242,1,159.375,4|0,1:0|0:0,0:0:0:0:
209,221,51003,1,8,0:0:0:0:
431,309,51170,6,0,B|306:301|360:394|221:373,1,212.5,0|0,0:0|3:0,0:0:0:0:
435,212,51670,1,8,0:0:0:0:
349,60,51837,2,0,P|339:113|333:165,1,106.25,0|0,0:0|3:0,0:0:0:0:
342,184,52087,1,0,0:0:0:0:
342,184,52170,1,0,0:0:0:0:
512,272,52337,5,8,0:0:0:0:
284,341,52503,2,0,B|330:343|330:343|342:350|342:350|395:352,1,106.25,0|0,0:0|3:0,0:0:0:0:
433,295,52753,1,8,0:0:0:0:
423,276,52837,1,0,3:0:0:0:
219,208,53003,5,8,0:0:0:0:
171,214,53087,1,0,0:0:0:0:
123,220,53170,1,0,0:0:0:0:
75,226,53253,1,0,0:0:0:0:
37,251,53337,2,0,B|43:179|43:179|33:162|33:162|41:84,1,159.375,0|0,3:0|0:0,0:0:0:0:
25,84,53670,1,8,0:0:0:0:
175,320,53837,6,0,P|130:327|42:345,1,106.25,0|0,0:0|3:0,0:0:0:0:
342,141,54170,1,0,3:0:0:0:
342,141,54337,2,0,P|297:134|209:116,1,106.25,8|0,0:0|0:0,0:0:0:0:
385,242,54670,5,2,3:0:0:0:
300,1,54837,1,2,3:0:0:0:
385,242,55003,1,8,0:0:0:0:
300,1,55170,1,2,3:0:0:0:
473,274,55337,5,2,3:0:0:0:
425,271,55420,1,0,1:0:0:0:
381,290,55503,1,0,1:0:0:0:
356,331,55587,1,8,0:3:0:0:
327,368,55670,1,8,0:3:0:0:
280,376,55753,1,8,0:3:0:0:
233,364,55837,5,0,3:0:0:0:
201,285,55920,5,0,3:0:0:0:
255,218,56003,6,0,P|266:293|281:382,1,159.375,4|0,0:0|0:0,0:0:0:0:
294,382,56337,1,8,0:0:0:0:
42,232,56503,2,0,B|85:198|85:198|148:212,1,106.25,0|0,0:0|3:0,0:0:0:0:
145,224,56753,1,0,0:0:0:0:
145,224,56837,1,0,3:0:0:0:
109,307,57003,1,8,0:0:0:0:
342,141,57170,6,0,P|272:123|220:107,1,106.25,0|0,0:0|3:0,0:0:0:0:
366,230,57503,1,0,0:0:0:0:
198,117,57670,1,8,0:0:0:0:
445,6,57837,2,0,P|436:63|429:118,1,106.25,0|0,0:0|3:0,0:0:0:0:
440,128,58087,1,8,0:0:0:0:
459,124,58170,1,0,3:0:0:0:
290,0,58337,5,8,0:0:0:0:
100,161,58503,1,0,3:0:0:0:
69,131,58587,1,0,0:0:0:0:
83,91,58670,2,0,B|169:99|169:99|182:107|182:107|251:114,1,159.375,0|0,3:0|0:0,0:0:0:0:
256,102,59003,1,8,0:0:0:0:
161,321,59170,6,0,P|169:269|144:223,1,106.25,0|0,0:0|3:0,0:0:0:0:
26,345,59503,1,0,3:0:0:0:
26,345,59670,2,0,P|0:299|9:247,1,106.25,8|0,0:0|0:0,0:0:0:0:
261,340,60003,6,0,P|349:347|461:366,1,159.375,2|2,3:0|0:3,0:0:0:0:
437,351,60337,1,8,0:0:0:0:
512,158,60503,1,2,0:3:0:0:
376,227,60670,1,2,3:0:0:0:
200,44,60837,5,2,0:0:0:0:
494,237,61003,1,8,0:0:0:0:
261,340,61170,1,4,1:0:0:0:
261,340,61670,5,8,0:0:0:0:
245,266,61837,1,0,3:0:0:0:
326,157,62003,5,8,0:0:0:0:
310,83,62170,1,0,3:0:0:0:
139,222,62337,5,8,0:0:0:0:
155,148,62504,1,0,3:0:0:0:
376,227,62670,5,8,0:0:0:0:
269,212,62837,1,0,3:0:0:0:
192,294,63003,1,8,0:0:0:0:
60,317,63170,1,0,3:0:0:0:
2,205,63337,5,8,0:0:0:0:
256,367,63503,1,0,3:0:0:0:
2,205,63670,1,8,0:0:0:0:
256,367,63836,1,0,3:0:0:0:
113,379,64003,5,4,3:2:0:0:
93,351,64087,1,0,1:0:0:0:
91,317,64170,1,0,1:0:0:0:
110,288,64253,1,0,1:0:0:0:
141,278,64337,1,4,3:2:0:0:
174,267,64420,1,0,1:0:0:0:
194,241,64503,1,0,1:0:0:0:
201,207,64587,1,0,1:0:0:0:
155,148,64670,5,4,3:2:0:0:
134,153,64753,1,0,1:0:0:0:
113,158,64837,1,0,1:0:0:0:
92,162,64920,1,0,1:0:0:0:
71,168,65003,1,4,3:2:0:0:
27,136,65087,1,0,1:0:0:0:
23,83,65170,1,0,1:0:0:0:
62,47,65253,1,0,1:0:0:0:
153,43,65337,5,6,3:2:0:0:
166,60,65420,1,2,0:3:0:0:
145,53,65504,1,2,0:3:0:0:
166,47,65587,1,2,0:3:0:0:
153,65,65670,1,2,3:0:0:0:
151,36,65753,1,2,0:3:0:0:
172,63,65837,1,2,0:3:0:0:
141,53,65920,1,2,0:3:0:0:
172,43,66003,1,2,3:0:0:0:
153,70,66086,1,2,0:3:0:0:
150,31,66170,1,2,0:3:0:0:
175,66,66253,1,2,0:3:0:0:
135,54,66337,1,2,3:0:0:0:
176,40,66420,1,2,0:3:0:0:
246,100,66503,6,0,B|275:98|275:98|284:94|284:94|329:92,1,63.7500024318696,2|2,0:3|0:3,0:0:0:0:
492,124,66670,6,0,B|447:110|435:70|435:70|429:165|338:182,1,216.750004134178,4|0,1:0|0:0,0:0:0:0:
351,161,67003,1,8,0:0:0:0:
174,267,67170,2,0,B|304:248|247:346|379:333,1,212.5,0|0,3:0|3:0,0:0:0:0:
71,168,67670,1,8,0:0:0:0:
231,18,67837,2,0,P|224:99|222:146,1,106.25,0|0,0:0|3:0,0:0:0:0:
229,144,68087,1,0,0:0:0:0:
229,144,68170,1,0,0:0:0:0:
105,11,68337,5,8,0:0:0:0:
8,232,68503,2,0,P|1:151|-1:104,1,106.25,0|0,0:0|3:0,0:0:0:0:
55,81,68753,1,8,0:0:0:0:
72,91,68837,1,0,0:0:0:0:
265,224,69003,1,8,0:0:0:0:
211,229,69087,1,0,0:0:0:0:
174,267,69170,1,0,0:0:0:0:
169,319,69253,1,0,0:0:0:0:
200,362,69337,2,0,B|272:352|272:352|295:362|295:362|385:349,1,159.375,0|0,3:0|0:0,0:0:0:0:
373,365,69670,1,8,0:0:0:0:
437,149,69837,6,0,B|401:177|401:177|416:252,1,106.25,0|0,0:0|3:0,0:0:0:0:
174,113,70170,1,0,3:0:0:0:
231,54,70337,2,0,B|267:82|267:82|252:157,1,106.25,8|0,0:0|0:0,0:0:0:0:
510,51,70670,2,0,B|477:15|432:20|432:20|402:63|354:64,1,159.375,0|0,3:0|0:0,0:0:0:0:
351,47,71003,1,8,0:0:0:0:
412,236,71170,1,2,0:3:0:0:
213,159,71337,1,2,3:0:0:0:
227,139,71420,1,0,0:0:0:0:
255,141,71503,1,8,0:0:0:0:
359,316,71670,6,0,P|311:295|288:301,1,53.125,2|0,3:0|0:0,0:0:0:0:
281,364,71837,2,0,P|329:385|352:379,1,53.125,8|0,0:0|0:0,0:0:0:0:
412,236,72003,2,0,P|305:258|190:304,1,212.5,4|8,1:0|0:0,0:0:0:0:
10,233,72503,2,0,P|20:174|77:167,1,106.25,0|0,0:0|3:0,0:0:0:0:
88,173,72753,1,0,0:0:0:0:
88,173,72837,1,0,3:0:0:0:
130,343,73003,1,8,0:0:0:0:
260,141,73170,6,0,P|242:77|233:10,1,106.25,0|0,0:0|3:0,0:0:0:0:
368,135,73503,1,0,0:0:0:0:
172,225,73670,1,8,0:0:0:0:
386,154,73837,1,0,0:0:0:0:
135,25,74003,1,0,3:0:0:0:
115,38,74087,1,8,0:0:0:0:
113,62,74170,1,0,3:0:0:0:
262,270,74337,5,8,0:0:0:0:
288,229,74420,1,0,0:0:0:0:
288,181,74503,1,0,0:0:0:0:
260,141,74587,1,8,0:0:0:0:
213,131,74670,2,0,B|155:109|112:163|112:163|70:217|-6:173,1,212.5,4|8,1:0|0:0,0:0:0:0:
239,39,75170,5,0,0:0:0:0:
128,331,75337,2,0,P|109:263|86:211,1,106.25,0|0,3:0|3:0,0:0:0:0:
275,13,75670,1,8,0:0:0:0:
247,18,75753,1,0,0:0:0:0:
239,39,75837,1,0,0:0:0:0:
313,135,76003,6,0,P|375:124|429:119,1,106.25,0|2,3:0|0:3,0:0:0:0:
212,206,76337,1,8,0:0:0:0:
275,13,76503,1,2,0:3:0:0:
290,27,76587,1,0,0:0:0:0:
287,48,76670,1,0,1:0:0:0:
252,80,76753,1,0,1:0:0:0:
204,84,76837,1,0,3:0:0:0:
162,61,76920,1,0,3:0:0:0:
136,20,77003,5,0,1:0:0:0:
61,17,77087,5,0,1:0:0:0:
23,80,77170,5,0,3:0:0:0:
66,139,77253,5,0,3:0:0:0:
140,130,77337,5,4,1:0:0:0:
54,328,77503,6,0,P|36:267|29:251,1,53.125,0|0,3:0|3:0,0:0:0:0:
0,212,77670,1,8,0:0:0:0:
254,285,77837,1,0,3:0:0:0:
42,347,78003,1,0,1:0:0:0:
212,206,78170,5,0,3:0:0:0:
195,192,78253,1,0,0:0:0:0:
174,194,78337,1,8,0:0:0:0:
280,364,78503,1,0,3:0:0:0:
379,181,78670,1,0,1:0:0:0:
476,310,78837,5,0,3:0:0:0:
471,331,78920,1,0,3:0:0:0:
467,349,79003,1,8,0:0:0:0:
310,240,79170,1,0,3:0:0:0:
451,115,79337,2,0,L|510:127,1,53.125,0|0,1:0|0:0,0:0:0:0:
403,52,79503,1,0,3:0:0:0:
379,181,79670,5,8,0:0:0:0:
261,22,79837,1,0,3:0:0:0:
210,218,80003,1,0,1:0:0:0:
403,52,80170,1,0,3:0:0:0:
384,34,80253,1,0,3:0:0:0:
362,40,80337,1,8,0:0:0:0:
310,240,80503,5,0,3:0:0:0:
172,99,80670,1,0,1:0:0:0:
126,295,80837,1,0,3:0:0:0:
126,295,80920,1,0,0:0:0:0:
126,295,81003,1,8,0:0:0:0:
273,129,81170,1,0,3:0:0:0:
30,114,81337,1,0,1:0:0:0:
221,200,81503,1,0,3:0:0:0:
15,293,81670,1,8,0:0:0:0:
134,78,81837,6,0,P|129:40|121:8,1,53.125,0|0,3:0|0:0,0:0:0:0:
112,15,82003,2,0,P|128:130|140:256,1,212.5,4|0,1:2|1:0,0:0:0:0:
131,240,82420,1,0,1:0:0:0:
117,248,82503,1,0,1:0:0:0:
100,248,82587,1,0,1:0:0:0:
88,237,82670,6,0,B|134:200|197:226|213:271|213:271|252:338|334:313,1,265.625,4|0,1:0|0:0,0:0:0:0:
320,302,83170,1,2,3:0:0:0:
485,232,83337,6,0,B|455:192|455:192|436:316,1,170,8|2,0:0|0:3,0:0:0:0:
334,196,83837,1,0,0:0:0:0:
334,196,84003,1,0,3:0:0:0:
444,96,84170,2,0,P|371:79|344:66,1,85,0|0,3:0|0:0,0:0:0:0:
149,176,84503,5,0,3:0:0:0:
246,119,84670,2,0,P|173:136|146:149,1,85,8|2,0:0|3:0,0:0:0:0:
70,108,85003,1,8,0:3:0:0:
142,45,85170,1,6,0:3:0:0:
15,293,85337,6,0,B|146:258|146:258|199:281|189:337,1,212.5,4|0,1:0|0:0,0:0:0:0:
183,329,85837,1,2,3:0:0:0:
417,212,86013,2,0,P|362:197|320:190,1,85,8|0,0:0|1:0,0:0:0:0:
366,106,86347,2,0,P|421:121|463:128,1,85,2|0,0:3|3:0,0:0:0:0:
254,35,86680,6,0,P|264:69|268:96,2,56.6666666666667,2|8|0,3:0|0:3|1:0,0:0:0:0:
79,222,87013,2,0,P|89:188|93:161,2,56.6666666666667,0|0|0,1:0|1:0|1:0,0:0:0:0:
26,79,87345,5,10,0:3:0:0:
98,67,87456,5,8,0:3:0:0:
161,104,87567,5,8,0:3:0:0:
195,168,87680,5,6,0:3:0:0:
261,199,87791,5,4,0:3:0:0:
334,192,87902,5,4,0:3:0:0:
343,175,88013,6,0,B|321:148|238:132|173:199|181:303|181:303|154:158|82:118|28:223|-58:37|57:-84|215:10|156:113,1,773.499976394654,4|0,1:0|0:0,0:0:0:0:
