osu file format v14

[General]
AudioFilename: audio.mp3
AudioLeadIn: 0
PreviewTime: 45337
Countdown: 0
SampleSet: Normal
StackLeniency: 0.7
Mode: 1
LetterboxInBreaks: 0
WidescreenStoryboard: 1

[Editor]
DistanceSpacing: 0.9
BeatDivisor: 2
GridSize: 32
TimelineZoom: 0.8999997

[Metadata]
Title:Nirvana (TV Size)
TitleUnicode:ニルヴァーナ (TV Size)
Artist:MUCC
ArtistUnicode:MUCC
Creator:-Mikan
Version:Cynp-zy's Kantan
Source:妖狐×僕SS
Tags:Agatsu Frakturehawkens OzzyOzrock Nardoxyribonucleic Cynplytholowazy -GN Junior Blizs ムック inu x boku the dog and me secret service opening op japanese anime
BeatmapID:2210200
BeatmapSetID:1057449

[Difficulty]
HPDrainRate:8
CircleSize:10
OverallDifficulty:3
ApproachRate:10
SliderMultiplier:1.4
SliderTickRate:1

[Events]
//Background and Video events
0,0,"ririchiyo.jpg",0,100
Video,-398,"opening.avi"
//Break Periods
//Storyboard Layer 0 (Background)
//Storyboard Layer 1 (Fail)
//Storyboard Layer 2 (Pass)
//Storyboard Layer 3 (Foreground)
//Storyboard Layer 4 (Overlay)
//Storyboard Sound Samples

[TimingPoints]
5,333.333333333333,4,1,0,50,1,0
5,-125,4,1,0,50,0,0
15338,-125,4,1,0,70,0,0
24005,-125,4,1,0,60,0,0
34504,-125,4,1,0,70,0,0
39338,319.148936170213,4,1,0,70,1,8
39338,-130.555555555556,4,1,0,70,0,0
40004,333.333333333333,4,1,0,70,1,0
40004,-125,4,1,0,70,0,0
45337,-125,4,1,0,80,0,1
61170,-125,4,1,0,80,0,0
66670,-125,4,1,0,80,0,1
82670,-125,4,1,0,70,0,0
86013,333.333333333333,4,1,0,70,1,8
86013,-125,4,1,0,70,0,0
86679,333.333333333333,4,1,0,70,1,0
86679,-125,4,1,0,70,0,0
88013,-125,4,1,0,50,0,0
89347,-125,4,1,0,35,0,0
90680,-125,4,1,0,20,0,0
92013,-125,4,1,0,5,0,0

[Colours]
Combo1 : 255,172,89
Combo2 : 128,128,255
Combo3 : 152,203,159
Combo4 : 255,128,128

[HitObjects]
256,192,5,5,0,0:0:0:0:
256,192,1338,1,0,0:0:0:0:
256,192,2671,1,0,0:0:0:0:
256,192,4004,1,0,0:0:0:0:
256,192,5338,1,0,0:0:0:0:
256,192,6671,1,0,0:0:0:0:
256,192,8004,1,0,0:0:0:0:
256,192,9338,1,0,0:0:0:0:
256,192,10671,1,0,0:0:0:0:
256,192,11338,1,2,0:0:0:0:
256,192,12004,1,0,0:0:0:0:
256,192,13338,1,0,0:0:0:0:
256,192,14004,1,2,0:0:0:0:
256,192,14671,1,0,0:0:0:0:
256,192,15338,1,6,0:0:0:0:
256,192,15838,1,4,0:0:0:0:
256,192,16671,1,2,0:0:0:0:
256,192,17338,1,0,0:0:0:0:
256,192,17671,1,0,0:0:0:0:
256,192,18004,1,2,0:0:0:0:
256,192,18504,1,4,0:0:0:0:
256,192,19338,1,2,0:0:0:0:
256,192,20004,1,0,0:0:0:0:
256,192,20671,1,2,0:0:0:0:
256,192,21338,1,0,0:0:0:0:
256,192,22004,1,2,0:0:0:0:
256,192,22504,1,2,0:0:0:0:
256,192,23338,1,2,0:0:0:0:
256,192,23671,1,2,0:0:0:0:
256,192,24004,1,4,0:0:0:0:
256,192,25171,1,2,0:0:0:0:
256,192,25838,1,2,0:0:0:0:
256,192,26338,1,0,0:0:0:0:
256,192,26671,1,2,0:0:0:0:
256,192,27838,1,2,0:0:0:0:
256,192,28504,1,0,0:0:0:0:
256,192,29004,1,2,0:0:0:0:
256,192,29338,1,4,0:0:0:0:
256,192,30504,1,2,0:0:0:0:
256,192,31171,1,0,0:0:0:0:
256,192,31671,1,0,0:0:0:0:
256,192,32004,1,2,0:0:0:0:
256,192,32504,1,0,0:0:0:0:
256,192,33171,1,2,0:0:0:0:
256,192,33838,1,4,0:0:0:0:
256,192,34504,1,6,0:0:0:0:
256,192,35338,1,0,0:0:0:0:
256,192,36004,1,2,0:0:0:0:
256,192,36338,1,2,0:0:0:0:
256,192,36671,1,0,0:0:0:0:
256,192,37338,1,2,0:0:0:0:
256,192,38004,1,0,0:0:0:0:
256,192,38671,1,2,0:0:0:0:
256,192,39338,1,2,0:0:0:0:
256,192,39657,1,2,0:0:0:0:
256,192,39976,1,4,0:0:0:0:
256,192,40670,1,0,0:0:0:0:
256,192,41337,1,2,0:0:0:0:
256,192,42004,1,0,0:0:0:0:
256,192,42337,1,2,0:0:0:0:
256,192,42670,1,4,0:0:0:0:
256,192,43337,1,2,0:0:0:0:
256,192,43670,1,2,0:0:0:0:
256,192,44003,1,0,0:0:0:0:
256,192,44337,1,2,0:0:0:0:
256,192,44670,1,0,0:0:0:0:
256,192,45337,1,4,0:0:0:0:
256,192,46003,1,2,0:0:0:0:
256,192,46337,1,0,0:0:0:0:
256,192,46670,1,2,0:0:0:0:
256,192,47337,1,0,0:0:0:0:
256,192,48003,1,2,0:0:0:0:
256,192,48670,1,2,0:0:0:0:
256,192,49003,1,2,0:0:0:0:
256,192,49337,1,0,0:0:0:0:
256,192,50670,1,2,0:0:0:0:
256,192,51337,1,2,0:0:0:0:
256,192,51670,1,0,0:0:0:0:
256,192,52003,1,2,0:0:0:0:
256,192,52670,1,0,0:0:0:0:
256,192,53337,1,2,0:0:0:0:
256,192,54003,1,2,0:0:0:0:
256,192,54337,1,2,0:0:0:0:
256,192,54670,1,0,0:0:0:0:
256,192,56003,1,4,0:0:0:0:
256,192,56670,1,2,0:0:0:0:
256,192,57003,1,0,0:0:0:0:
256,192,57337,1,2,0:0:0:0:
256,192,58003,1,0,0:0:0:0:
256,192,58670,1,2,0:0:0:0:
256,192,59337,1,0,0:0:0:0:
256,192,59670,1,2,0:0:0:0:
256,192,60003,1,0,0:0:0:0:
256,192,61170,1,4,0:0:0:0:
256,192,61670,1,2,0:0:0:0:
256,192,62003,1,2,0:0:0:0:
256,192,62337,1,0,0:0:0:0:
256,192,62670,1,2,0:0:0:0:
256,192,63337,1,0,0:0:0:0:
256,192,64003,1,2,0:0:0:0:
256,192,64337,1,2,0:0:0:0:
256,192,64670,1,2,0:0:0:0:
256,192,65003,1,0,0:0:0:0:
256,192,65337,1,2,0:0:0:0:
256,192,66670,1,6,0:0:0:0:
256,192,67337,1,2,0:0:0:0:
256,192,67670,1,0,0:0:0:0:
256,192,68003,1,2,0:0:0:0:
256,192,68670,1,0,0:0:0:0:
256,192,69337,1,2,0:0:0:0:
256,192,70003,1,2,0:0:0:0:
256,192,70337,1,2,0:0:0:0:
256,192,70670,1,0,0:0:0:0:
256,192,72003,1,2,0:0:0:0:
256,192,72670,1,2,0:0:0:0:
256,192,73003,1,0,0:0:0:0:
256,192,73337,1,2,0:0:0:0:
256,192,74003,1,0,0:0:0:0:
256,192,74670,1,2,0:0:0:0:
256,192,75337,1,2,0:0:0:0:
256,192,75670,1,2,0:0:0:0:
256,192,76003,1,0,0:0:0:0:
256,192,77337,1,4,0:0:0:0:
256,192,78003,1,2,0:0:0:0:
256,192,78337,1,0,0:0:0:0:
256,192,78670,1,2,0:0:0:0:
256,192,79003,1,0,0:0:0:0:
256,192,79337,1,2,0:0:0:0:
256,192,80003,1,0,0:0:0:0:
256,192,80670,1,0,0:0:0:0:
256,192,81003,1,2,0:0:0:0:
256,192,81337,1,0,0:0:0:0:
256,192,81670,1,2,0:0:0:0:
256,192,82003,1,0,0:0:0:0:
256,192,82670,1,4,0:0:0:0:
256,192,83670,1,2,0:0:0:0:
256,192,84003,1,0,0:0:0:0:
256,192,84670,1,2,0:0:0:0:
256,192,85337,1,4,0:0:0:0:
256,192,86680,1,2,0:0:0:0:
256,192,87345,1,2,0:0:0:0:
256,192,88013,1,4,0:0:0:0:
256,192,88513,12,4,92013,0:0:0:0:
