osu file format v14

[General]
AudioFilename: audio.mp3
AudioLeadIn: 0
PreviewTime: 45337
Countdown: 0
SampleSet: Soft
StackLeniency: 0.7
Mode: 0
LetterboxInBreaks: 0
WidescreenStoryboard: 1

[Editor]
DistanceSpacing: 1.3
BeatDivisor: 6
GridSize: 16
TimelineZoom: 1.8

[Metadata]
Title:Nirvana (TV Size)
TitleUnicode:ニルヴァーナ (TV Size)
Artist:MUCC
ArtistUnicode:MUCC
Creator:-Mikan
Version:Blizs' Insane
Source:妖狐×僕SS
Tags:Agatsu Frakturehawkens OzzyOzrock Nardoxyribonucleic Cynplytholowazy -GN Junior Blizs ムック inu x boku the dog and me secret service opening op japanese anime
BeatmapID:2210198
BeatmapSetID:1057449

[Difficulty]
HPDrainRate:6
CircleSize:4
OverallDifficulty:7
ApproachRate:9
SliderMultiplier:1.7
SliderTickRate:1

[Events]
//Background and Video events
0,0,"thumb-1920-227222.jpg",0,0
Video,-398,"opening.avi"
//Break Periods
//Storyboard Layer 0 (Background)
//Storyboard Layer 1 (Fail)
//Storyboard Layer 2 (Pass)
//Storyboard Layer 3 (Foreground)
//Storyboard Layer 4 (Overlay)
//Storyboard Sound Samples

[TimingPoints]
5,333.333333333333,4,2,1,30,1,0
5,-142.857142857143,4,2,1,30,0,0
10671,-117.647058823529,4,2,1,40,0,0
15338,-117.647058823529,4,2,1,70,0,0
15838,-105.263157894737,4,2,1,70,0,0
16338,-111.111111111111,4,2,1,60,0,0
16671,-111.111111111111,4,2,1,60,0,0
17005,-111.111111111111,4,2,1,60,0,0
17338,-111.111111111111,4,2,1,60,0,0
24004,-125,4,2,1,60,0,0
34504,-100,4,2,1,60,0,0
39338,319.148936170213,4,2,1,60,1,0
40004,333.333333333333,4,2,1,60,1,0
43004,-100,4,2,1,50,0,0
44003,-100,4,2,1,60,0,0
44670,-100,4,2,1,70,0,0
45337,-100,4,2,1,75,0,1
61170,-100,4,2,1,70,0,0
64003,-100,4,2,1,30,0,0
64337,-100,4,2,1,40,0,0
64670,-100,4,2,1,50,0,0
65003,-100,4,2,1,60,0,0
65337,-125,4,2,1,30,0,0
65670,-125,4,2,1,40,0,0
66003,-125,4,2,1,50,0,0
66337,-125,4,2,1,60,0,0
66670,-100,4,2,1,80,0,1
82670,-142.857142857143,4,2,1,70,0,0
86013,333.333333333333,4,2,1,70,1,0
86013,-142.857142857143,4,2,1,70,0,0
86679,333.333333333333,4,2,1,70,1,0
86679,-111.111111111111,4,2,1,70,0,0
88013,-250,4,2,1,70,0,0
88097,-250,4,2,1,5,0,0

[Colours]
Combo1 : 255,172,89
Combo2 : 128,128,255
Combo3 : 152,203,159
Combo4 : 255,128,128

[HitObjects]
125,110,5,6,0,P|113:153|160:222,1,118.999996368408,2|0,0:0|0:0,0:0:0:0:
94,309,504,2,0,P|173:318|274:332,1,178.499994552612,0|0,0:0|0:0,0:0:0:0:
404,375,1171,1,0,0:0:0:0:
479,327,1338,6,0,P|493:262|460:217,1,118.999996368408,2|0,0:0|0:0,0:0:0:0:
320,163,1838,2,0,B|362:180|404:148|404:148|446:116|487:133,1,178.499994552612,0|0,0:0|0:0,0:0:0:0:
395,25,2504,1,0,0:0:0:0:
309,2,2671,6,0,P|264:38|261:96,1,118.999996368408,2|0,0:0|0:0,0:0:0:0:
385,216,3171,2,0,P|297:203|208:193,1,178.499994552612,0|0,0:0|0:0,0:0:0:0:
71,248,3838,1,0,0:0:0:0:
65,158,4005,5,2,0:0:0:0:
65,158,4171,1,0,0:0:0:0:
158,269,4338,1,2,0:0:0:0:
158,269,4504,1,0,0:0:0:0:
149,124,4671,1,2,0:0:0:0:
149,124,4838,1,0,0:0:0:0:
71,248,5004,1,2,0:0:0:0:
71,248,5171,1,0,0:0:0:0:
208,193,5338,6,0,P|267:186|326:177,1,118.999996368408,2|0,0:0|0:0,0:0:0:0:
512,153,5838,2,0,P|506:69|427:41,1,178.499994552612,0|0,0:0|0:0,0:0:0:0:
355,93,6503,1,0,0:0:0:0:
291,28,6671,6,0,P|231:21|172:12,1,118.999996368408,2|0,0:0|0:0,0:0:0:0:
0,96,7171,2,0,P|81:72|142:132,1,178.499994552612,0|0,0:0|0:0,0:0:0:0:
153,319,7838,1,0,0:0:0:0:
73,280,8005,6,0,P|66:220|58:162,1,118.999996368408,2|0,0:0|0:0,0:0:0:0:
210,250,8504,2,0,B|252:267|294:235|294:235|336:203|377:220,1,178.499994552612,0|0,0:0|0:0,0:0:0:0:
420,356,9171,1,0,0:0:0:0:
465,219,9337,5,2,0:0:0:0:
465,219,9504,1,0,0:0:0:0:
349,304,9671,1,2,0:0:0:0:
349,304,9838,1,0,0:0:0:0:
492,304,10004,1,2,0:0:0:0:
378,220,10171,1,2,0:0:0:0:
374,205,10254,1,2,0:0:0:0:
370,191,10337,1,2,0:0:0:0:
366,176,10671,6,0,P|333:153|276:162,1,72.2500013780594,2|0,0:0|0:0,0:0:0:0:
145,274,11004,1,2,0:0:0:0:
145,274,11171,2,0,P|181:271|210:250,2,72.2500013780594,0|2|0,0:0|0:0|0:0,0:0:0:0:
15,132,11671,2,0,L|7:61,1,72.2500013780594,2|0,0:0|0:0,0:0:0:0:
157,108,12004,6,0,L|149:180,1,72.2500013780594,2|0,0:0|0:0,0:0:0:0:
11,296,12338,1,2,0:0:0:0:
11,296,12504,2,0,L|3:225,2,72.2500013780594,0|2|0,0:0|0:0|0:0,0:0:0:0:
209,298,13004,2,0,P|180:277|145:273,1,72.2500013780594,2|0,0:0|0:0,0:0:0:0:
276,365,13338,6,0,P|311:361|340:340,1,72.2500013780594,2|0,0:0|0:0,0:0:0:0:
471,300,13671,1,2,0:0:0:0:
471,300,13838,2,0,P|442:278|406:275,2,72.2500013780594,0|2|0,0:0|0:0|0:0,0:0:0:0:
401,181,14338,2,0,P|365:186|338:209,1,72.2500013780594,2|0,0:0|0:0,0:0:0:0:
276,365,14671,5,2,0:0:0:0:
276,365,14838,1,0,0:0:0:0:
407,275,15004,1,2,0:0:0:0:
407,275,15171,1,0,0:0:0:0:
209,298,15338,1,6,0:0:0:0:
198,317,15838,6,0,B|182:259|182:259|192:219|192:219|176:161,1,161.499995687485,4|0,1:0|0:0,0:0:0:0:
51,56,16338,1,0,0:0:0:0:
51,56,16504,1,0,0:0:0:0:
89,212,16671,1,0,0:0:0:0:
89,212,16838,1,0,0:0:0:0:
151,63,17004,1,0,0:0:0:0:
151,63,17171,1,0,0:0:0:0:
13,148,17338,5,0,1:0:0:0:
176,161,17504,1,0,1:0:0:0:
51,56,17671,1,0,1:0:0:0:
179,173,17838,1,0,1:0:0:0:
237,9,18004,1,0,1:0:0:0:
182,185,18171,1,0,1:0:0:0:
314,74,18338,1,0,1:0:0:0:
185,197,18504,6,0,L|174:352,1,152.999995330811,4|0,1:0|0:0,0:0:0:0:
190,358,18921,1,2,0:0:0:0:
206,367,19004,2,0,L|211:290,1,76.4999976654053,2|0,1:2|0:0,0:0:0:0:
362,240,19338,1,0,0:0:0:0:
434,308,19504,2,0,P|471:312|506:296,1,76.4999976654053,2|0,0:0|1:0,0:0:0:0:
434,173,19838,1,0,0:0:0:0:
362,240,20004,6,0,P|324:244|290:229,1,76.4999976654053,2|0,0:0|0:0,0:0:0:0:
363,106,20338,1,0,1:0:0:0:
434,173,20504,2,0,P|471:177|506:161,1,76.4999976654053,2|0,0:0|0:0,0:0:0:0:
434,39,20838,1,0,0:0:0:0:
363,106,21004,2,0,P|325:110|290:94,1,76.4999976654053,2|0,1:2|0:0,0:0:0:0:
118,63,21338,5,0,0:0:0:0:
99,163,21504,1,2,0:0:0:0:
99,163,21588,1,2,0:0:0:0:
99,163,21671,1,2,1:2:0:0:
214,29,21838,1,0,0:0:0:0:
22,97,22004,2,0,P|-1:137|0:179,1,76.4999976654053,2|0,0:0|0:0,0:0:0:0:
195,130,22338,1,0,1:0:0:0:
99,163,22504,6,0,P|122:203|158:223,1,76.4999976654053,2|0,0:0|0:0,0:0:0:0:
214,29,22838,1,0,0:0:0:0:
195,130,23004,2,0,P|241:130|276:108,1,76.4999976654053,2|0,1:2|0:0,0:0:0:0:
417,41,23338,1,0,1:0:0:0:
417,41,23421,1,0,1:0:0:0:
417,41,23504,1,8,0:3:0:0:
339,190,23671,1,0,1:0:0:0:
339,190,23754,1,8,0:3:0:0:
410,263,23921,1,0,1:0:0:0:
410,263,24004,6,0,L|401:344,1,68,4|0,1:0|0:0,0:0:0:0:
492,199,24338,1,0,0:0:0:0:
397,159,24504,2,0,P|364:168|339:190,1,68
180,270,24838,2,0,P|203:295|235:306,1,68
465,298,25171,6,0,P|441:274|410:262,1,68,2|0,0:0|0:0,0:0:0:0:
256,153,25504,2,0,P|247:185|253:218,1,68
492,199,25838,2,0,P|501:166|495:133,1,68
489,128,26088,1,2,0:0:0:0:
482,123,26171,1,0,0:0:0:0:
342,255,26338,2,0,L|410:263,1,68
256,153,26671,6,0,L|188:160,1,68
250,310,27004,1,0,0:0:0:0:
326,265,27171,2,0,P|335:233|330:200,1,68,0|2,0:0|0:0,0:0:0:0:
107,123,27504,2,0,P|98:155|103:188,1,68,0|0,0:0|0:0,0:0:0:0:
256,153,27838,6,0,P|264:120|259:87,1,68,0|0,0:0|0:0,0:0:0:0:
36,10,28171,2,0,P|27:42|32:75,1,68,0|0,0:0|0:0,0:0:0:0:
129,274,28504,2,0,L|61:267,1,68,2|0,0:0|0:0,0:0:0:0:
43,253,28754,2,0,P|50:302|54:360,1,102,2|2,0:0|0:0,0:0:0:0:
211,230,29171,1,0,0:0:0:0:
204,223,29254,1,2,0:0:0:0:
197,217,29338,6,0,P|199:183|204:149,1,68,4|2,0:0|0:0,0:0:0:0:
239,13,29671,1,0,0:0:0:0:
320,50,29838,2,0,P|353:47|386:37,1,68,0|0,0:0|0:0,0:0:0:0:
484,143,30171,2,0,P|451:133|417:130,1,68,0|0,0:0|0:0,0:0:0:0:
417,253,30504,6,0,P|451:250|484:241,1,68,2|0,0:0|0:0,0:0:0:0:
386,346,30837,2,0,P|353:336|320:334,1,68,0|0,0:0|0:0,0:0:0:0:
215,375,31171,2,0,L|228:303,1,68,0|0,0:0|0:0,0:0:0:0:
228,298,31421,1,2,0:0:0:0:
230,288,31504,1,0,0:0:0:0:
54,355,31671,2,0,P|87:352|120:342,1,68,2|0,0:0|0:0,0:0:0:0:
12,217,32004,6,0,L|0:284,1,68,0|0,0:0|0:0,0:0:0:0:
230,288,32338,1,0,0:0:0:0:
210,202,32504,2,0,P|181:183|149:172,1,68,0|2,0:0|0:0,0:0:0:0:
32,128,32838,2,0,P|61:110|93:99,1,68,0|0,0:0|0:0,0:0:0:0:
307,161,33171,6,0,L|295:228,1,68,0|0,0:0|0:0,0:0:0:0:
183,89,33504,2,0,L|195:22,1,68,0|0,0:0|0:0,0:0:0:0:
381,112,33838,1,0,1:0:0:0:
381,112,34171,1,2,0:0:0:0:
460,152,34338,1,2,0:0:0:0:
376,24,34504,5,4,1:0:0:0:
307,161,34671,2,0,L|313:251,1,85,2|0,0:0|0:0,0:0:0:0:
458,324,35004,2,0,L|464:240,1,85,0|0,1:0|0:0,0:0:0:0:
280,61,35338,1,2,0:0:0:0:
376,24,35504,2,0,P|414:37|477:42,1,85,0|0,0:0|1:0,0:0:0:0:
307,161,35838,6,0,P|264:166|224:179,1,85,0|2,0:0|0:0,0:0:0:0:
35,278,36171,2,0,L|44:194,1,85,0|0,0:0|1:0,0:0:0:0:
121,53,36504,2,0,L|130:138,1,85,0|2,0:0|0:0,0:0:0:0:
106,352,36838,1,0,0:0:0:0:
195,302,37004,1,0,1:0:0:0:
35,278,37171,1,0,0:0:0:0:
266,376,37338,6,0,L|352:357,1,85,2|0,0:0|0:0,0:0:0:0:
373,148,37671,1,0,1:0:0:0:
436,307,37838,2,0,P|448:266|442:224,1,85,0|2,0:0|0:0,0:0:0:0:
281,100,38171,2,0,P|270:140|276:182,1,85,0|0,0:0|1:0,0:0:0:0:
460,95,38504,6,0,P|472:54|466:12,1,85,0|2,0:0|0:0,0:0:0:0:
219,19,38838,1,0,0:0:0:0:
373,148,39004,1,0,1:0:0:0:
367,159,39338,5,0,1:0:0:0:
333,162,39417,1,0,1:0:0:0:
299,166,39497,1,0,1:0:0:0:
265,169,39577,1,0,1:0:0:0:
231,173,39657,2,0,P|210:155|200:134,1,42.5,8|8,0:3|0:3,0:0:0:0:
159,27,39816,2,0,P|138:45|128:66,1,42.5,8|8,0:3|0:3,0:0:0:0:
100,134,40004,6,0,L|-2:122,1,85,4|0,1:0|0:0,0:0:0:0:
88,338,40337,1,0,1:0:0:0:
161,267,40504,2,0,L|245:257,1,85,0|2,0:0|0:0,0:0:0:0:
456,221,40837,2,0,P|419:200|377:201,1,85,0|0,0:0|1:0,0:0:0:0:
329,380,41170,6,0,L|339:296,1,85,0|2,0:0|0:0,0:0:0:0:
283,163,41504,1,0,0:0:0:0:
88,338,41670,1,0,1:0:0:0:
77,354,42004,5,0,1:0:0:0:
74,332,42087,1,0,1:0:0:0:
71,311,42170,1,8,0:3:0:0:
151,180,42337,1,0,1:0:0:0:
154,201,42420,1,8,0:3:0:0:
29,114,42587,1,0,1:0:0:0:
32,93,42670,6,0,P|119:86|146:50,1,127.5,4|0,1:0|0:0,0:0:0:0:
138,38,43004,1,0,1:0:0:0:
151,180,43170,1,0,1:0:0:0:
243,71,43337,1,0,1:0:0:0:
172,195,43504,1,0,1:0:0:0:
264,86,43670,1,0,1:0:0:0:
277,229,43837,1,0,1:0:0:0:
394,146,44003,6,0,L|406:51,1,85,0|0,1:0|1:0,0:0:0:0:
494,259,44337,2,0,L|504:174,1,85,0|0,1:0|1:0,0:0:0:0:
397,349,44670,1,0,1:0:0:0:
381,321,44753,1,0,1:0:0:0:
358,298,44836,1,0,1:0:0:0:
331,283,44920,1,0,1:0:0:0:
300,275,45003,1,8,0:3:0:0:
268,275,45086,1,8,0:3:0:0:
238,283,45170,1,4,0:3:0:0:
210,300,45253,1,4,0:3:0:0:
188,323,45337,6,0,L|18:309,1,170,4|0,1:0|1:0,0:0:0:0:
172,195,45837,2,0,L|256:188,1,85,0|2,0:0|0:0,0:0:0:0:
177,22,46170,1,0,0:0:0:0:
94,66,46337,2,0,P|80:106|91:147,1,85,0|0,1:0|0:0,0:0:0:0:
338,17,46670,6,0,B|295:-4|256:18|256:18|217:43|176:21,1,170,2|0,0:0|1:0,0:0:0:0:
301,104,47170,1,0,0:0:0:0:
453,21,47337,1,2,0:0:0:0:
436,45,47420,2,0,L|449:174,1,127.5,0|0,1:0|1:0,0:0:0:0:
397,349,47837,1,0,0:0:0:0:
481,308,48003,6,0,P|429:260|322:292,1,170,2|0,0:0|1:0,0:0:0:0:
181,285,48503,2,0,P|213:313|255:321,1,85,0|2,0:0|0:0,0:0:0:0:
121,358,48837,1,0,0:0:0:0:
26,227,49003,2,0,L|39:312,1,85,0|0,1:0|0:0,0:0:0:0:
140,106,49337,6,0,P|98:115|67:143,1,85,2|0,0:0|0:0,0:0:0:0:
256,228,49670,2,0,L|268:143,1,85,0|0,1:0|0:0,0:0:0:0:
241,35,50003,1,2,0:0:0:0:
223,61,50087,2,0,L|349:42,1,127.5,0|0,1:0|1:0,0:0:0:0:
507,171,50503,1,0,1:0:0:0:
507,171,50587,1,0,1:0:0:0:
507,171,50670,6,0,P|443:119|363:138,1,170,4|0,1:0|1:0,0:0:0:0:
408,289,51170,2,0,P|424:250|422:208,1,85,0|2,0:0|0:0,0:0:0:0:
268,144,51503,1,0,0:0:0:0:
196,204,51670,2,0,L|111:192,1,85,0|0,1:0|0:0,0:0:0:0:
221,328,52003,6,0,P|303:308|387:293,1,170,2|0,0:0|1:0,0:0:0:0:
363,137,52503,1,0,0:0:0:0:
219,212,52670,1,2,0:0:0:0:
196,203,52754,2,0,P|210:265|221:327,1,127.5,0|0,1:0|1:0,0:0:0:0:
40,233,53170,1,0,0:0:0:0:
101,161,53337,6,0,P|96:81|20:54,1,170,2|0,0:0|1:0,0:0:0:0:
40,233,53837,2,0,L|28:318,1,85,0|2,0:0|0:0,0:0:0:0:
141,378,54170,1,0,0:0:0:0:
220,329,54337,2,0,P|263:326|302:342,1,85,0|0,1:0|0:0,0:0:0:0:
480,383,54670,6,0,P|471:341|464:300,1,85,2|0,0:0|0:0,0:0:0:0:
388,197,55003,2,0,P|381:239|372:281,1,85,0|0,1:0|0:0,0:0:0:0:
481,179,55337,1,0,1:0:0:0:
477,163,55420,1,0,1:0:0:0:
473,147,55503,1,0,1:0:0:0:
470,132,55587,1,0,1:0:0:0:
467,116,55670,1,8,0:3:0:0:
464,101,55753,1,8,0:3:0:0:
461,85,55837,1,8,0:3:0:0:
458,69,55920,1,8,0:3:0:0:
455,54,56003,6,0,B|408:44|376:76|376:76|344:110|299:99,1,170,4|0,1:0|1:0,0:0:0:0:
84,70,56503,2,0,P|115:42|156:33,1,85,0|2,0:0|0:0,0:0:0:0:
299,99,56837,1,0,0:0:0:0:
232,164,57004,2,0,P|190:155|159:127,1,85,0|0,1:0|0:0,0:0:0:0:
19,1,57337,6,0,P|37:84|54:167,1,170,2|0,0:0|1:0,0:0:0:0:
83,354,57837,1,0,0:0:0:0:
148,236,58003,1,2,0:0:0:0:
131,220,58087,2,0,P|117:282|104:344,1,127.5,0|0,1:0|1:0,0:0:0:0:
293,236,58503,1,0,0:0:0:0:
232,164,58670,6,0,P|237:84|307:37,1,170,2|0,0:0|1:0,0:0:0:0:
402,142,59170,2,0,L|318:130,1,85,0|2,0:0|0:0,0:0:0:0:
293,236,59503,1,0,0:0:0:0:
457,294,59670,2,0,P|470:254|463:213,1,85,0|0,1:0|0:0,0:0:0:0:
422,51,60003,6,0,L|506:38,1,85,2|0,0:0|0:0,0:0:0:0:
318,130,60337,2,0,L|233:117,1,85,0|0,1:0|0:0,0:0:0:0:
106,45,60670,1,2,0:0:0:0:
107,216,60837,1,0,0:0:0:0:
226,94,61003,1,0,1:0:0:0:
142,130,61170,1,4,0:1:0:0:
142,130,61670,5,0,1:0:0:0:
257,227,61837,1,0,1:0:0:0:
107,216,62003,1,0,1:0:0:0:
235,137,62170,1,0,1:0:0:0:
178,276,62337,1,0,1:0:0:0:
229,114,62503,1,0,1:0:0:0:
350,234,62670,5,0,1:0:0:0:
235,137,62837,1,0,1:0:0:0:
385,148,63003,1,0,1:0:0:0:
257,227,63170,1,0,1:0:0:0:
313,88,63337,2,0,P|316:41|298:5,1,85,0|0,1:0|0:0,0:0:0:0:
166,202,63670,2,0,P|162:248|180:284,1,85,0|0,1:0|0:0,0:0:0:0:
455,351,64003,5,4,1:2:0:0:
468,327,64086,1,0,1:0:0:0:
473,300,64169,1,0,1:0:0:0:
470,273,64253,1,0,1:0:0:0:
459,248,64336,1,4,1:2:0:0:
441,228,64419,1,0,1:0:0:0:
418,214,64503,5,0,1:0:0:0:
404,190,64586,1,0,1:0:0:0:
399,163,64669,1,4,1:2:0:0:
402,136,64753,1,0,1:0:0:0:
413,111,64836,1,0,1:0:0:0:
431,91,64919,1,0,1:0:0:0:
454,77,65003,5,4,1:2:0:0:
425,72,65086,1,0,1:0:0:0:
396,68,65169,1,0,1:0:0:0:
367,64,65253,1,0,1:0:0:0:
338,60,65337,6,0,L|291:66,3,34,2|2|2|2,0:0|0:0|0:0|0:0,0:0:0:0:
256,134,65670,2,0,L|224:120,3,34,2|2|2|2,0:0|0:0|0:0|0:0,0:0:0:0:
126,129,66003,2,0,L|147:157,3,34,2|2|2|2,0:0|0:0|0:0|0:0,0:0:0:0:
36,88,66337,2,0,L|41:122,3,34,2|2|2|2,0:0|0:0|0:0|0:0,0:0:0:0:
24,243,66670,6,0,P|88:191|168:210,1,170,4|0,1:0|1:0,0:0:0:0:
123,361,67170,2,0,P|107:322|109:280,1,85,0|2,0:0|0:0,0:0:0:0:
343,244,67503,1,0,0:0:0:0:
284,317,67671,2,0,L|199:305,1,85,0|0,1:0|0:0,0:0:0:0:
383,384,68003,6,0,L|359:214,1,170,2|0,0:0|1:0,0:0:0:0:
341,62,68503,1,0,0:0:0:0:
493,75,68670,1,2,0:0:0:0:
510,91,68754,2,0,P|465:135|403:132,1,127.5,0|0,1:0|1:0,0:0:0:0:
203,15,69170,1,0,0:0:0:0:
185,107,69337,6,0,B|232:117|264:85|264:85|296:51|341:62,1,170,2|0,0:0|1:0,0:0:0:0:
114,45,69837,2,0,P|94:82|92:124,1,85,0|2,0:0|0:0,0:0:0:0:
218,290,70170,1,0,0:0:0:0:
152,226,70337,2,0,L|67:214,1,85,0|0,1:0|0:0,0:0:0:0:
185,107,70670,6,0,P|244:164|325:152,1,170,2|0,0:0|1:0,0:0:0:0:
471,47,71170,1,0,0:0:0:0:
417,167,71337,1,2,0:0:0:0:
432,184,71420,2,0,L|450:58,1,127.5,0|0,1:0|1:0,0:0:0:0:
326,152,71837,1,0,1:0:0:0:
318,160,71920,1,0,1:0:0:0:
311,169,72003,6,0,L|334:337,1,170,4|0,1:0|1:0,0:0:0:0:
177,337,72503,2,0,L|189:253,1,85,0|2,0:0|0:0,0:0:0:0:
256,92,72837,1,0,0:0:0:0:
190,158,73003,2,0,P|142:174|101:174,1,85,0|0,1:0|0:0,0:0:0:0:
21,2,73337,6,0,L|190:26,1,170,2|0,0:0|1:0,0:0:0:0:
322,158,73837,1,0,0:0:0:0:
380,19,74003,1,2,0:0:0:0:
391,0,74087,2,0,L|409:125,1,127.5,0|0,1:0|1:0,0:0:0:0:
420,308,74503,1,0,0:0:0:0:
496,254,74670,6,0,P|424:214|349:246,1,170,4|0,1:0|1:0,0:0:0:0:
179,320,75170,2,0,L|94:307,1,85,0|2,0:0|0:0,0:0:0:0:
127,127,75503,1,0,0:0:0:0:
26,243,75671,2,0,P|23:200|39:161,1,85,0|0,1:0|0:0,0:0:0:0:
269,295,76003,6,0,P|271:337|255:376,1,85,2|0,0:0|0:0,0:0:0:0:
203,229,76337,2,0,P|238:206|280:200,1,85,0|0,1:0|0:0,0:0:0:0:
442,346,76670,5,0,1:0:0:0:
446,314,76753,1,0,1:0:0:0:
450,281,76837,1,8,0:3:0:0:
454,248,76920,1,8,0:3:0:0:
487,211,77003,5,0,1:0:0:0:
482,179,77087,1,0,1:0:0:0:
478,146,77170,1,8,0:3:0:0:
474,113,77253,1,8,0:3:0:0:
507,76,77337,6,0,P|441:95|377:57,1,127.5,4|2,1:0|0:0,0:0:0:0:
375,54,77670,2,0,L|388:139,1,85,0|2,1:0|0:0,0:0:0:0:
256,277,78003,2,0,L|256:192,1,85,0|2,1:0|0:0,0:0:0:0:
137,54,78337,2,0,L|124:139,1,85,0|2,1:0|0:0,0:0:0:0:
5,308,78670,6,0,P|71:289|135:327,1,127.5,0|2,1:0|0:0,0:0:0:0:
137,330,79003,2,0,L|124:245,1,85,0|2,1:0|0:0,0:0:0:0:
256,107,79336,2,0,L|256:192,1,85,0|2,1:0|0:0,0:0:0:0:
375,330,79670,2,0,L|388:245,1,85,0|2,1:0|0:0,0:0:0:0:
507,76,80003,6,0,P|441:95|377:57,1,127.5,0|2,1:0|0:0,0:0:0:0:
371,54,80337,2,0,P|386:94|388:137,1,85,0|2,1:0|0:0,0:0:0:0:
208,176,80670,2,0,P|237:145|256:106,1,85,0|2,1:0|0:0,0:0:0:0:
137,63,81003,2,0,P|97:77|54:78,1,85,0|2,1:0|0:0,0:0:0:0:
14,193,81337,6,0,P|77:200|133:231,1,127.5,0|2,1:0|0:0,0:0:0:0:
143,251,81670,2,0,L|132:335,1,85,0|2,1:0|0:0,0:0:0:0:
308,166,82003,1,4,0:0:0:0:
379,227,82170,1,8,0:3:0:0:
357,246,82253,1,8,0:3:0:0:
331,257,82336,1,0,1:0:0:0:
303,259,82420,1,0,1:0:0:0:
276,254,82503,1,0,1:0:0:0:
251,240,82586,1,0,1:0:0:0:
232,220,82670,6,0,L|217:93,1,118.999996368408,4|0,1:0|0:0,0:0:0:0:
388,30,83170,1,2,0:0:0:0:
388,30,83337,2,0,L|380:93,1,59.4999981842042,0|0,1:0|0:0,0:0:0:0:
308,166,83670,2,0,L|300:102,1,59.4999981842042
470,24,84003,5,2,0:0:0:0:
470,24,84170,2,0,L|456:142,1,118.999996368408,2|2,0:0|0:0,0:0:0:0:
472,320,84670,1,0,1:0:0:0:
448,233,84837,1,0,1:0:0:0:
374,181,85003,1,8,0:3:0:0:
284,188,85170,1,8,0:3:0:0:
220,252,85337,6,0,L|233:370,1,118.999996368408,4|0,1:0|0:0,0:0:0:0:
95,345,85837,1,2,0:0:0:0:
131,262,86013,1,0,1:0:0:0:
78,190,86179,2,0,P|54:136|84:73,1,118.999996368408,0|2,1:0|0:0,0:0:0:0:
213,44,86679,6,0,L|163:39,2,50.9999984436036,4|0|0,0:3|1:0|1:0,0:0:0:0:
291,117,87013,2,0,L|245:138,2,50.9999984436036,0|0|0,1:0|1:0|1:0,0:0:0:0:
395,142,87345,5,8,0:3:0:0:
395,142,87456,2,0,L|364:183,1,50.9999984436036,8|8,0:3|0:3,0:0:0:0:
496,111,87680,1,8,0:3:0:0:
496,111,87791,2,0,L|490:161,1,50.9999984436036,8|8,0:3|0:3,0:0:0:0:
431,310,88013,6,0,B|455:326|500:326|528:308|528:308|498:258|429:243|381:287|381:287|361:341|295:368|241:333|241:333|187:290|236:210|328:238|335:326|264:340|264:340|204:344|176:297|176:297|143:246|81:254,1,884,4|0,1:0|0:0,0:0:0:0:
