osu file format v14

[General]
AudioFilename: audio.mp3
AudioLeadIn: 0
PreviewTime: 45337
Countdown: 0
SampleSet: Soft
StackLeniency: 0.3
Mode: 0
LetterboxInBreaks: 0
WidescreenStoryboard: 1

[Editor]
Bookmarks: 10671,18671,24004,34671,45337,61170,66670,77337,88003
DistanceSpacing: 0.9
BeatDivisor: 6
GridSize: 4
TimelineZoom: 1

[Metadata]
Title:Nirvana (TV Size)
TitleUnicode:ニルヴァーナ (TV Size)
Artist:MUCC
ArtistUnicode:MUCC
Creator:-Mikan
Version:Agatsu's Hard
Source:妖狐×僕SS
Tags:Agatsu Frakturehawkens OzzyOzrock Nardoxyribonucleic Cynplytholowazy -GN Junior Blizs ムック inu x boku the dog and me secret service opening op japanese anime
BeatmapID:2295354
BeatmapSetID:1057449

[Difficulty]
HPDrainRate:4.5
CircleSize:3.7
OverallDifficulty:6
ApproachRate:8
SliderMultiplier:1.5
SliderTickRate:1

[Events]
//Background and Video events
0,0,"thumb-1920-227222.jpg",0,0
Video,-398,"opening.avi"
//Break Periods
//Storyboard Layer 0 (Background)
//Storyboard Layer 1 (Fail)
//Storyboard Layer 2 (Pass)
//Storyboard Layer 3 (Foreground)
//Storyboard Layer 4 (Overlay)
//Storyboard Sound Samples

[TimingPoints]
5,333.333333333333,4,2,1,30,1,0
5,-125,4,2,1,30,0,0
10671,-111.111111111111,4,2,1,40,0,0
15838,-100,4,2,1,40,0,0
16338,-100,4,2,1,60,0,0
24004,-125,4,2,1,60,0,0
24005,-125,4,2,1,40,0,0
34504,-111.111111111111,4,2,1,60,0,0
39338,319.148936170213,4,2,1,60,1,8
39338,-111.111111111111,4,2,1,60,0,0
40004,333.333333333333,4,2,1,60,1,0
40004,-111.111111111111,4,2,1,60,0,0
45337,-100,4,2,1,70,0,1
61170,-100,4,2,1,70,0,0
64003,-100,4,2,1,50,0,0
64337,-100,4,2,1,60,0,0
64670,-100,4,2,1,70,0,0
65003,-100,4,2,1,80,0,0
65337,-100,4,2,1,50,0,0
65670,-100,4,2,1,60,0,0
66003,-100,4,2,1,70,0,0
66337,-100,4,2,1,80,0,0
66670,-100,4,2,1,70,0,1
82670,-100,4,2,1,70,0,0
86013,333.333333333333,4,2,1,70,1,0
86679,333.333333333333,4,2,1,70,1,0
90680,-100,4,2,1,50,0,0
91347,-100,4,2,1,35,0,0
92013,-100,4,2,1,20,0,0
92347,-100,4,2,1,5,0,0

[Colours]
Combo1 : 255,121,121
Combo2 : 226,102,80
Combo3 : 231,84,183
Combo4 : 255,227,100
Combo5 : 162,224,255

[HitObjects]
29,352,338,5,2,0:0:0:0:
29,352,504,2,0,L|159:347,1,120,2|0,0:0|0:0,0:0:0:0:
228,318,1004,1,2,0:0:0:0:
227,317,1171,6,0,L|347:322,1,120,2|0,0:0|0:0,0:0:0:0:
423,357,1671,1,2,0:0:0:0:
423,357,1838,2,0,P|481:339|495:271,1,120,2|0,0:0|0:0,0:0:0:0:
469,208,2338,2,0,L|461:129,1,60,2|2,0:0|0:0,0:0:0:0:
492,69,2671,5,0,0:0:0:0:
333,13,3004,1,2,0:0:0:0:
333,13,3171,2,0,L|194:18,1,120,2|0,0:0|0:0,0:0:0:0:
147,69,3671,2,0,P|143:105|151:140,1,60,2|2,0:0|0:0,0:0:0:0:
206,187,4004,6,0,L|280:180,2,60,0|0|2,0:0|0:0|0:0,0:0:0:0:
70,286,4671,2,0,L|10:280,2,60,2|2|2,0:0|0:0|0:0,0:0:0:0:
129,345,5171,1,2,0:0:0:0:
206,311,5338,6,0,P|225:255|206:189,1,120,2|2,0:3|0:0,0:0:0:0:
156,133,5838,2,0,P|137:77|156:11,1,120,0|0,0:0|0:0,0:0:0:0:
233,6,6338,1,2,0:0:0:0:
233,6,6504,6,0,L|363:11,1,120,0|2,0:0|0:0,0:0:0:0:
436,18,7004,1,2,0:0:0:0:
436,18,7171,2,0,P|464:80|449:132,1,120,2|0,0:0|0:0,0:0:0:0:
392,187,7671,2,0,L|385:267,1,60,2|0,0:0|0:0,0:0:0:0:
443,309,8004,6,0,P|365:292|316:319,1,120,0|0,0:0|0:0,0:0:0:0:
258,350,8504,2,0,P|180:367|131:340,1,120,2|0,0:0|0:0,0:0:0:0:
87,290,9004,2,0,L|94:224,1,60,2|0,0:0|0:0,0:0:0:0:
37,166,9338,6,0,L|28:40,1,120,0|2,0:0|0:3,0:0:0:0:
194,19,10004,1,0,0:3:0:0:
265,76,10171,1,2,0:3:0:0:
265,76,10254,1,2,0:3:0:0:
265,76,10338,2,0,L|254:156,1,60,2|0,0:3|0:0,0:0:0:0:
184,185,10671,6,0,P|260:176|312:206,1,134.999995880127,0|2,0:0|0:0,0:0:0:0:
356,277,11171,2,0,L|492:264,1,134.999995880127,2|0,0:0|0:0,0:0:0:0:
509,178,11671,2,0,P|511:133|495:102,1,67.4999979400635,2|2,0:0|0:0,0:0:0:0:
433,58,12004,6,0,L|286:67,1,134.999995880127,0|2,0:0|0:0,0:0:0:0:
221,108,12504,2,0,P|203:168|223:238,1,134.999995880127,2|0,0:0|0:0,0:0:0:0:
279,302,13004,1,2,0:0:0:0:
279,302,13171,1,2,0:0:0:0:
214,361,13338,6,0,L|67:353,1,134.999995880127,2|2,0:0|0:0,0:0:0:0:
9,299,13838,2,0,P|-2:224|24:163,1,134.999995880127,2|0,0:0|0:0,0:0:0:0:
90,118,14338,1,2,0:0:0:0:
90,118,14504,6,0,L|246:112,1,134.999995880127,2|0,0:0|0:0,0:0:0:0:
296,61,15004,2,0,L|384:69,1,67.4999979400635,2|0,0:0|0:0,0:0:0:0:
424,130,15338,1,4,0:0:0:0:
241,358,15838,6,0,L|255:199,1,150,4|0,1:0|0:0,0:0:0:0:
324,151,16338,2,0,L|317:64,1,75,0|0,3:0|3:0,0:0:0:0:
251,15,16671,2,0,P|208:9|166:21,1,75,0|0,3:0|3:0,0:0:0:0:
108,73,17004,2,0,L|101:169,1,75,0|0,3:0|3:0,0:0:0:0:
32,206,17338,5,8,0:0:0:0:
32,206,17504,1,8,0:0:0:0:
50,294,17671,1,8,0:0:0:0:
50,294,17838,1,8,0:0:0:0:
136,317,18004,2,0,L|223:313,1,75,8|8,0:0|0:0,0:0:0:0:
288,360,18338,1,8,0:0:0:0:
369,322,18504,6,0,L|374:151,1,150,4|2,1:0|0:0,0:0:0:0:
304,113,19004,2,0,P|298:62|311:22,1,75,8|2,0:0|0:0,0:0:0:0:
386,4,19338,1,0,3:0:0:0:
386,4,19504,2,0,L|489:9,1,75,2|8,0:0|0:0,0:0:0:0:
505,86,19838,1,0,0:0:0:0:
458,162,20004,5,0,3:0:0:0:
458,162,20171,2,0,P|447:206|457:250,1,75,0|8,0:0|0:0,0:0:0:0:
396,306,20504,2,0,L|308:312,1,75,2|0,0:0|3:0,0:0:0:0:
253,371,20838,1,2,0:0:0:0:
180,317,21004,2,0,P|174:271|183:229,1,75,8|8,0:0|0:3,0:0:0:0:
250,187,21338,6,0,P|261:120|239:20,1,150,0|8,3:0|0:0,0:0:0:0:
164,3,21838,1,2,0:0:0:0:
80,35,22004,1,0,3:0:0:0:
80,35,22171,2,0,P|67:84|71:126,1,75,2|8,0:0|0:0,0:0:0:0:
125,177,22504,6,0,L|209:175,1,75,2|0,0:0|3:0,0:0:0:0:
276,126,22838,1,2,0:0:0:0:
339,189,23004,2,0,L|413:190,1,75,8|2,0:0|0:0,0:0:0:0:
483,249,23338,2,0,L|492:299,3,37.5,8|8|8|0,0:0|0:0|3:0|0:0,0:0:0:0:
470,326,23671,2,0,P|434:344|372:341,1,75,8|0,0:0|0:0,0:0:0:0:
316,334,24004,6,0,L|312:265,1,60,4|2,0:0|0:0,0:0:0:0:
246,221,24338,1,0,3:0:0:0:
246,221,24504,2,0,L|169:225,1,60,2|0,0:0|0:0,0:0:0:0:
130,287,24838,2,0,L|133:346,1,60,2|0,0:0|3:0,0:0:0:0:
52,368,25171,6,0,P|20:328|19:246,1,120,2|2,0:0|0:0,0:0:0:0:
53,186,25671,2,0,L|45:111,1,60,0|2,3:0|0:0,0:0:0:0:
99,60,26004,1,0,3:0:0:0:
179,83,26171,2,0,L|177:130,2,30,2|0|0,0:0|0:0|3:0,0:0:0:0:
252,41,26504,1,2,0:0:0:0:
332,65,26671,6,0,P|343:24|338:-12,2,60,0|2|0,3:0|0:0|3:0,0:0:0:0:
278,129,27171,2,0,L|267:253,1,120,2|2,0:0|0:0,0:0:0:0:
324,310,27671,1,0,3:0:0:0:
400,274,27838,6,0,L|472:277,1,60,2|0,0:0|3:0,0:0:0:0:
504,204,28171,2,0,L|496:131,1,60,2|0,0:0|3:0,0:0:0:0:
432,90,28504,2,0,P|373:83|308:103,1,120,2|0,0:3|0:0,0:0:0:0:
256,159,29004,1,2,3:0:0:0:
159,296,29338,6,0,L|151:372,2,60,4|0|0,0:0|0:0|3:0,0:0:0:0:
87,251,29838,2,0,L|78:175,1,60,2|0,0:0|3:0,0:0:0:0:
13,139,30171,2,0,L|22:63,1,60,2|0,0:0|3:0,0:0:0:0:
77,18,30504,6,0,P|137:13|199:42,1,120,2|2,0:0|0:0,0:0:0:0:
245,99,31004,1,0,3:0:0:0:
203,171,31171,2,0,L|213:251,1,60,2|0,0:3|3:0,0:0:0:0:
276,282,31504,1,0,0:0:0:0:
345,235,31671,1,2,3:0:0:0:
454,362,32004,6,0,L|371:375,2,60,0|2|0,3:0|0:0|3:0,0:0:0:0:
503,293,32504,2,0,L|486:163,1,120,2|2,0:0|0:0,0:0:0:0:
429,112,33004,1,0,3:0:0:0:
360,160,33171,6,0,P|321:164|285:157,1,60,2|0,0:0|3:0,0:0:0:0:
232,111,33504,2,0,L|238:35,1,60,2|0,0:0|3:0,0:0:0:0:
165,4,33838,2,0,P|103:4|59:47,1,120,12|2,0:0|0:3,0:0:0:0:
44,123,34338,1,2,0:3:0:0:
89,197,34504,5,4,1:0:0:0:
89,197,34671,2,0,L|167:193,1,67.4999979400635,0|2,3:0|0:0,0:0:0:0:
232,237,35004,2,0,L|241:377,1,134.999995880127,8|0,0:0|3:0,0:0:0:0:
328,368,35504,2,0,L|403:362,1,67.4999979400635,0|8,0:0|0:0,0:0:0:0:
483,370,35838,6,0,P|483:322|468:282,1,67.4999979400635,2|0,0:0|3:0,0:0:0:0:
409,248,36171,2,0,P|402:215|403:181,1,67.4999979400635,2|8,0:0|0:0,0:0:0:0:
466,119,36504,1,2,0:0:0:0:
395,66,36671,2,0,L|403:-20,2,67.4999979400635,0|2|8,0:0|0:3|0:0,0:0:0:0:
314,101,37171,1,2,0:3:0:0:
245,45,37338,6,0,P|207:38|155:44,1,67.4999979400635,0|2,3:0|0:0,0:0:0:0:
110,94,37671,1,8,0:0:0:0:
110,94,37838,2,0,L|116:175,1,67.4999979400635,2|0,0:0|3:0,0:0:0:0:
181,218,38171,2,0,L|175:299,1,67.4999979400635,2|8,0:0|0:0,0:0:0:0:
227,356,38504,6,0,P|165:328|84:344,1,134.999995880127,2|2,0:0|0:0,0:0:0:0:
29,283,39004,2,0,P|22:238|25:200,1,67.4999979400635,8|0,0:0|0:0,0:0:0:0:
84,147,39338,2,0,L|90:93,3,33.7499989700318,2|2|2|2,3:0|0:3|0:3|0:3,0:0:0:0:
61,78,39657,2,0,L|55:24,3,33.7499989700318,10|2|6|2,3:0|3:0|3:0|3:0,0:0:0:0:
100,7,40004,6,0,L|188:13,1,67.4999979400635,4|2,0:0|0:0,0:0:0:0:
238,63,40337,1,8,0:0:0:0:
318,27,40504,2,0,P|386:31|431:86,1,134.999995880127,2|2,0:0|0:0,0:0:0:0:
386,155,41004,1,8,0:0:0:0:
437,225,41170,6,0,L|445:309,1,67.4999979400635,2|0,0:0|3:0,0:0:0:0:
392,364,41504,2,0,L|309:370,1,67.4999979400635,2|8,0:0|0:0,0:0:0:0:
257,311,41837,1,0,0:0:0:0:
299,234,42004,2,0,L|352:235,2,33.7499989700318,8|8|8,0:0|0:3|0:3,0:0:0:0:
233,175,42337,1,8,0:0:0:0:
178,245,42504,1,0,0:0:0:0:
178,245,42587,1,8,0:0:0:0:
178,245,42670,6,0,P|117:230|25:257,1,134.999995880127,4|8,0:0|0:0,0:0:0:0:
3,320,43170,1,0,3:0:0:0:
71,374,43337,2,0,L|163:369,1,67.4999979400635,8|0,0:0|3:0,0:0:0:0:
214,326,43670,2,0,L|281:329,1,67.4999979400635,8|8,0:0|0:0,0:0:0:0:
360,369,44003,5,8,0:0:0:0:
360,369,44170,1,0,3:0:0:0:
438,329,44337,1,8,0:0:0:0:
438,329,44503,1,0,3:0:0:0:
432,241,44670,2,0,L|441:191,3,33.7499989700318,0|0|0|0,1:0|1:0|1:0|1:0,0:0:0:0:
420,167,45003,1,0,3:0:0:0:
340,149,45170,1,0,3:0:0:0:
340,149,45253,1,0,3:0:0:0:
340,149,45337,6,0,L|327:-8,1,150,4|8,1:0|0:0,0:0:0:0:
245,37,45837,2,0,P|170:35|120:95,1,150,0|0,0:0|3:0,0:0:0:0:
137,175,46337,2,0,P|141:236|134:277,1,75,8|0,0:0|0:0,0:0:0:0:
72,310,46670,6,0,P|163:287|225:326,1,150,0|8,3:0|0:0,0:0:0:0:
279,367,47170,1,0,0:0:0:0:
352,314,47337,2,0,L|348:252,2,37.5,0|8|0,3:0|0:0|3:0,0:0:0:0:
426,364,47670,2,0,P|464:364|501:347,1,75,8|0,0:0|0:0,0:0:0:0:
507,259,48003,6,0,L|487:98,1,150,0|8,3:0|0:0,0:0:0:0:
483,20,48503,2,0,B|401:8|421:54|323:38,1,150,0|0,0:0|3:0,0:0:0:0:
266,95,49003,2,0,P|259:137|260:179,1,75,8|0,0:0|0:0,0:0:0:0:
338,212,49337,6,0,P|267:206|198:267,1,150,2|8,3:0|0:0,0:0:0:0:
160,328,49837,1,2,0:3:0:0:
70,326,50003,2,0,L|60:395,2,37.5,2|8|0,3:0|0:0|3:0,0:0:0:0:
15,253,50337,2,0,P|7:202|17:161,1,75,8|2,0:0|0:3,0:0:0:0:
63,106,50670,6,0,L|231:101,1,150,4|8,1:0|0:0,0:0:0:0:
292,144,51170,2,0,P|316:215|290:302,1,150,0|0,0:0|3:0,0:0:0:0:
358,354,51670,2,0,P|410:364|444:350,1,75,8|0,0:0|0:0,0:0:0:0:
508,313,52003,6,0,L|494:142,1,150,0|8,3:0|0:0,0:0:0:0:
430,101,52503,1,0,0:0:0:0:
356,153,52670,2,0,L|350:211,2,37.5,0|8|0,3:0|0:0|3:0,0:0:0:0:
294,87,53003,2,0,L|202:83,1,75,8|0,0:0|0:0,0:0:0:0:
143,134,53337,6,0,P|132:179|141:235,1,75,0|0,3:0|0:0,0:0:0:0:
204,263,53670,1,8,0:0:0:0:
158,340,53837,2,0,P|84:367|-4:332,1,150,0|0,0:0|3:0,0:0:0:0:
1,260,54337,2,0,P|3:213|-3:167,1,75,8|0,0:0|0:0,0:0:0:0:
52,111,54670,6,0,L|132:107,1,75,2|2,3:0|3:0,0:0:0:0:
195,48,55003,2,0,L|269:51,1,75,8|2,0:0|3:0,0:0:0:0:
342,106,55337,2,0,L|348:164,3,37.5,2|0|0|8,3:0|1:0|1:0|0:3,0:0:0:0:
318,179,55670,1,8,0:3:0:0:
300,273,55837,1,0,3:0:0:0:
300,273,55920,1,0,3:0:0:0:
300,273,56003,6,0,L|471:286,1,150,4|8,0:0|0:0,0:0:0:0:
501,210,56503,2,0,P|504:147|441:90,1,150,0|0,0:0|3:0,0:0:0:0:
355,104,57003,2,0,P|315:104|256:91,1,75,8|0,0:0|0:0,0:0:0:0:
221,29,57337,6,0,L|62:18,1,150,0|8,3:0|0:0,0:0:0:0:
5,80,57837,1,0,0:0:0:0:
58,151,58003,2,0,L|125:148,2,37.5,0|8|0,3:0|0:0|3:0,0:0:0:0:
2,222,58337,1,8,0:0:0:0:
53,295,58503,1,0,3:0:0:0:
53,295,58587,1,0,0:0:0:0:
53,295,58670,6,0,P|135:295|187:357,1,150,0|8,3:0|0:0,0:0:0:0:
267,364,59170,2,0,P|349:364|401:302,1,150,0|0,0:0|3:0,0:0:0:0:
424,234,59670,2,0,L|415:142,1,75,8|0,0:0|0:0,0:0:0:0:
344,105,60003,6,0,L|247:108,1,75,2|0,3:0|0:0,0:0:0:0:
199,165,60337,2,0,L|124:162,1,75,8|2,0:0|0:3,0:0:0:0:
58,101,60670,1,2,3:0:0:0:
82,14,60837,1,2,0:0:0:0:
82,14,61003,1,8,0:0:0:0:
172,12,61170,6,0,B|253:2|247:48|331:29,1,150,4|0,1:0|0:0,0:0:0:0:
401,66,61670,2,0,P|400:107|406:154,1,75,8|0,0:0|3:0,0:0:0:0:
456,214,62003,1,8,0:0:0:0:
456,214,62170,1,0,3:0:0:0:
406,289,62337,2,0,P|362:295|322:283,1,75,8|0,0:0|3:0,0:0:0:0:
265,228,62670,5,8,0:0:0:0:
265,228,62837,1,0,3:0:0:0:
291,142,63003,1,8,0:0:0:0:
291,142,63170,1,0,3:0:0:0:
253,59,63337,2,0,L|159:57,1,75,8|0,0:0|3:0,0:0:0:0:
112,119,63670,2,0,L|107:205,1,75,8|0,0:0|3:0,0:0:0:0:
39,253,64003,6,0,P|22:326|76:379,1,150,4|4,3:2|3:2,0:0:0:0:
156,354,64503,1,0,1:0:0:0:
156,354,64587,1,0,1:0:0:0:
156,354,64670,2,0,L|209:355,3,37.5,4|0|0|0,3:2|1:0|1:0|1:0,0:0:0:0:
232,378,65003,2,0,L|269:377,3,37.5,4|0|0|0,3:2|1:0|1:0|1:0,0:0:0:0:
310,356,65337,6,0,L|475:366,2,150,6|2|2,3:2|3:0|3:0,0:0:0:0:
194,217,66337,1,2,3:0:0:0:
265,162,66503,1,2,0:3:0:0:
265,162,66587,1,2,0:3:0:0:
265,162,66670,6,0,B|352:148|330:197|410:182,1,150,4|8,1:0|0:0,0:0:0:0:
499,188,67170,2,0,P|495:114|499:21,1,150,0|0,3:0|3:0,0:0:0:0:
412,8,67670,2,0,P|365:5|328:15,1,75,8|0,0:0|0:0,0:0:0:0:
274,74,68003,6,0,P|198:100|120:66,1,150,0|8,3:0|0:0,0:0:0:0:
81,151,68503,1,0,0:0:0:0:
77,241,68670,2,0,L|39:244,2,37.5,0|8|0,3:0|0:0|0:0,0:0:0:0:
118,320,69003,2,0,P|167:327|213:324,1,75,8|0,0:0|0:0,0:0:0:0:
271,281,69337,6,0,L|278:129,1,150,0|8,3:0|0:0,0:0:0:0:
252,44,69837,2,0,P|323:23|405:61,1,150,0|0,0:0|3:0,0:0:0:0:
459,107,70337,1,8,0:0:0:0:
459,107,70503,1,0,0:0:0:0:
431,192,70670,6,0,L|439:364,1,150,0|8,3:0|0:0,0:0:0:0:
350,364,71170,1,2,0:3:0:0:
274,314,71337,2,0,L|279:259,2,37.5,2|0|8,3:0|0:0|0:0,0:0:0:0:
195,359,71670,1,2,3:0:0:0:
117,312,71837,1,8,0:0:0:0:
117,312,71920,1,0,0:0:0:0:
117,312,72003,6,0,P|124:234|110:142,1,150,4|8,1:0|0:0,0:0:0:0:
50,100,72503,2,0,P|140:127|206:93,1,150,0|0,0:0|3:0,0:0:0:0:
260,53,73003,2,0,P|313:51|362:42,1,75,8|0,0:0|0:0,0:0:0:0:
418,14,73337,6,0,P|367:69|383:167,1,150,0|8,3:0|0:0,0:0:0:0:
423,210,73837,1,0,0:0:0:0:
343,250,74003,2,0,L|272:244,2,37.5,0|8|0,3:0|0:0|3:0,0:0:0:0:
405,316,74337,1,8,0:0:0:0:
486,278,74503,1,0,0:0:0:0:
486,278,74587,1,8,0:0:0:0:
486,278,74670,6,0,P|474:186|477:107,1,150,4|8,1:0|0:0,0:0:0:0:
427,52,75170,2,0,B|343:32|347:79|261:54,1,150,0|0,0:0|3:0,0:0:0:0:
197,19,75670,1,8,0:0:0:0:
197,19,75837,1,0,0:0:0:0:
112,49,76003,6,0,P|41:62|24:144,1,150,0|8,3:0|0:0,0:0:0:0:
87,188,76503,1,2,0:3:0:0:
24,253,76670,2,0,L|28:304,3,37.5,0|0|0|0,1:0|1:0|3:0|3:0,0:0:0:0:
66,311,77003,2,0,L|62:362,3,37.5,0|0|0|0,1:0|1:0|3:0|3:0,0:0:0:0:
95,380,77337,6,0,P|138:378|185:364,1,75,4|0,1:0|3:0,0:0:0:0:
233,307,77670,2,0,L|222:220,1,75,8|0,0:0|3:0,0:0:0:0:
161,166,78003,2,0,L|177:5,1,150,0|8,1:0|0:0,0:0:0:0:
264,2,78503,1,0,3:0:0:0:
349,31,78670,6,0,P|419:42|450:31,1,75,0|0,1:0|3:0,0:0:0:0:
506,10,79003,1,8,0:0:0:0:
506,10,79170,1,0,3:0:0:0:
511,99,79337,2,0,L|498:190,1,75,0|0,1:0|3:0,0:0:0:0:
427,225,79670,2,0,L|440:316,1,75,8|0,0:0|3:0,0:0:0:0:
368,356,80003,6,0,B|292:336|294:378|214:348,1,150,0|8,1:0|0:0,0:0:0:0:
182,268,80503,1,0,3:0:0:0:
242,201,80670,2,0,L|248:112,1,75,0|0,1:0|3:0,0:0:0:0:
199,49,81003,1,8,0:0:0:0:
199,49,81170,1,0,3:0:0:0:
120,93,81337,6,0,P|42:85|10:157,1,150,0|8,1:0|0:0,0:0:0:0:
48,220,81837,1,0,3:0:0:0:
137,212,82003,2,0,L|141:168,2,37.5,4|0|0,1:2|1:0|1:0,0:0:0:0:
214,248,82337,1,0,1:0:0:0:
291,203,82503,1,0,1:0:0:0:
291,203,82587,1,0,1:0:0:0:
291,203,82670,6,0,P|346:175|435:218,1,150,4|0,1:0|0:0,0:0:0:0:
474,279,83170,1,2,3:0:0:0:
430,357,83337,2,0,P|343:349|254:348,1,150,8|2,0:0|0:3,0:0:0:0:
189,192,84003,5,0,3:0:0:0:
243,120,84170,2,0,P|245:61|323:25,1,150,0|0,3:0|3:0,0:0:0:0:
396,71,84670,1,8,0:0:0:0:
396,71,84837,1,2,3:0:0:0:
339,140,85003,2,0,P|330:195|330:238,1,75,8|6,0:3|0:3,0:0:0:0:
397,273,85337,6,0,P|328:260|264:331,1,150,4|0,1:0|0:0,0:0:0:0:
207,373,85837,1,2,3:0:0:0:
129,328,86013,1,8,0:0:0:0:
129,328,86180,2,0,P|51:344|-5:284,1,150,0|0,1:0|3:0,0:0:0:0:
63,236,86680,6,0,L|131:237,2,50,2|8|0,3:0|0:3|1:0,0:0:0:0:
49,177,87013,6,0,L|0:177,2,50,0|0|0,1:0|1:0|1:0,0:0:0:0:
76,122,87345,6,0,L|144:123,2,50,10|8|8,0:3|0:3|0:3,0:0:0:0:
62,63,87680,6,0,L|12:63,2,50,6|4|4,0:3|0:3|0:3,0:0:0:0:
98,15,88013,5,4,1:0:0:0:
256,192,88179,12,0,92345,0:0:0:0:
