osu file format v14

[General]
AudioFilename: audio.mp3
AudioLeadIn: 0
PreviewTime: 33172
Countdown: 0
SampleSet: Soft
StackLeniency: 0.5
Mode: 0
LetterboxInBreaks: 0
WidescreenStoryboard: 1

[Editor]
Bookmarks: 33896,50738,67580,101264,118106,134948,151790,168633,185475
DistanceSpacing: 0.7
BeatDivisor: 8
GridSize: 4
TimelineZoom: 1

[Metadata]
Title:Her Name
TitleUnicode:Her Name
Artist:MRVLZ
ArtistUnicode:MRVLZ
Creator:VINXIS
Version:Collab Light Insane
Source:
Tags:deep in the night ep wonderlust artist intelligence agency deetz spork lover mithew RLC
BeatmapID:1922386
BeatmapSetID:597833

[Difficulty]
HPDrainRate:6
CircleSize:4
OverallDifficulty:7
ApproachRate:8
SliderMultiplier:2.8
SliderTickRate:1

[Events]
//Background and Video events
0,0,"f.png",0,0
//Break Periods
2,84634,92105
//Storyboard Layer 0 (Background)
//Storyboard Layer 1 (Fail)
//Storyboard Layer 2 (Pass)
//Storyboard Layer 3 (Foreground)
//Storyboard Sound Samples

[TimingPoints]
224,526.315789473684,4,2,0,40,1,0
224,-153.846153846153,4,2,0,40,0,0
17066,-125,4,2,2,60,0,0
33381,-133.333333333333,4,2,2,75,0,0
33908,-83.3333333333333,4,2,2,75,0,0
50750,-125,4,2,2,75,0,0
51276,-83.3333333333333,4,2,2,75,0,0
54960,-125,4,2,2,75,0,0
55487,-83.3333333333333,4,2,2,75,0,0
59171,-125,4,2,2,75,0,0
59697,-83.3333333333333,4,2,2,75,0,0
63381,-125,4,2,2,75,0,0
63908,-83.3333333333333,4,2,2,75,0,0
66539,-125,4,2,2,75,0,0
68118,-83.3333333333333,4,2,2,75,0,0
71802,-125,4,2,2,75,0,0
72329,-83.3333333333333,4,2,2,75,0,0
75750,-125,4,2,2,75,0,0
76539,-83.3333333333333,4,2,2,75,0,0
80487,-125,4,2,2,75,0,0
80750,-83.3333333333333,4,2,2,75,0,0
83381,-125,4,2,2,75,0,0
92855,-125,4,2,0,50,0,0
99171,-125,4,2,0,60,0,0
99697,-125,4,2,0,70,0,0
100750,-125,4,2,2,75,0,0
101802,-100,4,2,2,75,0,0
109697,-125,4,2,2,75,0,0
110223,-100,4,2,2,75,0,0
118118,-125,4,2,2,75,0,0
134434,-133.333333333333,4,2,2,75,0,0
134960,-100,4,2,2,75,0,0
151802,-125,4,2,2,75,0,0
152329,-83.3333333333333,4,2,2,75,0,0
156013,-125,4,2,2,75,0,0
156539,-83.3333333333333,4,2,2,75,0,0
160223,-125,4,2,2,75,0,0
160750,-83.3333333333333,4,2,2,75,0,0
164434,-125,4,2,2,75,0,0
164960,-83.3333333333333,4,2,2,75,0,0
168645,-100,4,2,2,75,0,0

[Colours]
Combo1 : 0,128,64
Combo2 : 255,152,140
Combo3 : 94,174,255
Combo4 : 255,255,174

[HitObjects]
60,322,17066,6,0,P|125:305|178:305,1,112,8|0,0:0|0:0,0:0:0:0:
237,350,17460,1,0,0:0:0:0:
299,280,17592,2,0,L|294:205,1,56,8|0,0:0|0:0,0:0:0:0:
222,180,17855,2,0,L|227:105,1,56,0|0,0:0|0:0,0:0:0:0:
285,62,18118,6,0,P|334:78|400:80,1,112,8|0,0:0|0:0,0:0:0:0:
471,228,18513,1,0,0:0:0:0:
403,175,18645,2,0,P|351:178|293:199,1,112,8|0,0:0|0:0,0:0:0:0:
91,326,19171,6,0,B|99:282|99:282|94:266|94:266|105:207,1,112,8|0,0:0|0:0,0:0:0:0:
157,160,19566,1,0,0:0:0:0:
76,121,19697,2,0,L|92:5,1,112,8|0,0:0|0:0,0:0:0:0:
264,22,20223,1,8,0:0:0:0:
176,57,20355,1,0,0:0:0:0:
264,22,20487,2,0,P|319:48|382:52,1,112,0|8,0:0|0:0,0:0:0:0:
369,53,21276,5,8,0:0:0:0:
151,331,21802,5,8,0:0:0:0:
321,303,22066,1,0,0:0:0:0:
128,340,22329,2,0,P|71:356|6:355,1,112,8|0,0:0|0:0,0:0:0:0:
343,306,22723,2,0,P|394:308|455:328,1,112,0|0,0:0|0:0,0:0:0:0:
235,280,23118,2,0,L|241:208,1,56,0|0,0:0|0:0,0:0:0:0:
205,157,23381,5,8,0:0:0:0:
205,157,23908,2,0,P|307:183|325:180,1,112,8|0,0:0|0:0,0:0:0:0:
394,113,24302,2,0,P|355:101|328:97,1,56,0|8,0:0|0:0,0:0:0:0:
340,98,24960,1,8,0:0:0:0:
37,353,25487,6,0,L|31:233,1,112,8|8,0:0|0:0,0:0:0:0:
164,364,26013,2,0,L|161:252,1,112,8|8,0:0|0:0,0:0:0:0:
348,364,26539,2,0,L|351:252,1,112,8|8,0:0|0:0,0:0:0:0:
475,353,27066,2,0,L|480:236,1,112,8|8,0:0|0:0,0:0:0:0:
449,168,27592,6,0,P|451:113|437:58,1,112,8|8,0:0|0:0,0:0:0:0:
332,176,28118,2,0,P|321:122|292:71,1,112,8|8,0:0|0:0,0:0:0:0:
180,176,28645,2,0,P|191:122|220:71,1,112,8|8,0:0|0:0,0:0:0:0:
63,168,29171,2,0,P|61:113|75:58,1,112,8|8,0:0|0:0,0:0:0:0:
175,33,29697,5,8,0:0:0:0:
224,49,29828,1,8,0:0:0:0:
275,56,29960,1,8,0:0:0:0:
327,55,30091,1,8,0:0:0:0:
378,43,30223,2,0,L|391:98,3,56,8|8|8|8,0:0|0:0|0:0|0:0,0:0:0:0:
335,190,30750,5,8,0:0:0:0:
286,174,30881,1,8,0:0:0:0:
235,167,31013,1,8,0:0:0:0:
183,168,31144,1,8,0:0:0:0:
132,180,31276,2,0,L|119:125,1,56,8|8,0:0|0:0,0:0:0:0:
26,160,31539,2,0,L|38:215,1,56,8|8,0:0|0:0,0:0:0:0:
115,262,31802,6,0,L|106:301,22,28,8|8|8|8|8|8|8|8|8|8|8|8|8|8|8|8|8|8|8|8|8|8|8,0:0|0:0|0:0|0:0|0:0|0:0|0:0|0:0|0:0|0:0|0:0|0:0|0:0|0:0|0:0|0:0|0:0|0:0|0:0|0:0|0:0|0:0|0:0,0:0:0:0:
99,179,33381,2,0,P|157:191|198:193,1,78.7500030040742,8|0,0:2|0:0,0:0:0:0:
176,192,33645,2,0,L|235:184,1,52.5000020027161,4|4,0:3|0:3,0:0:0:0:
317,130,33908,6,0,P|404:123|470:185,1,167.999994873047,2|0,0:0|0:0,0:0:0:0:
376,206,34302,2,0,B|382:121|419:152|428:47,1,167.999994873047,0|0,0:0|0:0,0:0:0:0:
427,48,34697,2,0,P|435:103|445:136,1,83.9999974365235,2|0,0:1|0:0,0:0:0:0:
279,232,34960,2,0,P|271:177|261:144,1,83.9999974365235,0|0,0:0|0:0,0:0:0:0:
263,149,35223,1,2,0:0:0:0:
57,63,35487,6,0,P|105:69|145:72,1,83.9999974365235,10|0,0:1|0:0,0:0:0:0:
224,80,35750,2,0,P|176:74|136:71,1,83.9999974365235,0|0,0:0|0:0,0:0:0:0:
8,191,36013,2,0,P|76:189|177:148,1,167.999994873047,2|8,0:0|0:3,0:0:0:0:
101,272,36408,2,0,P|95:214|54:94,1,167.999994873047,0|0,0:0|0:0,0:0:0:0:
203,37,36802,6,0,L|192:218,1,167.999994873047,2|0,0:1|0:0,0:0:0:0:
325,137,37197,1,0,0:0:0:0:
292,33,37329,2,0,L|281:214,1,167.999994873047,2|10,0:0|0:1,0:0:0:0:
281,200,37855,1,0,0:0:0:0:
386,212,37986,1,0,0:0:0:0:
490,223,38118,1,2,0:0:0:0:
398,344,38381,6,0,P|353:343|302:333,1,83.9999974365235,2|0,0:1|0:0,0:0:0:0:
211,333,38645,2,0,B|149:301|93:326|93:326|69:375,1,167.999994873047,8|0,0:0|0:0,0:0:0:0:
167,144,39171,2,0,P|150:96|239:32,1,167.999994873047,2|2,0:1|0:0,0:0:0:0:
306,73,39566,2,0,P|323:121|234:185,1,167.999994873047,0|0,0:0|0:0,0:0:0:0:
70,90,39960,1,0,0:0:0:0:
244,187,40223,6,0,P|299:179|413:163,1,167.999994873047,2|4,0:0|0:3,0:0:0:0:
337,258,40618,1,0,0:0:0:0:
337,258,40750,2,0,P|392:250|506:234,1,167.999994873047,8|0,0:0|0:0,0:0:0:0:
186,357,41276,1,8,0:3:0:0:
186,357,41539,1,4,0:3:0:0:
201,271,41671,1,0,0:0:0:0:
116,302,41802,2,0,L|22:293,2,83.9999974365235,8|0|0,0:0|0:0|0:0,0:0:0:0:
46,177,42329,6,0,P|104:157|194:58,1,167.999994873047,2|0,0:0|0:0,0:0:0:0:
244,140,42723,2,0,P|300:124|421:139,1,167.999994873047,0|0,0:0|0:0,0:0:0:0:
156,168,43118,2,0,L|148:209,2,41.9999987182618,2|0|0,0:1|0:0|0:0,0:0:0:0:
180,84,43381,2,0,P|227:60|275:47,1,83.9999974365235,0|0,0:0|0:0,0:0:0:0:
408,134,43645,2,0,P|361:158|313:171,1,83.9999974365235,2|0,0:0|0:0,0:0:0:0:
223,21,43908,6,0,P|277:27|305:37,1,83.9999974365235,10|0,0:1|0:0,0:0:0:0:
358,190,44171,2,0,P|304:184|276:174,1,83.9999974365235,0|0,0:0|0:0,0:0:0:0:
180,84,44434,5,2,0:0:0:0:
52,252,44697,2,0,P|47:205|46:162,1,83.9999974365235,8|0,0:3|0:0,0:0:0:0:
45,168,44960,1,8,0:0:0:0:
217,340,45223,6,0,L|220:392,2,41.9999987182618,2|0|0,0:1|0:0|0:0,0:0:0:0:
218,254,45487,1,0,0:0:0:0:
139,296,45618,2,0,P|137:232|126:106,1,167.999994873047,0|0,0:0|0:0,0:0:0:0:
212,85,46013,1,10,0:1:0:0:
212,85,46276,1,0,0:0:0:0:
299,128,46408,1,0,0:0:0:0:
378,82,46539,1,2,0:0:0:0:
138,151,46802,6,0,P|133:105|127:52,1,83.9999974365235,2|0,0:1|0:0,0:0:0:0:
301,11,47066,2,0,B|293:71|291:100|291:100|308:142|330:176,1,167.999994873047,8|0,0:0|0:0,0:0:0:0:
92,249,47592,2,0,P|153:230|269:258,1,167.999994873047,2|2,0:1|0:0,0:0:0:0:
414,248,47987,2,0,P|353:267|237:239,1,167.999994873047,0|0,0:0|0:0,0:0:0:0:
207,86,48381,1,0,0:0:0:0:
252,248,48645,6,0,L|239:363,1,83.9999974365235,2|0,0:0|0:0,0:0:0:0:
167,364,48908,2,0,L|154:249,1,83.9999974365235,0|0,0:0|0:0,0:0:0:0:
252,248,49171,2,0,B|322:253|322:253|349:276|349:276|424:283,1,167.999994873047,8|0,0:0|0:0,0:0:0:0:
454,129,49697,6,0,P|356:59|398:132,1,335.999989746094,4|4,0:3|0:3,0:0:0:0:
373,115,50355,1,0,0:0:0:0:
373,115,50487,1,0,0:0:0:0:
373,115,50618,1,0,0:0:0:0:
304,181,50750,6,0,P|305:230|286:301,1,112,2|0,0:0|0:0,0:0:0:0:
205,352,51145,1,0,0:0:0:0:
205,352,51276,6,0,L|120:344,1,83.9999974365235,8|0,0:0|0:0,0:0:0:0:
352,355,51539,2,0,L|435:362,1,83.9999974365235,2|0,0:1|0:0,0:0:0:0:
291,291,51802,6,0,P|294:242|282:202,1,83.9999974365235,2|0,0:1|0:0,0:0:0:0:
196,218,52066,2,0,P|193:267|205:307,1,83.9999974365235,2|0,0:0|0:0,0:0:0:0:
96,200,52329,6,0,L|96:95,1,83.9999974365235,8|0,0:0|0:0,0:0:0:0:
3,92,52592,2,0,L|3:176,1,83.9999974365235,0|0,0:0|0:0,0:0:0:0:
112,97,52855,6,0,P|164:79|202:78,1,83.9999974365235,2|0,0:0|0:0,0:0:0:0:
267,177,53118,2,0,P|319:195|357:196,1,83.9999974365235,8|0,0:3|0:0,0:0:0:0:
457,139,53381,6,0,L|466:41,1,83.9999974365235,8|0,0:0|0:0,0:0:0:0:
444,265,53645,2,0,L|436:348,1,83.9999974365235,2|0,0:1|0:0,0:0:0:0:
327,367,53908,6,0,P|241:354|150:315,2,167.999994873047,2|2|8,0:1|0:0|0:0,0:0:0:0:
423,355,54566,1,0,0:0:0:0:
423,355,54697,2,0,L|414:256,1,83.9999974365235,0|0,0:0|0:0,0:0:0:0:
345,129,54960,6,0,L|333:263,1,112,2|0,0:0|0:0,0:0:0:0:
424,248,55355,1,0,0:0:0:0:
272,303,55487,6,0,L|164:294,1,83.9999974365235,8|0,0:0|0:0,0:0:0:0:
151,204,55750,2,0,L|234:210,1,83.9999974365235,2|0,0:1|0:0,0:0:0:0:
392,74,56013,6,0,P|371:30|320:-1,1,83.9999974365235,2|0,0:1|0:0,0:0:0:0:
263,80,56276,2,0,P|279:118|310:145,1,83.9999974365235,2|0,0:0|0:0,0:0:0:0:
164,31,56539,6,0,L|172:129,1,83.9999974365235,8|0,0:0|0:0,0:0:0:0:
67,37,56802,2,0,L|75:135,1,83.9999974365235,0|0,0:0|0:0,0:0:0:0:
6,213,57066,6,0,L|-2:311,1,83.9999974365235,2|0,0:0|0:0,0:0:0:0:
103,219,57329,2,0,L|95:317,1,83.9999974365235,8|0,0:3|0:0,0:0:0:0:
175,360,57592,6,0,P|240:352|264:336,1,83.9999974365235,8|0,0:0|0:0,0:0:0:0:
321,252,57855,2,0,P|282:235|241:235,1,83.9999974365235,2|0,0:1|0:0,0:0:0:0:
426,212,58118,6,0,L|443:389,2,167.999994873047,4|8|2,0:3|0:3|0:1,0:0:0:0:
338,98,58908,1,0,0:0:0:0:
338,98,58973,1,0,0:0:0:0:
338,98,59039,1,0,0:0:0:0:
276,167,59171,6,0,L|142:153,1,112,2|0,0:0|0:0,0:0:0:0:
106,102,59566,1,0,0:0:0:0:
43,185,59697,6,0,P|42:246|47:301,1,83.9999974365235,8|0,0:0|0:0,0:0:0:0:
177,333,59960,2,0,P|178:291|177:249,1,83.9999974365235,2|0,0:1|0:0,0:0:0:0:
302,122,60223,6,0,P|301:183|306:238,1,83.9999974365235,2|0,0:1|0:0,0:0:0:0:
436,270,60486,2,0,P|437:228|436:186,1,83.9999974365235,2|0,0:0|0:0,0:0:0:0:
432,44,60750,6,0,L|311:24,1,83.9999974365235,8|0,0:0|0:0,0:0:0:0:
284,103,61013,2,0,L|163:83,1,83.9999974365235,0|0,0:0|0:0,0:0:0:0:
67,198,61276,6,0,L|188:178,1,83.9999974365235,2|0,0:0|0:0,0:0:0:0:
215,257,61539,2,0,L|336:237,1,83.9999974365235,8|0,0:3|0:0,0:0:0:0:
384,137,61802,6,0,P|411:67|410:23,1,83.9999974365235,8|0,0:0|0:0,0:0:0:0:
311,24,62066,2,0,P|284:94|285:138,1,83.9999974365235,2|0,0:1|0:0,0:0:0:0:
319,210,62329,6,0,P|327:280|306:380,2,167.999994873047,2|2|8,0:1|0:0|0:0,0:0:0:0:
238,161,62987,1,0,0:0:0:0:
311,104,63118,2,0,L|394:115,1,83.9999974365235,0|0,0:0|0:0,0:0:0:0:
212,69,63381,6,0,P|140:94|86:97,1,112,2|0,0:0|0:0,0:0:0:0:
35,62,63776,1,0,0:0:0:0:
5,163,63908,6,0,L|0:254,1,83.9999974365235,8|0,0:0|0:0,0:0:0:0:
100,287,64171,2,0,L|104:203,1,83.9999974365235,2|0,0:1|0:0,0:0:0:0:
208,159,64434,6,0,L|203:250,1,83.9999974365235,2|0,0:1|0:0,0:0:0:0:
303,283,64697,2,0,L|307:199,1,83.9999974365235,2|0,0:0|0:0,0:0:0:0:
411,155,64960,6,0,L|406:246,1,83.9999974365235,8|0,0:0|0:0,0:0:0:0:
506,279,65223,2,0,L|510:195,1,83.9999974365235,0|0,0:0|0:0,0:0:0:0:
495,34,65487,6,0,P|443:56|326:60,1,167.999994873047,2|8,0:0|0:3,0:0:0:0:
256,29,65881,1,0,0:0:0:0:
267,123,66013,2,0,P|196:116|69:138,1,167.999994873047,8|2,0:0|0:1,0:0:0:0:
31,81,66408,1,0,0:0:0:0:
27,180,66539,6,0,L|30:309,2,112,4|8|4,0:3|0:3|0:3,0:0:0:0:
100,13,67329,1,2,0:0:0:0:
208,149,67592,5,2,0:0:0:0:
50,269,67855,2,0,P|51:322|59:348,1,56,0|0,0:0|0:0,0:0:0:0:
39,344,68118,6,0,P|93:343|207:309,1,167.999994873047,8|0,0:0|0:0,0:0:0:0:
201,311,68447,1,0,0:0:0:0:
201,311,68513,2,0,P|248:314|292:321,1,83.9999974365235,0|2,0:0|0:1,0:0:0:0:
453,303,68776,2,0,P|406:300|362:293,1,83.9999974365235,2|2,0:1|0:0,0:0:0:0:
307,238,69039,1,0,0:0:0:0:
307,238,69171,2,0,P|310:152|331:64,1,167.999994873047,8|2,0:0|0:1,0:0:0:0:
48,94,69697,6,0,L|131:46,1,83.9999974365235,2|0,0:0|0:0,0:0:0:0:
146,139,69960,2,0,L|123:220,1,83.9999974365235,8|0,0:3|0:0,0:0:0:0:
234,363,70223,2,0,P|231:319|222:184,1,167.999994873047,8|0,0:0|0:0,0:0:0:0:
492,60,70750,5,0,0:0:0:0:
488,159,70881,1,0,0:0:0:0:
393,126,71013,1,2,0:0:0:0:
402,30,71144,1,0,0:0:0:0:
481,171,71276,2,0,P|476:230|472:342,1,167.999994873047,8|0,0:0|0:0,0:0:0:0:
472,338,71802,5,2,0:0:0:0:
183,318,72066,2,0,P|148:321|119:324,1,56,0|0,0:0|0:0,0:0:0:0:
120,335,72329,6,0,P|112:287|170:173,1,167.999994873047,8|0,0:0|0:0,0:0:0:0:
159,181,72658,1,0,0:0:0:0:
159,181,72723,2,0,P|205:194|254:206,1,83.9999974365235,0|2,0:0|0:1,0:0:0:0:
130,88,72987,2,0,P|84:75|35:63,1,83.9999974365235,2|2,0:1|0:0,0:0:0:0:
68,163,73250,1,0,0:0:0:0:
218,109,73381,2,0,P|284:99|394:80,1,167.999994873047,8|2,0:0|0:1,0:0:0:0:
375,360,73908,6,0,P|396:304|415:255,1,83.9999974365235,2|0,0:0|0:0,0:0:0:0:
334,191,74171,2,0,P|282:208|236:226,1,83.9999974365235,8|0,0:3|0:0,0:0:0:0:
145,361,74434,2,0,P|224:346|296:286,1,167.999994873047,8|0,0:0|0:0,0:0:0:0:
291,292,74763,1,0,0:0:0:0:
291,292,74829,1,0,0:0:0:0:
255,219,74960,2,0,P|176:234|104:294,2,167.999994873047,4|8|8,0:3|0:3|0:0,0:0:0:0:
0,194,75750,6,0,P|50:188|130:179,1,112,0|2,0:0|0:0,0:0:0:0:
217,56,76276,2,0,P|179:56|143:58,1,56,0|0,0:0|0:0,0:0:0:0:
150,37,76539,6,0,P|135:89|179:201,1,167.999994873047,8|0,0:0|0:0,0:0:0:0:
171,193,76868,1,0,0:0:0:0:
171,193,76934,2,0,P|170:243|166:296,1,83.9999974365235,0|2,0:0|0:1,0:0:0:0:
249,351,77197,2,0,P|250:301|254:248,1,83.9999974365235,2|2,0:1|0:0,0:0:0:0:
322,220,77460,1,0,0:0:0:0:
322,220,77592,2,0,P|398:235|498:230,1,167.999994873047,8|2,0:0|0:1,0:0:0:0:
249,351,78118,6,0,L|144:369,1,83.9999974365235,2|0,0:0|0:0,0:0:0:0:
152,209,78381,2,0,L|234:259,1,83.9999974365235,8|0,0:3|0:0,0:0:0:0:
322,220,78645,2,0,L|291:33,1,167.999994873047,8|0,0:0|0:0,0:0:0:0:
496,259,79171,5,0,0:0:0:0:
419,208,79302,1,0,0:0:0:0:
330,234,79434,1,2,0:0:0:0:
299,321,79566,1,0,0:1:0:0:
214,284,79697,1,8,0:0:0:0:
4,312,79960,1,0,0:0:0:0:
214,284,80223,5,2,0:0:0:0:
4,312,80487,2,0,P|6:270|9:242,1,56,0|0,0:0|0:0,0:0:0:0:
19,242,80750,6,0,P|24:189|20:58,1,167.999994873047,8|0,0:0|0:0,0:0:0:0:
21,74,81079,1,0,0:0:0:0:
21,74,81145,2,0,L|115:89,1,83.9999974365235,0|2,0:0|0:1,0:0:0:0:
276,17,81408,2,0,L|193:68,1,83.9999974365235,2|2,0:1|0:0,0:0:0:0:
167,141,81671,1,0,0:0:0:0:
254,133,81802,2,0,P|317:103|423:84,1,167.999994873047,8|2,0:0|0:1,0:0:0:0:
374,347,82329,6,0,L|363:264,1,83.9999974365235,2|0,0:0|0:0,0:0:0:0:
149,264,82592,2,0,L|137:347,1,83.9999974365235,8|0,0:3|0:0,0:0:0:0:
256,356,82855,2,0,B|268:248|240:288|256:176,1,167.999994873047,8|0,0:0|0:0,0:0:0:0:
254,188,83184,1,0,0:0:0:0:
254,188,83250,1,0,0:0:0:0:
312,127,83381,6,0,P|257:115|202:126,1,112,4|8,0:3|0:3,0:0:0:0:
153,39,83908,2,0,P|257:4|362:38,1,224,4|0,0:3|0:0,0:0:0:0:
454,230,92855,6,0,L|446:352,1,112,2|0,0:0|0:0,0:0:0:0:
446,341,93645,1,0,0:0:0:0:
370,332,93908,1,2,0:0:0:0:
223,234,94171,1,0,0:0:0:0:
299,225,94434,1,0,0:0:0:0:
270,298,94697,1,0,0:0:0:0:
223,234,94960,6,0,L|211:116,1,112,2|0,0:0|0:0,0:0:0:0:
211,122,95750,1,0,0:0:0:0:
131,117,96013,1,2,0:0:0:0:
231,213,96276,1,0,0:0:0:0:
311,208,96539,1,0,0:0:0:0:
311,208,97329,6,0,L|431:223,1,112,0|2,0:0|0:0,0:0:0:0:
422,221,97855,2,0,L|487:125,1,112,0|2,0:0|0:0,0:0:0:0:
464,324,98381,2,0,L|420:218,1,112,0|2,0:0|0:0,0:0:0:0:
377,137,98908,1,0,0:0:0:0:
311,208,99171,6,0,L|182:215,1,112,2|0,0:0|0:0,0:0:0:0:
263,290,99697,2,0,L|134:297,1,112,2|0,0:0|0:0,0:0:0:0:
294,181,100223,2,0,L|165:188,1,112,4|8,0:3|0:3,0:0:0:0:
215,317,100750,2,0,L|86:324,1,112,2|2,0:0|0:0,0:0:0:0:
276,257,101276,6,0,P|316:280|450:285,1,168,2|0,0:0|0:0,0:0:0:0:
501,230,101802,6,0,P|509:157|507:138,1,70,8|0,0:0|0:0,0:0:0:0:
430,121,102066,2,0,P|370:127|344:125,1,70,0|0,0:0|0:0,0:0:0:0:
256,55,102329,2,0,P|325:35|395:38,2,140,0|2|8,0:0|0:0|0:0,0:0:0:0:
256,55,103118,2,0,L|250:91,2,35,0|0|0,0:0|0:0|0:0,0:0:0:0:
168,116,103381,6,0,P|127:140|99:146,1,70,2|0,0:0|0:0,0:0:0:0:
332,116,103645,2,0,P|373:140|401:146,1,70,8|0,0:3|0:0,0:0:0:0:
466,108,103908,1,8,0:0:0:0:
466,108,104171,2,0,P|472:156|472:203,1,70,0|0,0:0|0:0,0:0:0:0:
386,231,104434,2,0,P|381:265|379:300,1,70,0|0,0:0|0:0,0:0:0:0:
449,376,104697,1,2,0:0:0:0:
231,352,104960,1,8,0:0:0:0:
231,352,105223,2,0,L|238:310,2,35,4|0|0,0:3|0:0|0:0,0:0:0:0:
295,240,105487,6,0,P|231:237|82:199,1,210,2|0,0:0|0:0,0:0:0:0:
34,141,106013,2,0,L|42:61,1,70,8|0,0:0|0:0,0:0:0:0:
154,39,106276,2,0,L|147:108,1,70,0|0,0:0|0:0,0:0:0:0:
226,152,106539,2,0,P|290:155|393:179,1,140,0|2,0:0|0:0,0:0:0:0:
438,127,106934,2,0,P|449:79|446:40,1,70,0|8,0:0|0:0,0:0:0:0:
485,204,107197,1,0,0:0:0:0:
485,204,107329,2,0,P|496:252|493:291,1,70,0|0,0:0|0:0,0:0:0:0:
435,344,107592,6,0,L|341:334,1,70,2|0,0:0|0:0,0:0:0:0:
312,249,107855,2,0,L|381:256,1,70,8|0,0:3|0:0,0:0:0:0:
272,325,108118,2,0,L|178:315,1,70,8|0,0:0|0:0,0:0:0:0:
149,230,108381,2,0,L|218:237,1,70,0|0,0:0|0:0,0:0:0:0:
278,165,108645,2,0,P|282:117|269:74,1,70,4|0,0:3|0:0,0:0:0:0:
200,63,108908,2,0,P|164:38|114:33,1,70,8|0,0:3|0:0,0:0:0:0:
71,76,109171,1,8,0:0:0:0:
71,76,109434,2,0,L|73:121,2,35,4|0|0,0:3|0:0|0:0,0:0:0:0:
140,155,109697,6,0,B|163:270|120:186|149:343,1,168,2|0,0:0|0:0,0:0:0:0:
221,359,110223,6,0,P|264:364|307:358,1,70,8|0,0:0|0:0,0:0:0:0:
375,330,110487,2,0,P|395:297|407:265,1,70,0|0,0:0|0:0,0:0:0:0:
351,195,110750,2,0,P|367:125|396:64,2,140,0|2|8,0:0|0:0|0:0,0:0:0:0:
351,195,111539,2,0,L|410:197,2,35,0|0|0,0:0|0:0|0:0,0:0:0:0:
291,261,111802,6,0,L|212:252,1,70,2|0,0:0|0:0,0:0:0:0:
221,136,112066,2,0,L|291:129,1,70,8|0,0:3|0:0,0:0:0:0:
332,62,112329,1,8,0:0:0:0:
332,61,112592,2,0,P|366:56|401:58,1,70,0|0,0:0|0:0,0:0:0:0:
479,126,112855,2,0,P|480:160|475:195,1,70,0|0,0:0|0:0,0:0:0:0:
406,273,113118,2,0,P|371:274|336:269,1,70,2|0,0:0|0:0,0:0:0:0:
261,304,113381,1,8,0:0:0:0:
261,304,113645,2,0,L|266:351,2,35,4|0|0,0:3|0:0|0:0,0:0:0:0:
186,259,113908,6,0,B|199:188|199:188|184:152|184:152|207:32,1,210,2|0,0:0|0:0,0:0:0:0:
286,35,114434,2,0,P|340:34|375:42,1,70,8|0,0:0|0:0,0:0:0:0:
461,30,114697,2,0,L|468:101,1,70,0|0,0:0|0:0,0:0:0:0:
404,154,114960,2,0,L|390:308,1,140,0|2,0:0|0:0,0:0:0:0:
305,365,115355,2,0,L|305:288,1,70,0|8,0:0|0:0,0:0:0:0:
208,293,115618,1,0,0:0:0:0:
208,293,115750,2,0,L|208:363,1,70,0|0,0:0|0:0,0:0:0:0:
162,219,116013,6,0,L|66:207,1,70,2|0,0:0|0:0,0:0:0:0:
170,134,116276,2,0,L|74:122,1,70,8|0,0:3|0:0,0:0:0:0:
231,73,116539,2,0,P|255:28|281:9,1,70,8|0,0:0|0:0,0:0:0:0:
303,130,116802,2,0,P|348:100|391:89,1,70,4|0,0:3|0:0,0:0:0:0:
441,134,117066,6,0,P|457:185|459:274,1,140,4|8,0:3|0:3,0:0:0:0:
239,288,117592,2,0,P|220:220|220:150,1,140,2|2,0:0|0:2,0:0:0:0:
337,15,118118,5,8,0:0:0:0:
487,144,118645,2,0,L|477:255,1,112,8|0,0:0|0:0,0:0:0:0:
335,206,119171,2,0,L|325:317,1,112,8|0,0:0|0:0,0:0:0:0:
476,255,119697,6,0,L|468:133,1,112,8|0,0:0|0:0,0:0:0:0:
324,317,120223,2,0,L|316:195,1,112,8|0,0:0|0:0,0:0:0:0:
468,143,120750,6,0,L|458:254,1,112,8|0,0:0|0:0,0:0:0:0:
316,205,121276,2,0,L|306:316,1,112,8|0,0:0|0:0,0:0:0:0:
172,247,121802,1,8,0:0:0:0:
172,247,122329,5,8,0:0:0:0:
76,211,122592,1,0,0:0:0:0:
158,146,122855,1,8,0:0:0:0:
255,186,123118,1,0,0:0:0:0:
76,211,123381,2,0,P|76:153|96:42,2,168,8|0|0,0:0|0:0|0:0,0:0:0:0:
227,55,124434,6,0,P|269:59|344:64,1,112,8|0,0:0|0:0,0:0:0:0:
472,163,124960,2,0,P|430:159|289:152,2,168,8|0|0,0:0|0:0|0:0,0:0:0:0:
488,248,126013,1,8,0:0:0:0:
198,91,126539,6,0,P|152:55|84:78,1,112,8|8,0:0|0:0,0:0:0:0:
25,144,127066,1,8,0:0:0:0:
36,255,127329,1,8,0:0:0:0:
177,206,127592,2,0,L|187:317,1,112,8|8,0:0|0:0,0:0:0:0:
36,255,128118,6,0,L|44:133,1,112,8|8,0:0|0:0,0:0:0:0:
188,317,128645,1,8,0:0:0:0:
196,205,128908,1,8,0:0:0:0:
44,143,129171,5,8,0:0:0:0:
55,254,129434,1,8,0:0:0:0:
196,205,129697,2,0,L|206:316,2,112,8|8|8,0:0|0:0|0:0,0:0:0:0:
55,254,130487,1,8,0:0:0:0:
340,247,130750,5,8,0:0:0:0:
375,263,130881,1,8,0:0:0:0:
414,261,131013,1,8,0:0:0:0:
446,239,131145,1,8,0:0:0:0:
463,204,131276,1,8,0:0:0:0:
462,164,131408,1,8,0:0:0:0:
438,132,131539,1,8,0:0:0:0:
402,115,131671,1,8,0:0:0:0:
363,122,131802,6,0,L|301:128,1,56,8|8,0:0|0:0,0:0:0:0:
149,122,132066,2,0,L|211:128,1,56,8|8,0:0|0:0,0:0:0:0:
323,268,132329,2,0,L|307:205,1,56,8|8,0:0|0:0,0:0:0:0:
189,268,132592,2,0,L|205:205,1,56,8|8,0:0|0:0,0:0:0:0:
256,136,132855,6,0,L|256:104,22,28,8|8|8|8|8|8|8|8|8|8|8|8|8|8|8|8|8|8|8|8|8|8|8,0:0|0:0|0:0|0:0|0:0|0:0|0:0|0:0|0:0|0:0|0:0|0:0|0:0|0:0|0:0|0:0|0:0|0:0|0:0|0:0|0:0|0:0|0:0,0:0:0:0:
171,177,134434,6,0,P|124:178|87:172,1,78.7500030040742,8|0,0:0|0:0,0:0:0:0:
92,173,134697,2,0,P|52:181|26:191,1,52.5000020027161,4|4,0:3|0:3,0:0:0:0:
4,108,134960,5,2,0:0:0:0:
4,108,135487,1,8,0:0:0:0:
4,108,136013,2,0,L|78:102,1,70,2|0,0:0|0:0,0:0:0:0:
142,158,136276,2,0,L|216:152,1,70,0|0,0:0|0:0,0:0:0:0:
269,86,136539,2,0,L|343:80,1,70,8|0,0:0|0:0,0:0:0:0:
407,136,136802,2,0,L|481:130,1,70,0|0,0:0|0:0,0:0:0:0:
323,163,137066,6,0,L|345:318,2,140,2|8|8,0:0|0:3|0:0,0:0:0:0:
323,163,138118,2,0,L|228:156,1,70,2|0,0:0|0:0,0:0:0:0:
168,126,138381,2,0,P|114:131|79:147,1,70,0|0,0:0|0:0,0:0:0:0:
85,219,138645,2,0,P|69:257|63:308,1,70,8|0,0:0|0:0,0:0:0:0:
128,344,138908,2,0,P|183:350|271:338,1,140,0|2,0:0|0:0,0:0:0:0:
330,192,139434,5,0,0:0:0:0:
430,320,139697,1,8,0:0:0:0:
479,164,139960,1,0,0:0:0:0:
361,50,140223,2,0,P|286:49|200:91,1,140,2|0,0:0|0:0,0:0:0:0:
63,57,140750,2,0,P|111:47|134:37,1,70,8|0,0:0|0:0,0:0:0:0:
177,172,141013,2,0,P|129:182|106:192,1,70,0|0,0:0|0:0,0:0:0:0:
50,244,141276,6,0,L|54:327,1,70,2|0,0:0|0:0,0:0:0:0:
140,333,141539,2,0,L|136:263,1,70,8|0,0:3|0:0,0:0:0:0:
224,236,141802,2,0,L|228:319,1,70,8|0,0:0|0:0,0:0:0:0:
314,325,142065,2,0,L|310:255,1,70,0|0,0:0|0:0,0:0:0:0:
359,169,142329,2,0,L|513:183,2,140,4|0|8,0:3|0:0|0:0,0:0:0:0:
321,95,142987,1,0,0:0:0:0:
392,44,143118,2,0,L|486:52,1,70,0|0,0:0|0:0,0:0:0:0:
225,45,143381,6,0,L|215:124,3,70,2|0|0|0,0:0|0:0|0:0|0:0,0:0:0:0:
321,95,143908,2,0,L|311:174,3,70,8|0|0|0,0:0|0:0|0:0|0:0,0:0:0:0:
260,231,144434,6,0,L|167:219,1,70,2|0,0:0|0:0,0:0:0:0:
291,345,144697,2,0,L|198:333,1,70,0|0,0:0|0:0,0:0:0:0:
249,207,144960,2,0,L|156:195,1,70,8|0,0:0|0:0,0:0:0:0:
280,321,145223,2,0,L|187:309,1,70,0|0,0:0|0:0,0:0:0:0:
133,281,145487,5,2,0:0:0:0:
78,129,145750,1,8,0:3:0:0:
228,77,146013,1,8,0:0:0:0:
228,77,146539,6,0,L|232:156,1,70,2|0,0:0|0:0,0:0:0:0:
335,144,146802,2,0,L|339:75,1,70,0|0,0:0|0:0,0:0:0:0:
142,172,147066,2,0,L|145:241,1,70,8|0,0:0|0:0,0:0:0:0:
218,311,147329,2,0,L|292:305,1,70,0|0,0:0|0:0,0:0:0:0:
421,239,147592,5,2,0:0:0:0:
421,239,147855,2,0,P|388:228|354:222,1,70,0|0,0:0|0:0,0:0:0:0:
268,162,148118,2,0,P|302:155|335:144,1,70,8|0,0:0|0:0,0:0:0:0:
265,247,148381,2,0,P|260:288|260:330,1,70,0|0,0:0|0:0,0:0:0:0:
145,352,148645,2,0,P|157:280|154:187,1,140,2|0,0:0|0:0,0:0:0:0:
80,95,149171,2,0,L|96:12,2,70,8|0|0,0:0|0:0|0:0,0:0:0:0:
185,207,149697,6,0,P|258:233|343:237,1,140,2|8,0:0|0:3,0:0:0:0:
386,82,150223,2,0,P|320:57|251:50,1,140,8|0,0:0|0:0,0:0:0:0:
114,152,150750,1,8,0:3:0:0:
190,265,151013,1,0,0:0:0:0:
107,334,151276,2,0,L|20:327,1,70,4|0,0:3|0:0,0:0:0:0:
38,246,151539,2,0,L|107:251,1,70,4|0,0:3|0:0,0:0:0:0:
190,265,151802,6,0,P|233:217|328:248,1,168,2|0,0:0|0:0,0:0:0:0:
369,152,152329,2,0,P|409:119|485:198,1,167.999994873047,10|2,0:0|0:1,0:0:0:0:
168,74,152855,2,0,P|128:41|52:120,1,167.999994873047,2|0,0:0|0:0,0:0:0:0:
294,276,153381,2,0,P|334:243|410:322,1,167.999994873047,10|2,0:0|0:1,0:0:0:0:
412,303,153710,1,0,0:0:0:0:
412,303,153776,1,0,0:0:0:0:
488,267,153908,6,0,P|494:230|496:173,1,83.9999974365235,2|0,0:0|0:0,0:0:0:0:
378,83,154171,2,0,P|372:120|370:177,1,83.9999974365235,8|0,0:3|0:0,0:0:0:0:
300,270,154434,2,0,P|353:263|394:248,1,83.9999974365235,10|0,0:0|0:0,0:0:0:0:
269,106,154697,2,0,P|216:113|175:128,1,83.9999974365235,2|0,0:1|0:0,0:0:0:0:
30,283,154960,2,0,P|91:287|203:248,1,167.999994873047,2|2,0:0|0:1,0:0:0:0:
246,184,155355,1,0,0:0:0:0:
322,320,155487,2,0,P|400:290|483:292,1,167.999994873047,10|2,0:0|0:1,0:0:0:0:
483,292,156013,6,0,L|493:175,1,112,2|0,0:0|0:0,0:0:0:0:
415,168,156408,1,0,0:0:0:0:
344,218,156539,2,0,P|336:275|416:345,1,167.999994873047,10|2,0:0|0:1,0:0:0:0:
176,259,157066,2,0,P|125:286|32:234,1,167.999994873047,2|0,0:0|0:0,0:0:0:0:
337,174,157592,2,0,P|387:201|480:149,1,167.999994873047,10|2,0:0|0:1,0:0:0:0:
478,154,157921,1,0,0:0:0:0:
478,154,157987,1,0,0:0:0:0:
399,118,158118,6,0,P|397:73|407:17,1,83.9999974365235,2|0,0:0|0:0,0:0:0:0:
252,151,158381,2,0,P|254:196|244:252,1,83.9999974365235,8|0,0:3|0:0,0:0:0:0:
187,75,158645,2,0,P|239:61|283:58,1,83.9999974365235,10|0,0:0|0:0,0:0:0:0:
423,222,158908,2,0,P|371:236|327:239,1,83.9999974365235,2|0,0:1|0:0,0:0:0:0:
90,183,159171,6,0,P|145:158|263:153,1,167.999994873047,4|2,0:3|0:1,0:0:0:0:
248,234,159566,1,0,0:0:0:0:
347,146,159697,2,0,L|387:127,6,41.9999987182618,8|0|0|0|4|0|0,0:0|0:0|0:0|0:0|0:3|0:0|0:0,0:0:0:0:
347,146,160223,6,0,B|343:214|343:214|360:249|360:249|356:321,1,168,2|0,0:0|0:0,0:0:0:0:
483,335,160750,2,0,P|439:281|351:318,1,167.999994873047,10|2,0:0|0:1,0:0:0:0:
117,84,161276,2,0,P|161:30|249:67,1,167.999994873047,2|0,0:2|0:0,0:0:0:0:
356,309,161802,2,0,P|283:340|228:283,1,167.999994873047,10|2,0:0|0:1,0:0:0:0:
228,283,162131,1,0,0:0:0:0:
228,283,162197,1,0,0:0:0:0:
180,217,162329,6,0,P|233:206|271:207,1,83.9999974365235,2|0,0:0|0:0,0:0:0:0:
431,91,162592,2,0,P|390:75|356:48,1,83.9999974365235,8|0,0:3|0:0,0:0:0:0:
349,198,162855,2,0,P|354:251|347:293,1,83.9999974365235,10|0,0:0|0:0,0:0:0:0:
336,54,163118,2,0,P|370:17|410:-6,1,83.9999974365235,2|0,0:1|0:0,0:0:0:0:
259,206,163381,2,0,P|198:214|68:180,1,167.999994873047,2|2,0:0|0:1,0:0:0:0:
94,193,163776,1,0,0:0:0:0:
167,308,163908,2,0,P|180:252|176:136,1,167.999994873047,10|2,0:0|0:1,0:0:0:0:
177,142,164434,6,0,L|306:152,1,112,2|0,0:0|0:0,0:0:0:0:
369,110,164829,1,0,0:0:0:0:
292,66,164960,2,0,P|205:60|98:49,1,167.999994873047,10|2,0:0|0:1,0:0:0:0:
189,330,165487,2,0,P|276:336|383:347,1,167.999994873047,2|0,0:0|0:0,0:0:0:0:
459,52,166013,2,0,P|375:60|291:65,1,167.999994873047,10|2,0:0|0:1,0:0:0:0:
291,65,166342,1,0,0:0:0:0:
291,65,166408,1,0,0:0:0:0:
243,143,166539,5,2,0:0:0:0:
10,183,166802,1,8,0:3:0:0:
75,113,166934,1,0,0:0:0:0:
101,203,167066,1,10,0:0:0:0:
210,34,167329,5,2,0:1:0:0:
499,137,167592,1,4,0:3:0:0:
273,97,167855,1,8,0:3:0:0:
438,70,168118,1,8,0:0:0:0:
357,84,168381,1,2,0:0:0:0:
273,97,168645,6,0,P|274:147|265:248,1,140,2|0,0:0|0:0,0:0:0:0:
331,325,169039,2,0,P|341:283|360:232,1,70,0|8,0:0|0:0,0:0:0:0:
114,188,169434,2,0,L|118:280,1,70,0|0,0:0|0:0,0:0:0:0:
176,360,169697,1,0,0:0:0:0:
176,360,169829,2,0,P|186:318|205:267,1,70,0|2,0:0|0:0,0:0:0:0:
349,257,170223,2,0,L|357:336,1,70,10|0,0:1|0:0,0:0:0:0:
441,312,170487,2,0,L|433:242,1,70,0|0,0:0|0:0,0:0:0:0:
375,170,170750,6,0,P|274:184|181:174,1,140,2|8,0:0|0:3,0:0:0:0:
226,91,171145,2,0,P|265:84|310:82,1,70,0|8,0:0|0:0,0:0:0:0:
121,170,171539,2,0,L|23:168,1,70,0|0,0:0|0:0,0:0:0:0:
53,85,171802,1,0,0:0:0:0:
53,85,171934,2,0,P|92:78|137:76,1,70,0|2,0:0|0:0,0:0:0:0:
376,69,172329,2,0,L|369:158,1,70,8|0,0:0|0:0,0:0:0:0:
286,128,172592,2,0,L|292:58,1,70,0|0,0:0|0:0,0:0:0:0:
424,0,172855,5,2,0:0:0:0:
512,91,173118,1,2,0:1:0:0:
495,219,173381,2,0,P|422:217|350:234,1,140,8|0,0:0|0:0,0:0:0:0:
165,283,173908,2,0,P|233:297|303:295,1,140,2|0,0:1|0:1,0:0:0:0:
356,231,174302,2,0,P|345:175|330:147,1,70,0|8,0:0|0:0,0:0:0:0:
428,116,174566,1,0,0:0:0:0:
428,116,174697,2,0,P|439:60|454:32,1,70,0|0,0:0|0:0,0:0:0:0:
369,6,174960,6,0,P|265:32|226:31,1,140,2|8,0:0|0:3,0:0:0:0:
51,182,175487,2,0,P|120:185|187:207,1,140,8|0,0:0|0:0,0:0:0:0:
263,147,176013,2,0,B|396:184|313:107|472:147,1,210,4|0,0:3|0:0,0:0:0:0:
494,231,176539,2,0,P|486:293|477:325,1,70,8|0,0:0|0:0,0:0:0:0:
391,280,176802,2,0,P|399:218|408:186,1,70,0|0,0:0|0:0,0:0:0:0:
332,343,177066,6,0,B|263:327|263:327|181:340,1,140,2|0,0:0|0:0,0:0:0:0:
95,375,177460,1,0,0:0:0:0:
116,278,177592,1,8,0:0:0:0:
116,278,177855,2,0,P|123:219|113:132,1,140,0|0,0:0|0:0,0:0:0:0:
37,87,178250,2,0,P|24:149|26:174,1,70,0|2,0:0|0:0,0:0:0:0:
194,44,178645,2,0,L|201:121,1,70,10|0,0:1|0:0,0:0:0:0:
283,99,178908,2,0,L|276:29,1,70,0|0,0:0|0:0,0:0:0:0:
363,21,179171,6,0,P|419:42|508:46,1,140,2|8,0:0|0:3,0:0:0:0:
403,119,179566,1,0,0:0:0:0:
500,153,179697,1,8,0:0:0:0:
500,153,179960,2,0,P|496:210|469:290,1,140,0|0,0:0|0:0,0:0:0:0:
390,365,180355,2,0,P|382:324|382:284,1,70,0|2,0:0|0:0,0:0:0:0:
381,295,180750,2,0,P|334:260|296:251,1,70,8|0,0:0|0:0,0:0:0:0:
255,183,181013,2,0,P|201:206|174:234,1,70,0|0,0:0|0:0,0:0:0:0:
101,223,181276,5,2,0:0:0:0:
236,284,181539,1,2,0:1:0:0:
357,198,181802,2,0,P|364:145|361:56,1,140,8|0,0:0|0:0,0:0:0:0:
197,73,182329,2,0,P|190:126|193:215,1,140,2|2,0:1|0:0,0:0:0:0:
137,308,182723,2,0,P|179:295|211:294,1,70,0|8,0:0|0:0,0:0:0:0:
87,241,182987,1,0,0:0:0:0:
87,241,183118,2,0,P|52:238|19:226,1,70,0|0,0:0|0:0,0:0:0:0:
14,151,183381,6,0,L|37:7,1,140,0|8,0:0|0:3,0:0:0:0:
256,48,183908,2,0,L|256:192,1,140,8|0,0:0|0:0,0:0:0:0:
498,151,184434,2,0,L|475:7,2,140,4|8|0,0:3|0:3|0:0,0:0:0:0:
388,232,185223,1,0,0:0:0:0:
256,188,185487,5,2,0:0:0:0:
