osu file format v14

[General]
AudioFilename: audio.mp3
AudioLeadIn: 0
PreviewTime: -1
Countdown: 1
SampleSet: Drum
StackLeniency: 0.7
Mode: 3
LetterboxInBreaks: 0
SpecialStyle: 0
WidescreenStoryboard: 0

[Editor]
DistanceSpacing: 1
BeatDivisor: 8
GridSize: 8
TimelineZoom: 2.4

[Metadata]
Title:Her Name
TitleUnicode:Her Name
Artist:MRVLZ
ArtistUnicode:MRVLZ
Creator:Stingy
Version:a
Source:
Tags:
BeatmapID:1991820
BeatmapSetID:954015

[Difficulty]
HPDrainRate:5
CircleSize:4
OverallDifficulty:5
ApproachRate:5
SliderMultiplier:1.4
SliderTickRate:1

[Events]
//Background and Video events
0,0,"f.png",0,0
//Break Periods
//Storyboard Layer 0 (Background)
//Storyboard Layer 1 (Fail)
//Storyboard Layer 2 (Pass)
//Storyboard Layer 3 (Foreground)
//Storyboard Layer 4 (Overlay)
//Storyboard Sound Samples

[TimingPoints]
225,526.315789473684,4,3,0,100,1,0
225,526.315789473684,4,3,0,100,1,0
8646,-100,4,3,0,100,0,0
8646,-100,4,3,0,100,0,0
17067,-100,4,3,0,100,0,0
17067,-100,4,3,0,100,0,0
25488,-100,4,3,0,100,0,0
25488,-100,4,3,0,100,0,0
33909,-100,4,3,0,100,0,0
33909,-100,4,3,0,100,0,0
42330,-100,4,3,0,100,0,0
42330,-100,4,3,0,100,0,0
50751,-100,4,3,0,100,0,0
50751,-100,4,3,0,100,0,0
59172,-100,4,3,0,100,0,0
59172,-100,4,3,0,100,0,0
67593,-100,4,3,0,100,0,0
67593,-100,4,3,0,100,0,0
84435,-100,4,3,0,100,0,0

[HitObjects]
64,192,225,128,0,1803:0:0:0:0:
448,192,225,1,0,0:0:0:0:
192,192,619,1,0,0:0:0:0:
448,192,751,1,0,0:0:0:0:
320,192,882,1,0,0:0:0:0:
192,192,1014,1,0,0:0:0:0:
448,192,1146,1,0,0:0:0:0:
192,192,1277,128,0,1672:0:0:0:0:
320,192,1672,1,0,0:0:0:0:
192,192,1803,128,0,2330:0:0:0:0:
448,192,1803,1,0,0:0:0:0:
320,192,2067,128,0,2330:0:0:0:0:
64,192,2330,128,0,2856:0:0:0:0:
448,192,2330,1,0,0:0:0:0:
192,192,2461,1,0,0:0:0:0:
320,192,2593,128,0,2856:0:0:0:0:
448,192,2856,1,0,0:0:0:0:
192,192,3119,128,0,3909:0:0:0:0:
64,192,3119,1,0,0:0:0:0:
448,192,3909,1,0,0:0:0:0:
320,192,4435,128,0,6014:0:0:0:0:
64,192,4435,1,0,0:0:0:0:
448,192,4961,1,0,0:0:0:0:
192,192,5224,1,0,0:0:0:0:
64,192,5488,128,0,5751:0:0:0:0:
192,192,5751,1,0,0:0:0:0:
64,192,5882,128,0,6014:0:0:0:0:
192,192,6014,128,0,6540:0:0:0:0:
448,192,6014,1,0,0:0:0:0:
320,192,6146,1,0,0:0:0:0:
448,192,6277,128,0,6540:0:0:0:0:
64,192,6540,128,0,7067:0:0:0:0:
320,192,6540,1,0,0:0:0:0:
448,192,7067,1,0,0:0:0:0:
320,192,7330,128,0,8119:0:0:0:0:
64,192,7330,1,0,0:0:0:0:
448,192,8119,1,0,0:0:0:0:
64,192,8646,128,0,10224:0:0:0:0:
448,192,8646,1,0,0:0:0:0:
320,192,9040,1,0,0:0:0:0:
448,192,9172,1,0,0:0:0:0:
192,192,9303,1,0,0:0:0:0:
320,192,9435,1,0,0:0:0:0:
448,192,9567,1,0,0:0:0:0:
192,192,9698,128,0,10093:0:0:0:0:
320,192,10093,1,0,0:0:0:0:
192,192,10224,1,0,0:0:0:0:
448,192,10224,128,0,10751:0:0:0:0:
320,192,10488,128,0,10751:0:0:0:0:
64,192,10751,128,0,11277:0:0:0:0:
192,192,10751,1,0,0:0:0:0:
448,192,10882,1,0,0:0:0:0:
320,192,11014,128,0,11277:0:0:0:0:
448,192,11277,1,0,0:0:0:0:
192,192,11540,128,0,12330:0:0:0:0:
64,192,11540,1,0,0:0:0:0:
448,192,12330,1,0,0:0:0:0:
320,192,12856,128,0,14435:0:0:0:0:
64,192,12856,1,0,0:0:0:0:
448,192,13382,1,0,0:0:0:0:
192,192,13646,1,0,0:0:0:0:
448,192,13909,128,0,14303:0:0:0:0:
64,192,14303,128,0,14435:0:0:0:0:
192,192,14435,128,0,14961:0:0:0:0:
448,192,14435,1,0,0:0:0:0:
448,192,14698,128,0,14961:0:0:0:0:
64,192,14961,128,0,15488:0:0:0:0:
320,192,14961,1,0,0:0:0:0:
448,192,15488,1,0,0:0:0:0:
320,192,15751,128,0,16540:0:0:0:0:
64,192,15751,1,0,0:0:0:0:
448,192,16540,1,0,0:0:0:0:
320,192,17067,1,0,0:0:0:0:
448,192,17067,1,0,0:0:0:0:
64,192,17461,1,0,0:0:0:0:
320,192,17593,1,0,0:0:0:0:
448,192,17593,1,0,0:0:0:0:
192,192,17724,1,0,0:0:0:0:
448,192,17856,1,0,0:0:0:0:
320,192,17988,1,0,0:0:0:0:
192,192,18119,1,0,0:0:0:0:
64,192,18119,128,0,18382:0:0:0:0:
448,192,18382,1,0,0:0:0:0:
320,192,18514,1,0,0:0:0:0:
64,192,18646,128,0,18909:0:0:0:0:
192,192,18646,1,0,0:0:0:0:
448,192,18909,128,0,19172:0:0:0:0:
64,192,19172,1,0,0:0:0:0:
320,192,19172,128,0,19567:0:0:0:0:
448,192,19567,1,0,0:0:0:0:
320,192,19698,1,0,0:0:0:0:
64,192,19698,128,0,19961:0:0:0:0:
448,192,19961,128,0,20224:0:0:0:0:
192,192,20224,1,0,0:0:0:0:
320,192,20224,1,0,0:0:0:0:
64,192,20356,1,0,0:0:0:0:
320,192,20488,1,0,0:0:0:0:
448,192,20619,1,0,0:0:0:0:
320,192,20751,1,0,0:0:0:0:
192,192,20751,1,0,0:0:0:0:
448,192,21277,1,0,0:0:0:0:
192,192,21277,1,0,0:0:0:0:
448,192,21803,1,0,0:0:0:0:
192,192,21803,1,0,0:0:0:0:
320,192,22067,1,0,0:0:0:0:
320,192,22330,1,0,0:0:0:0:
64,192,22330,1,0,0:0:0:0:
448,192,22593,1,0,0:0:0:0:
192,192,22724,1,0,0:0:0:0:
64,192,22856,1,0,0:0:0:0:
320,192,22856,1,0,0:0:0:0:
448,192,22988,1,0,0:0:0:0:
192,192,23119,1,0,0:0:0:0:
64,192,23251,1,0,0:0:0:0:
320,192,23382,1,0,0:0:0:0:
448,192,23382,1,0,0:0:0:0:
448,192,23909,1,0,0:0:0:0:
320,192,23909,1,0,0:0:0:0:
448,192,24172,1,0,0:0:0:0:
192,192,24303,1,0,0:0:0:0:
64,192,24435,1,0,0:0:0:0:
320,192,24435,1,0,0:0:0:0:
320,192,24961,1,0,0:0:0:0:
64,192,24961,1,0,0:0:0:0:
64,192,25488,1,0,0:0:0:0:
192,192,25488,1,0,0:0:0:0:
448,192,25488,1,0,0:0:0:0:
64,192,25751,1,0,0:0:0:0:
192,192,25751,1,0,0:0:0:0:
320,192,25882,1,0,0:0:0:0:
448,192,26014,1,0,0:0:0:0:
64,192,26014,1,0,0:0:0:0:
320,192,26146,1,0,0:0:0:0:
192,192,26277,1,0,0:0:0:0:
64,192,26277,1,0,0:0:0:0:
192,192,26409,1,0,0:0:0:0:
448,192,26540,1,0,0:0:0:0:
320,192,26540,128,0,26803:0:0:0:0:
192,192,26803,1,0,0:0:0:0:
448,192,26803,1,0,0:0:0:0:
192,192,26935,1,0,0:0:0:0:
448,192,27067,1,0,0:0:0:0:
320,192,27067,128,0,27330:0:0:0:0:
64,192,27067,1,0,0:0:0:0:
448,192,27330,1,0,0:0:0:0:
192,192,27330,128,0,27593:0:0:0:0:
320,192,27593,1,0,0:0:0:0:
64,192,27593,128,0,27856:0:0:0:0:
448,192,27593,1,0,0:0:0:0:
320,192,27856,1,0,0:0:0:0:
192,192,27856,1,0,0:0:0:0:
192,192,27988,1,0,0:0:0:0:
320,192,28119,1,0,0:0:0:0:
448,192,28119,128,0,28382:0:0:0:0:
320,192,28382,128,0,28646:0:0:0:0:
64,192,28382,1,0,0:0:0:0:
192,192,28382,1,0,0:0:0:0:
192,192,28646,128,0,28777:0:0:0:0:
64,192,28646,1,0,0:0:0:0:
448,192,28777,1,0,0:0:0:0:
448,192,28909,1,0,0:0:0:0:
192,192,28909,128,0,29040:0:0:0:0:
320,192,29040,1,0,0:0:0:0:
192,192,29172,1,0,0:0:0:0:
448,192,29172,1,0,0:0:0:0:
192,192,29435,1,0,0:0:0:0:
448,192,29435,1,0,0:0:0:0:
64,192,29698,1,0,0:0:0:0:
192,192,29698,1,0,0:0:0:0:
320,192,29698,1,0,0:0:0:0:
448,192,29830,1,0,0:0:0:0:
64,192,29961,1,0,0:0:0:0:
448,192,30093,1,0,0:0:0:0:
320,192,30224,1,0,0:0:0:0:
192,192,30224,1,0,0:0:0:0:
64,192,30356,1,0,0:0:0:0:
448,192,30488,1,0,0:0:0:0:
64,192,30619,1,0,0:0:0:0:
320,192,30751,1,0,0:0:0:0:
64,192,30882,1,0,0:0:0:0:
192,192,31014,1,0,0:0:0:0:
320,192,31146,1,0,0:0:0:0:
64,192,31277,1,0,0:0:0:0:
192,192,31277,1,0,0:0:0:0:
448,192,31277,1,0,0:0:0:0:
320,192,31409,1,0,0:0:0:0:
64,192,31540,1,0,0:0:0:0:
192,192,31672,1,0,0:0:0:0:
448,192,31803,1,0,0:0:0:0:
64,192,31803,1,0,0:0:0:0:
320,192,31869,1,0,0:0:0:0:
64,192,31935,1,0,0:0:0:0:
192,192,32001,1,0,0:0:0:0:
448,192,32067,1,0,0:0:0:0:
320,192,32132,1,0,0:0:0:0:
192,192,32198,1,0,0:0:0:0:
64,192,32264,1,0,0:0:0:0:
320,192,32330,1,0,0:0:0:0:
192,192,32396,1,0,0:0:0:0:
64,192,32461,1,0,0:0:0:0:
192,192,32527,1,0,0:0:0:0:
448,192,32593,1,0,0:0:0:0:
320,192,32593,1,0,0:0:0:0:
64,192,32659,1,0,0:0:0:0:
192,192,32724,1,0,0:0:0:0:
320,192,32790,1,0,0:0:0:0:
448,192,32856,1,0,0:0:0:0:
64,192,32922,1,0,0:0:0:0:
192,192,32988,1,0,0:0:0:0:
320,192,33053,1,0,0:0:0:0:
448,192,33119,1,0,0:0:0:0:
320,192,33185,1,0,0:0:0:0:
192,192,33251,1,0,0:0:0:0:
64,192,33251,1,0,0:0:0:0:
448,192,33382,1,0,0:0:0:0:
320,192,33382,1,0,0:0:0:0:
192,192,33382,1,0,0:0:0:0:
64,192,33382,1,0,0:0:0:0:
448,192,33646,1,0,0:0:0:0:
320,192,33646,1,0,0:0:0:0:
320,192,33777,1,0,0:0:0:0:
192,192,33777,1,0,0:0:0:0:
192,192,33909,1,0,0:0:0:0:
64,192,33909,128,0,34040:0:0:0:0:
448,192,33909,1,0,0:0:0:0:
64,192,34172,128,0,34303:0:0:0:0:
192,192,34303,1,0,0:0:0:0:
448,192,34435,1,0,0:0:0:0:
320,192,34435,1,0,0:0:0:0:
64,192,34435,1,0,0:0:0:0:
448,192,34698,128,0,34830:0:0:0:0:
448,192,34961,128,0,35093:0:0:0:0:
320,192,35093,1,0,0:0:0:0:
64,192,35224,1,0,0:0:0:0:
448,192,35224,128,0,35356:0:0:0:0:
192,192,35488,1,0,0:0:0:0:
64,192,35488,1,0,0:0:0:0:
320,192,35488,128,0,35619:0:0:0:0:
192,192,35751,128,0,35882:0:0:0:0:
64,192,36014,1,0,0:0:0:0:
320,192,36014,128,0,36146:0:0:0:0:
320,192,36277,128,0,36409:0:0:0:0:
448,192,36277,1,0,0:0:0:0:
192,192,36409,1,0,0:0:0:0:
448,192,36540,1,0,0:0:0:0:
320,192,36540,1,0,0:0:0:0:
64,192,36540,1,0,0:0:0:0:
192,192,36803,128,0,36935:0:0:0:0:
192,192,37067,128,0,37198:0:0:0:0:
320,192,37198,1,0,0:0:0:0:
192,192,37330,128,0,37461:0:0:0:0:
64,192,37330,1,0,0:0:0:0:
448,192,37593,1,0,0:0:0:0:
192,192,37593,128,0,37724:0:0:0:0:
320,192,37593,1,0,0:0:0:0:
448,192,37856,1,0,0:0:0:0:
64,192,37856,1,0,0:0:0:0:
448,192,37988,1,0,0:0:0:0:
320,192,38119,1,0,0:0:0:0:
192,192,38119,1,0,0:0:0:0:
64,192,38382,128,0,38514:0:0:0:0:
320,192,38646,1,0,0:0:0:0:
448,192,38646,1,0,0:0:0:0:
64,192,38646,128,0,38777:0:0:0:0:
64,192,38909,128,0,39040:0:0:0:0:
192,192,38909,1,0,0:0:0:0:
320,192,39172,128,0,39303:0:0:0:0:
320,192,39435,128,0,39567:0:0:0:0:
64,192,39435,1,0,0:0:0:0:
192,192,39567,128,0,39698:0:0:0:0:
320,192,39698,128,0,39830:0:0:0:0:
448,192,39698,1,0,0:0:0:0:
64,192,39698,1,0,0:0:0:0:
192,192,39830,1,0,0:0:0:0:
320,192,39961,128,0,40093:0:0:0:0:
64,192,40224,128,0,40356:0:0:0:0:
448,192,40224,1,0,0:0:0:0:
64,192,40488,128,0,40619:0:0:0:0:
192,192,40488,1,0,0:0:0:0:
64,192,40751,128,0,40882:0:0:0:0:
192,192,40751,1,0,0:0:0:0:
448,192,40751,1,0,0:0:0:0:
448,192,41014,128,0,41146:0:0:0:0:
448,192,41277,128,0,41409:0:0:0:0:
320,192,41277,1,0,0:0:0:0:
448,192,41540,128,0,41672:0:0:0:0:
192,192,41540,1,0,0:0:0:0:
320,192,41672,1,0,0:0:0:0:
448,192,41803,128,0,41935:0:0:0:0:
64,192,41803,1,0,0:0:0:0:
192,192,41803,1,0,0:0:0:0:
192,192,41935,1,0,0:0:0:0:
320,192,42067,1,0,0:0:0:0:
448,192,42067,1,0,0:0:0:0:
320,192,42198,1,0,0:0:0:0:
192,192,42330,1,0,0:0:0:0:
64,192,42330,128,0,42461:0:0:0:0:
448,192,42330,1,0,0:0:0:0:
64,192,42593,128,0,42724:0:0:0:0:
192,192,42724,1,0,0:0:0:0:
448,192,42856,1,0,0:0:0:0:
320,192,42856,1,0,0:0:0:0:
64,192,42856,1,0,0:0:0:0:
448,192,43119,128,0,43251:0:0:0:0:
320,192,43185,1,0,0:0:0:0:
192,192,43251,1,0,0:0:0:0:
448,192,43382,128,0,43514:0:0:0:0:
320,192,43514,1,0,0:0:0:0:
64,192,43646,1,0,0:0:0:0:
448,192,43646,128,0,43777:0:0:0:0:
192,192,43909,1,0,0:0:0:0:
64,192,43909,1,0,0:0:0:0:
320,192,43909,128,0,44040:0:0:0:0:
192,192,44172,128,0,44303:0:0:0:0:
64,192,44435,1,0,0:0:0:0:
320,192,44435,128,0,44567:0:0:0:0:
320,192,44698,128,0,44830:0:0:0:0:
448,192,44698,1,0,0:0:0:0:
192,192,44830,1,0,0:0:0:0:
448,192,44961,1,0,0:0:0:0:
320,192,44961,1,0,0:0:0:0:
64,192,44961,1,0,0:0:0:0:
192,192,45224,128,0,45356:0:0:0:0:
320,192,45290,1,0,0:0:0:0:
448,192,45356,1,0,0:0:0:0:
192,192,45488,128,0,45619:0:0:0:0:
192,192,45751,128,0,45882:0:0:0:0:
64,192,45751,1,0,0:0:0:0:
320,192,45882,1,0,0:0:0:0:
192,192,46014,128,0,46146:0:0:0:0:
64,192,46014,1,0,0:0:0:0:
448,192,46014,1,0,0:0:0:0:
320,192,46146,1,0,0:0:0:0:
448,192,46277,1,0,0:0:0:0:
64,192,46277,1,0,0:0:0:0:
320,192,46409,1,0,0:0:0:0:
64,192,46474,1,0,0:0:0:0:
192,192,46540,1,0,0:0:0:0:
320,192,46540,1,0,0:0:0:0:
64,192,46803,128,0,46935:0:0:0:0:
320,192,47067,1,0,0:0:0:0:
448,192,47067,1,0,0:0:0:0:
64,192,47067,128,0,47198:0:0:0:0:
64,192,47330,128,0,47461:0:0:0:0:
192,192,47330,1,0,0:0:0:0:
448,192,47461,1,0,0:0:0:0:
320,192,47593,128,0,47724:0:0:0:0:
320,192,47856,128,0,47988:0:0:0:0:
64,192,47856,1,0,0:0:0:0:
192,192,47988,128,0,48119:0:0:0:0:
320,192,48119,128,0,48251:0:0:0:0:
448,192,48119,1,0,0:0:0:0:
64,192,48119,1,0,0:0:0:0:
192,192,48251,1,0,0:0:0:0:
320,192,48382,128,0,48514:0:0:0:0:
64,192,48646,128,0,48777:0:0:0:0:
448,192,48646,1,0,0:0:0:0:
448,192,48777,1,0,0:0:0:0:
64,192,48909,128,0,49040:0:0:0:0:
192,192,48909,1,0,0:0:0:0:
320,192,49040,1,0,0:0:0:0:
64,192,49172,128,0,49303:0:0:0:0:
192,192,49172,1,0,0:0:0:0:
448,192,49172,1,0,0:0:0:0:
448,192,49435,128,0,49567:0:0:0:0:
320,192,49501,1,0,0:0:0:0:
192,192,49567,1,0,0:0:0:0:
448,192,49698,128,0,49830:0:0:0:0:
320,192,49698,1,0,0:0:0:0:
448,192,49961,128,0,50093:0:0:0:0:
192,192,49961,1,0,0:0:0:0:
320,192,50093,1,0,0:0:0:0:
64,192,50224,1,0,0:0:0:0:
448,192,50224,128,0,50356:0:0:0:0:
192,192,50224,1,0,0:0:0:0:
192,192,50356,1,0,0:0:0:0:
320,192,50488,1,0,0:0:0:0:
448,192,50488,1,0,0:0:0:0:
320,192,50619,1,0,0:0:0:0:
64,192,50751,1,0,0:0:0:0:
192,192,50751,1,0,0:0:0:0:
448,192,50751,1,0,0:0:0:0:
320,192,51014,1,0,0:0:0:0:
64,192,51146,1,0,0:0:0:0:
192,192,51146,1,0,0:0:0:0:
448,192,51277,1,0,0:0:0:0:
320,192,51277,1,0,0:0:0:0:
192,192,51277,1,0,0:0:0:0:
64,192,51409,1,0,0:0:0:0:
448,192,51540,1,0,0:0:0:0:
192,192,51540,1,0,0:0:0:0:
320,192,51606,1,0,0:0:0:0:
192,192,51672,1,0,0:0:0:0:
64,192,51803,1,0,0:0:0:0:
448,192,51803,1,0,0:0:0:0:
192,192,51935,1,0,0:0:0:0:
448,192,52067,1,0,0:0:0:0:
320,192,52067,1,0,0:0:0:0:
192,192,52198,1,0,0:0:0:0:
64,192,52330,1,0,0:0:0:0:
320,192,52330,1,0,0:0:0:0:
448,192,52330,1,0,0:0:0:0:
64,192,52593,1,0,0:0:0:0:
448,192,52593,1,0,0:0:0:0:
192,192,52659,1,0,0:0:0:0:
320,192,52724,1,0,0:0:0:0:
64,192,52856,1,0,0:0:0:0:
192,192,52856,1,0,0:0:0:0:
448,192,52988,1,0,0:0:0:0:
320,192,53119,1,0,0:0:0:0:
192,192,53119,1,0,0:0:0:0:
64,192,53251,1,0,0:0:0:0:
448,192,53382,1,0,0:0:0:0:
192,192,53382,1,0,0:0:0:0:
320,192,53382,1,0,0:0:0:0:
64,192,53514,1,0,0:0:0:0:
192,192,53646,1,0,0:0:0:0:
448,192,53646,1,0,0:0:0:0:
320,192,53711,1,0,0:0:0:0:
192,192,53777,1,0,0:0:0:0:
448,192,53909,1,0,0:0:0:0:
320,192,53909,1,0,0:0:0:0:
64,192,54040,1,0,0:0:0:0:
192,192,54172,1,0,0:0:0:0:
320,192,54172,1,0,0:0:0:0:
64,192,54303,1,0,0:0:0:0:
448,192,54435,1,0,0:0:0:0:
320,192,54435,1,0,0:0:0:0:
192,192,54435,1,0,0:0:0:0:
64,192,54698,1,0,0:0:0:0:
448,192,54698,1,0,0:0:0:0:
320,192,54764,1,0,0:0:0:0:
192,192,54830,1,0,0:0:0:0:
448,192,54961,1,0,0:0:0:0:
320,192,54961,1,0,0:0:0:0:
64,192,55093,1,0,0:0:0:0:
448,192,55224,1,0,0:0:0:0:
64,192,55356,1,0,0:0:0:0:
192,192,55488,1,0,0:0:0:0:
320,192,55488,1,0,0:0:0:0:
448,192,55488,1,0,0:0:0:0:
64,192,55619,1,0,0:0:0:0:
448,192,55751,1,0,0:0:0:0:
320,192,55751,1,0,0:0:0:0:
192,192,55817,1,0,0:0:0:0:
64,192,55882,1,0,0:0:0:0:
320,192,56014,1,0,0:0:0:0:
192,192,56014,1,0,0:0:0:0:
448,192,56146,1,0,0:0:0:0:
64,192,56277,1,0,0:0:0:0:
192,192,56277,1,0,0:0:0:0:
320,192,56409,1,0,0:0:0:0:
448,192,56540,1,0,0:0:0:0:
192,192,56540,1,0,0:0:0:0:
64,192,56540,1,0,0:0:0:0:
448,192,56803,1,0,0:0:0:0:
192,192,56803,1,0,0:0:0:0:
320,192,56869,1,0,0:0:0:0:
192,192,56935,1,0,0:0:0:0:
448,192,57067,1,0,0:0:0:0:
64,192,57067,1,0,0:0:0:0:
192,192,57198,1,0,0:0:0:0:
320,192,57330,1,0,0:0:0:0:
64,192,57330,1,0,0:0:0:0:
448,192,57461,1,0,0:0:0:0:
320,192,57593,1,0,0:0:0:0:
192,192,57593,1,0,0:0:0:0:
64,192,57593,1,0,0:0:0:0:
448,192,57724,1,0,0:0:0:0:
64,192,57856,1,0,0:0:0:0:
192,192,57856,1,0,0:0:0:0:
320,192,57922,1,0,0:0:0:0:
448,192,57988,1,0,0:0:0:0:
320,192,58119,1,0,0:0:0:0:
192,192,58119,1,0,0:0:0:0:
64,192,58251,1,0,0:0:0:0:
192,192,58382,1,0,0:0:0:0:
448,192,58382,1,0,0:0:0:0:
320,192,58514,1,0,0:0:0:0:
64,192,58646,1,0,0:0:0:0:
192,192,58646,1,0,0:0:0:0:
448,192,58646,1,0,0:0:0:0:
320,192,58909,1,0,0:0:0:0:
192,192,58974,1,0,0:0:0:0:
64,192,59040,1,0,0:0:0:0:
320,192,59172,1,0,0:0:0:0:
64,192,59172,1,0,0:0:0:0:
448,192,59172,1,0,0:0:0:0:
192,192,59303,1,0,0:0:0:0:
320,192,59435,1,0,0:0:0:0:
64,192,59567,1,0,0:0:0:0:
192,192,59567,1,0,0:0:0:0:
448,192,59698,1,0,0:0:0:0:
320,192,59698,1,0,0:0:0:0:
192,192,59698,1,0,0:0:0:0:
320,192,59830,1,0,0:0:0:0:
192,192,59961,1,0,0:0:0:0:
448,192,59961,1,0,0:0:0:0:
320,192,60027,1,0,0:0:0:0:
192,192,60093,1,0,0:0:0:0:
64,192,60224,1,0,0:0:0:0:
448,192,60224,1,0,0:0:0:0:
192,192,60356,1,0,0:0:0:0:
64,192,60488,1,0,0:0:0:0:
320,192,60488,1,0,0:0:0:0:
64,192,60751,1,0,0:0:0:0:
320,192,60751,1,0,0:0:0:0:
448,192,60751,1,0,0:0:0:0:
64,192,61014,1,0,0:0:0:0:
448,192,61014,1,0,0:0:0:0:
192,192,61080,1,0,0:0:0:0:
320,192,61146,1,0,0:0:0:0:
64,192,61277,1,0,0:0:0:0:
192,192,61277,1,0,0:0:0:0:
448,192,61409,1,0,0:0:0:0:
320,192,61540,1,0,0:0:0:0:
192,192,61540,1,0,0:0:0:0:
64,192,61672,1,0,0:0:0:0:
448,192,61803,1,0,0:0:0:0:
192,192,61803,1,0,0:0:0:0:
320,192,61803,1,0,0:0:0:0:
320,192,61935,1,0,0:0:0:0:
448,192,62067,1,0,0:0:0:0:
64,192,62067,1,0,0:0:0:0:
192,192,62132,1,0,0:0:0:0:
320,192,62198,1,0,0:0:0:0:
448,192,62330,1,0,0:0:0:0:
192,192,62330,1,0,0:0:0:0:
64,192,62461,1,0,0:0:0:0:
192,192,62593,1,0,0:0:0:0:
320,192,62593,1,0,0:0:0:0:
64,192,62724,1,0,0:0:0:0:
448,192,62856,1,0,0:0:0:0:
320,192,62856,1,0,0:0:0:0:
64,192,62856,1,0,0:0:0:0:
64,192,63119,1,0,0:0:0:0:
448,192,63119,1,0,0:0:0:0:
320,192,63185,1,0,0:0:0:0:
192,192,63251,1,0,0:0:0:0:
448,192,63382,1,0,0:0:0:0:
320,192,63382,1,0,0:0:0:0:
64,192,63514,1,0,0:0:0:0:
320,192,63646,1,0,0:0:0:0:
448,192,63777,1,0,0:0:0:0:
192,192,63909,1,0,0:0:0:0:
320,192,63909,1,0,0:0:0:0:
448,192,63909,1,0,0:0:0:0:
192,192,64040,1,0,0:0:0:0:
64,192,64172,1,0,0:0:0:0:
448,192,64172,1,0,0:0:0:0:
320,192,64238,1,0,0:0:0:0:
448,192,64303,1,0,0:0:0:0:
320,192,64435,1,0,0:0:0:0:
192,192,64435,1,0,0:0:0:0:
64,192,64567,1,0,0:0:0:0:
192,192,64698,1,0,0:0:0:0:
448,192,64698,1,0,0:0:0:0:
448,192,64961,1,0,0:0:0:0:
192,192,64961,1,0,0:0:0:0:
64,192,64961,1,0,0:0:0:0:
448,192,65224,1,0,0:0:0:0:
192,192,65224,1,0,0:0:0:0:
320,192,65290,1,0,0:0:0:0:
192,192,65356,1,0,0:0:0:0:
448,192,65488,1,0,0:0:0:0:
64,192,65488,1,0,0:0:0:0:
320,192,65619,1,0,0:0:0:0:
192,192,65751,1,0,0:0:0:0:
64,192,65751,1,0,0:0:0:0:
320,192,65882,1,0,0:0:0:0:
320,192,66014,1,0,0:0:0:0:
192,192,66014,1,0,0:0:0:0:
64,192,66014,1,0,0:0:0:0:
448,192,66146,1,0,0:0:0:0:
64,192,66277,1,0,0:0:0:0:
192,192,66277,1,0,0:0:0:0:
320,192,66343,1,0,0:0:0:0:
448,192,66409,1,0,0:0:0:0:
320,192,66540,1,0,0:0:0:0:
192,192,66540,1,0,0:0:0:0:
320,192,66672,1,0,0:0:0:0:
448,192,66803,1,0,0:0:0:0:
64,192,66803,1,0,0:0:0:0:
64,192,66935,1,0,0:0:0:0:
448,192,67001,1,0,0:0:0:0:
192,192,67067,1,0,0:0:0:0:
320,192,67067,1,0,0:0:0:0:
64,192,67067,1,0,0:0:0:0:
320,192,67330,1,0,0:0:0:0:
192,192,67330,1,0,0:0:0:0:
64,192,67593,1,0,0:0:0:0:
192,192,67593,1,0,0:0:0:0:
320,192,67593,1,0,0:0:0:0:
64,192,67856,128,0,68053:0:0:0:0:
192,192,68119,1,0,0:0:0:0:
64,192,68119,1,0,0:0:0:0:
448,192,68119,128,0,68646:0:0:0:0:
320,192,68382,1,0,0:0:0:0:
192,192,68448,1,0,0:0:0:0:
64,192,68514,1,0,0:0:0:0:
320,192,68646,1,0,0:0:0:0:
192,192,68777,1,0,0:0:0:0:
448,192,68909,1,0,0:0:0:0:
320,192,68909,1,0,0:0:0:0:
64,192,69040,1,0,0:0:0:0:
448,192,69172,1,0,0:0:0:0:
320,192,69172,1,0,0:0:0:0:
192,192,69172,1,0,0:0:0:0:
64,192,69303,1,0,0:0:0:0:
448,192,69435,1,0,0:0:0:0:
192,192,69567,1,0,0:0:0:0:
64,192,69698,1,0,0:0:0:0:
448,192,69698,1,0,0:0:0:0:
320,192,69830,1,0,0:0:0:0:
192,192,69961,1,0,0:0:0:0:
64,192,69961,1,0,0:0:0:0:
448,192,70093,1,0,0:0:0:0:
320,192,70224,1,0,0:0:0:0:
64,192,70224,1,0,0:0:0:0:
192,192,70224,128,0,70488:0:0:0:0:
64,192,70488,1,0,0:0:0:0:
448,192,70488,1,0,0:0:0:0:
320,192,70553,1,0,0:0:0:0:
192,192,70619,1,0,0:0:0:0:
448,192,70751,1,0,0:0:0:0:
64,192,70882,1,0,0:0:0:0:
320,192,71014,1,0,0:0:0:0:
192,192,71014,1,0,0:0:0:0:
448,192,71146,1,0,0:0:0:0:
320,192,71277,1,0,0:0:0:0:
192,192,71277,1,0,0:0:0:0:
64,192,71277,128,0,71474:0:0:0:0:
64,192,71540,1,0,0:0:0:0:
448,192,71540,128,0,71738:0:0:0:0:
320,192,71672,1,0,0:0:0:0:
192,192,71738,1,0,0:0:0:0:
448,192,71803,1,0,0:0:0:0:
320,192,71803,1,0,0:0:0:0:
64,192,71803,1,0,0:0:0:0:
192,192,72067,128,0,72264:0:0:0:0:
64,192,72067,1,0,0:0:0:0:
192,192,72330,1,0,0:0:0:0:
320,192,72330,1,0,0:0:0:0:
448,192,72330,128,0,72856:0:0:0:0:
64,192,72593,1,0,0:0:0:0:
192,192,72659,1,0,0:0:0:0:
320,192,72724,1,0,0:0:0:0:
64,192,72856,1,0,0:0:0:0:
448,192,72988,1,0,0:0:0:0:
64,192,73119,1,0,0:0:0:0:
192,192,73119,1,0,0:0:0:0:
320,192,73251,1,0,0:0:0:0:
192,192,73382,1,0,0:0:0:0:
64,192,73382,1,0,0:0:0:0:
448,192,73382,1,0,0:0:0:0:
320,192,73514,1,0,0:0:0:0:
64,192,73646,1,0,0:0:0:0:
448,192,73777,1,0,0:0:0:0:
192,192,73909,1,0,0:0:0:0:
320,192,73909,1,0,0:0:0:0:
448,192,74040,1,0,0:0:0:0:
320,192,74172,1,0,0:0:0:0:
64,192,74172,1,0,0:0:0:0:
192,192,74303,1,0,0:0:0:0:
64,192,74435,1,0,0:0:0:0:
320,192,74435,1,0,0:0:0:0:
448,192,74435,1,0,0:0:0:0:
192,192,74567,1,0,0:0:0:0:
320,192,74698,1,0,0:0:0:0:
192,192,74764,1,0,0:0:0:0:
64,192,74830,1,0,0:0:0:0:
320,192,74961,1,0,0:0:0:0:
448,192,74961,128,0,75159:0:0:0:0:
448,192,75224,1,0,0:0:0:0:
64,192,75224,1,0,0:0:0:0:
320,192,75356,1,0,0:0:0:0:
192,192,75488,1,0,0:0:0:0:
448,192,75488,1,0,0:0:0:0:
64,192,75488,128,0,75948:0:0:0:0:
448,192,75751,1,0,0:0:0:0:
320,192,75751,1,0,0:0:0:0:
64,192,76014,1,0,0:0:0:0:
192,192,76014,1,0,0:0:0:0:
320,192,76014,1,0,0:0:0:0:
64,192,76277,128,0,76474:0:0:0:0:
320,192,76540,1,0,0:0:0:0:
64,192,76540,1,0,0:0:0:0:
448,192,76540,128,0,77067:0:0:0:0:
320,192,76803,1,0,0:0:0:0:
192,192,76869,1,0,0:0:0:0:
64,192,76935,1,0,0:0:0:0:
320,192,77067,1,0,0:0:0:0:
64,192,77198,1,0,0:0:0:0:
448,192,77330,1,0,0:0:0:0:
320,192,77330,1,0,0:0:0:0:
192,192,77461,1,0,0:0:0:0:
448,192,77593,1,0,0:0:0:0:
320,192,77593,1,0,0:0:0:0:
64,192,77593,1,0,0:0:0:0:
192,192,77724,1,0,0:0:0:0:
448,192,77856,1,0,0:0:0:0:
320,192,77988,1,0,0:0:0:0:
64,192,78119,1,0,0:0:0:0:
448,192,78119,1,0,0:0:0:0:
192,192,78251,1,0,0:0:0:0:
320,192,78382,1,0,0:0:0:0:
448,192,78382,1,0,0:0:0:0:
64,192,78514,1,0,0:0:0:0:
320,192,78646,1,0,0:0:0:0:
448,192,78646,1,0,0:0:0:0:
192,192,78646,128,0,78909:0:0:0:0:
64,192,78909,1,0,0:0:0:0:
448,192,78909,1,0,0:0:0:0:
320,192,78974,1,0,0:0:0:0:
192,192,79040,1,0,0:0:0:0:
448,192,79172,1,0,0:0:0:0:
64,192,79303,1,0,0:0:0:0:
320,192,79435,1,0,0:0:0:0:
192,192,79435,1,0,0:0:0:0:
448,192,79567,1,0,0:0:0:0:
320,192,79698,1,0,0:0:0:0:
192,192,79698,1,0,0:0:0:0:
64,192,79698,128,0,79896:0:0:0:0:
64,192,79961,1,0,0:0:0:0:
448,192,79961,128,0,80159:0:0:0:0:
320,192,80093,1,0,0:0:0:0:
192,192,80159,1,0,0:0:0:0:
448,192,80224,1,0,0:0:0:0:
320,192,80224,1,0,0:0:0:0:
64,192,80224,1,0,0:0:0:0:
192,192,80488,128,0,80685:0:0:0:0:
64,192,80488,1,0,0:0:0:0:
192,192,80751,1,0,0:0:0:0:
320,192,80751,1,0,0:0:0:0:
448,192,80751,128,0,81277:0:0:0:0:
64,192,81014,1,0,0:0:0:0:
192,192,81080,1,0,0:0:0:0:
320,192,81146,1,0,0:0:0:0:
64,192,81277,1,0,0:0:0:0:
448,192,81409,1,0,0:0:0:0:
64,192,81540,1,0,0:0:0:0:
320,192,81540,1,0,0:0:0:0:
192,192,81672,1,0,0:0:0:0:
320,192,81803,1,0,0:0:0:0:
64,192,81803,1,0,0:0:0:0:
448,192,81803,1,0,0:0:0:0:
192,192,81935,1,0,0:0:0:0:
448,192,82067,1,0,0:0:0:0:
320,192,82198,1,0,0:0:0:0:
192,192,82330,1,0,0:0:0:0:
64,192,82330,1,0,0:0:0:0:
448,192,82461,1,0,0:0:0:0:
320,192,82593,1,0,0:0:0:0:
64,192,82593,1,0,0:0:0:0:
192,192,82724,1,0,0:0:0:0:
64,192,82856,1,0,0:0:0:0:
320,192,82856,1,0,0:0:0:0:
448,192,82856,1,0,0:0:0:0:
192,192,82988,1,0,0:0:0:0:
320,192,83119,1,0,0:0:0:0:
192,192,83185,1,0,0:0:0:0:
64,192,83251,1,0,0:0:0:0:
448,192,83382,1,0,0:0:0:0:
320,192,83382,1,0,0:0:0:0:
448,192,83646,1,0,0:0:0:0:
192,192,83646,1,0,0:0:0:0:
448,192,83909,1,0,0:0:0:0:
64,192,83909,128,0,84369:0:0:0:0:
448,192,84172,1,0,0:0:0:0:
192,192,84172,1,0,0:0:0:0:
448,192,84435,1,0,0:0:0:0:
64,192,84435,1,0,0:0:0:0:
64,192,84698,1,0,0:0:0:0:
448,192,84961,1,0,0:0:0:0:
320,192,84961,1,0,0:0:0:0:
64,192,85224,1,0,0:0:0:0:
192,192,85290,1,0,0:0:0:0:
320,192,85356,1,0,0:0:0:0:
64,192,85488,1,0,0:0:0:0:
64,192,85751,1,0,0:0:0:0:
64,192,86014,1,0,0:0:0:0:
448,192,86014,1,0,0:0:0:0:
192,192,86277,1,0,0:0:0:0:
320,192,86540,1,0,0:0:0:0:
320,192,86803,1,0,0:0:0:0:
64,192,87067,1,0,0:0:0:0:
192,192,87067,1,0,0:0:0:0:
448,192,87330,1,0,0:0:0:0:
320,192,87396,1,0,0:0:0:0:
192,192,87461,1,0,0:0:0:0:
448,192,87593,1,0,0:0:0:0:
448,192,87856,1,0,0:0:0:0:
192,192,87988,1,0,0:0:0:0:
448,192,88119,128,0,88382:0:0:0:0:
64,192,88119,1,0,0:0:0:0:
320,192,88382,1,0,0:0:0:0:
448,192,88514,1,0,0:0:0:0:
320,192,88580,1,0,0:0:0:0:
64,192,88909,1,0,0:0:0:0:
64,192,89172,1,0,0:0:0:0:
448,192,89172,1,0,0:0:0:0:
64,192,89435,1,0,0:0:0:0:
320,192,89501,1,0,0:0:0:0:
192,192,89567,1,0,0:0:0:0:
448,192,89698,1,0,0:0:0:0:
448,192,89961,1,0,0:0:0:0:
448,192,90224,1,0,0:0:0:0:
64,192,90224,1,0,0:0:0:0:
320,192,90488,1,0,0:0:0:0:
192,192,90751,1,0,0:0:0:0:
192,192,91014,1,0,0:0:0:0:
320,192,91277,1,0,0:0:0:0:
192,192,91277,1,0,0:0:0:0:
320,192,91540,1,0,0:0:0:0:
192,192,91606,1,0,0:0:0:0:
64,192,91672,1,0,0:0:0:0:
320,192,91803,1,0,0:0:0:0:
320,192,92067,1,0,0:0:0:0:
64,192,92198,1,0,0:0:0:0:
320,192,92330,128,0,92593:0:0:0:0:
448,192,92330,1,0,0:0:0:0:
192,192,92593,1,0,0:0:0:0:
320,192,92724,1,0,0:0:0:0:
192,192,92790,1,0,0:0:0:0:
448,192,92856,1,0,0:0:0:0:
448,192,93119,1,0,0:0:0:0:
320,192,93382,1,0,0:0:0:0:
64,192,93382,1,0,0:0:0:0:
192,192,93646,1,0,0:0:0:0:
320,192,93711,1,0,0:0:0:0:
64,192,93777,1,0,0:0:0:0:
192,192,93909,1,0,0:0:0:0:
192,192,94172,1,0,0:0:0:0:
192,192,94435,1,0,0:0:0:0:
320,192,94435,1,0,0:0:0:0:
448,192,94698,1,0,0:0:0:0:
64,192,94961,1,0,0:0:0:0:
64,192,95224,1,0,0:0:0:0:
192,192,95488,1,0,0:0:0:0:
448,192,95488,1,0,0:0:0:0:
64,192,95751,1,0,0:0:0:0:
192,192,95817,1,0,0:0:0:0:
320,192,95882,1,0,0:0:0:0:
64,192,96014,1,0,0:0:0:0:
64,192,96277,1,0,0:0:0:0:
320,192,96409,1,0,0:0:0:0:
64,192,96540,128,0,96803:0:0:0:0:
448,192,96540,1,0,0:0:0:0:
192,192,96803,1,0,0:0:0:0:
320,192,96935,1,0,0:0:0:0:
192,192,97001,1,0,0:0:0:0:
320,192,97330,1,0,0:0:0:0:
320,192,97593,1,0,0:0:0:0:
192,192,97593,1,0,0:0:0:0:
320,192,97856,1,0,0:0:0:0:
192,192,97922,1,0,0:0:0:0:
64,192,97988,1,0,0:0:0:0:
448,192,98119,1,0,0:0:0:0:
448,192,98382,1,0,0:0:0:0:
448,192,98646,1,0,0:0:0:0:
192,192,98646,1,0,0:0:0:0:
320,192,98909,1,0,0:0:0:0:
64,192,99172,1,0,0:0:0:0:
192,192,99303,1,0,0:0:0:0:
64,192,99435,1,0,0:0:0:0:
192,192,99567,1,0,0:0:0:0:
64,192,99698,1,0,0:0:0:0:
320,192,99830,1,0,0:0:0:0:
64,192,99961,1,0,0:0:0:0:
192,192,100027,1,0,0:0:0:0:
320,192,100093,1,0,0:0:0:0:
64,192,100224,1,0,0:0:0:0:
64,192,100356,1,0,0:0:0:0:
448,192,100488,1,0,0:0:0:0:
448,192,100619,1,0,0:0:0:0:
192,192,100751,1,0,0:0:0:0:
320,192,100751,1,0,0:0:0:0:
192,192,101014,1,0,0:0:0:0:
64,192,101014,1,0,0:0:0:0:
