osu file format v14

[General]
AudioFilename: Moxxi - From Here To Oblivion.mp3
AudioLeadIn: 0
PreviewTime: 101073
Countdown: 0
SampleSet: Soft
StackLeniency: 0.7
Mode: 1
LetterboxInBreaks: 0
WidescreenStoryboard: 1

[Editor]
Bookmarks: 13223,24930,36637,65906,77613,89320,112735,139808,163222
DistanceSpacing: 0.6
BeatDivisor: 2
GridSize: 32
TimelineZoom: 1

[Metadata]
Title:From Here To Oblivion
TitleUnicode:From Here To Oblivion
Artist:MOXXI
ArtistUnicode:MOXXI
Creator:Prismetical
Version:Muzukashii
Source:
Tags:
BeatmapID:863443
BeatmapSetID:396936

[Difficulty]
HPDrainRate:2
CircleSize:2
OverallDifficulty:3
ApproachRate:2
SliderMultiplier:1.3953079326371
SliderTickRate:1

[Events]
//Background and Video events
0,0,"oblivion1.jpg",0,0
//Break Periods
//Storyboard Layer 0 (Background)
//Storyboard Layer 1 (Fail)
//Storyboard Layer 2 (Pass)
//Storyboard Layer 3 (Foreground)
//Storyboard Sound Samples

[TimingPoints]
1561,365.853658536585,4,2,0,10,1,0
13268,-100,4,2,0,100,0,0
36682,-100,4,2,0,70,0,1
60097,-100,4,2,0,10,0,0
65951,-100,4,2,0,100,0,0
89365,-100,4,2,0,70,0,1
112780,-100,4,2,0,10,0,0

[HitObjects]
256,192,1561,5,0,0:0:0:0:
256,192,1743,1,0,0:0:0:0:
256,192,1926,1,8,0:0:0:0:
256,192,2109,1,0,0:0:0:0:
256,192,2475,1,0,0:0:0:0:
256,192,2658,1,8,0:0:0:0:
256,192,3024,1,0,0:0:0:0:
256,192,3207,1,0,0:0:0:0:
256,192,3390,1,8,0:0:0:0:
256,192,3573,1,0,0:0:0:0:
256,192,3756,1,0,0:0:0:0:
256,192,4121,1,8,0:0:0:0:
256,192,4487,1,0,0:0:0:0:
256,192,4670,1,0,0:0:0:0:
256,192,4853,1,8,0:0:0:0:
256,192,5036,1,0,0:0:0:0:
256,192,5402,1,0,0:0:0:0:
256,192,5585,1,8,0:0:0:0:
256,192,5951,1,0,0:0:0:0:
256,192,6134,1,0,0:0:0:0:
256,192,6317,1,8,0:0:0:0:
256,192,6500,1,0,0:0:0:0:
256,192,6682,1,0,0:0:0:0:
256,192,7048,1,8,0:0:0:0:
256,192,7414,1,0,0:0:0:0:
256,192,7597,1,0,0:0:0:0:
256,192,7780,1,8,0:0:0:0:
256,192,7963,1,0,0:0:0:0:
256,192,8329,1,0,0:0:0:0:
256,192,8512,1,8,0:0:0:0:
256,192,8878,1,0,0:0:0:0:
256,192,9060,1,0,0:0:0:0:
256,192,9243,1,8,0:0:0:0:
256,192,9426,1,0,0:0:0:0:
256,192,9609,1,0,0:0:0:0:
256,192,9975,1,8,0:0:0:0:
256,192,10341,1,0,0:0:0:0:
256,192,10524,1,0,0:0:0:0:
256,192,10707,1,8,0:0:0:0:
256,192,10890,1,0,0:0:0:0:
256,192,11256,1,0,0:0:0:0:
256,192,11439,1,8,0:0:0:0:
256,192,11804,1,0,0:0:0:0:
256,192,11987,1,0,0:0:0:0:
256,192,12170,1,8,0:0:0:0:
256,192,12353,1,0,0:0:0:0:
256,192,12536,1,0,0:0:0:0:
256,192,12902,1,0,0:0:0:0:
256,192,13268,5,0,0:0:0:0:
256,192,13634,1,0,0:0:0:0:
256,192,14000,1,0,0:0:0:0:
256,192,14182,1,0,0:0:0:0:
256,192,14365,1,0,0:0:0:0:
256,192,14548,1,8,0:0:0:0:
256,192,14731,1,0,0:0:0:0:
256,192,15097,1,0,0:0:0:0:
256,192,15463,1,0,0:0:0:0:
256,192,15646,1,0,0:0:0:0:
256,192,15829,1,0,0:0:0:0:
256,192,16012,1,0,0:0:0:0:
256,192,16195,1,0,0:0:0:0:
256,192,16378,1,0,0:0:0:0:
256,192,16560,1,0,0:0:0:0:
256,192,16743,1,0,0:0:0:0:
256,192,16926,1,0,0:0:0:0:
256,192,17109,1,0,0:0:0:0:
256,192,17292,1,0,0:0:0:0:
256,192,17475,1,8,0:0:0:0:
256,192,17658,1,0,0:0:0:0:
256,192,17841,1,0,0:0:0:0:
256,192,18024,1,0,0:0:0:0:
256,192,18207,1,0,0:0:0:0:
256,192,18390,1,0,0:0:0:0:
256,192,18573,1,0,0:0:0:0:
256,192,18756,1,0,0:0:0:0:
256,192,18939,1,8,0:0:0:0:
256,192,19121,1,0,0:0:0:0:
256,192,19487,1,8,0:0:0:0:
256,192,19853,1,0,0:0:0:0:
256,192,20036,1,0,0:0:0:0:
256,192,20219,1,0,0:0:0:0:
256,192,20402,1,0,0:0:0:0:
256,192,20585,1,0,0:0:0:0:
256,192,20951,1,8,0:0:0:0:
256,192,21317,1,0,0:0:0:0:
256,192,21500,1,0,0:0:0:0:
256,192,21682,1,0,0:0:0:0:
256,192,21865,1,0,0:0:0:0:
256,192,22048,1,0,0:0:0:0:
256,192,22231,1,0,0:0:0:0:
256,192,22414,1,0,0:0:0:0:
256,192,22780,1,0,0:0:0:0:
256,192,22963,1,0,0:0:0:0:
256,192,23146,1,0,0:0:0:0:
256,192,23512,1,0,0:0:0:0:
256,192,23695,1,0,0:0:0:0:
256,192,23878,1,0,0:0:0:0:
256,192,24060,1,0,0:0:0:0:
256,192,24243,1,0,0:0:0:0:
256,192,24426,1,0,0:0:0:0:
256,192,24609,1,8,0:0:0:0:
256,192,24792,1,0,0:0:0:0:
256,192,24975,5,4,0:0:0:0:
256,192,25341,1,4,0:0:0:0:
256,192,26073,1,12,0:0:0:0:
256,192,26439,1,12,0:0:0:0:
256,192,27170,1,0,0:0:0:0:
256,192,27353,1,0,0:0:0:0:
256,192,27536,1,0,0:0:0:0:
256,192,27719,1,0,0:0:0:0:
256,192,27902,1,0,0:0:0:0:
256,192,28085,1,8,0:0:0:0:
256,192,28268,1,0,0:0:0:0:
256,192,28634,1,0,0:0:0:0:
256,192,28817,1,0,0:0:0:0:
256,192,29000,1,0,0:0:0:0:
256,192,29182,1,0,0:0:0:0:
256,192,29365,1,0,0:0:0:0:
256,192,29548,1,8,0:0:0:0:
256,192,29731,1,0,0:0:0:0:
256,192,30829,1,0,0:0:0:0:
256,192,31195,1,0,0:0:0:0:
256,192,31560,1,0,0:0:0:0:
256,192,31926,1,0,0:0:0:0:
256,192,32109,1,0,0:0:0:0:
256,192,32292,1,0,0:0:0:0:
256,192,32658,1,0,0:0:0:0:
256,192,33024,1,0,0:0:0:0:
256,192,33207,1,0,0:0:0:0:
256,192,33390,1,0,0:0:0:0:
256,192,33573,1,0,0:0:0:0:
256,192,33756,1,0,0:0:0:0:
256,192,33939,1,0,0:0:0:0:
256,192,34121,1,0,0:0:0:0:
256,192,34304,1,0,0:0:0:0:
256,192,34487,1,0,0:0:0:0:
256,192,34670,1,0,0:0:0:0:
256,192,34853,1,8,0:0:0:0:
256,192,35036,1,0,0:0:0:0:
256,192,35219,1,0,0:0:0:0:
256,192,35402,1,0,0:0:0:0:
256,192,35585,1,0,0:0:0:0:
256,192,35768,1,0,0:0:0:0:
256,192,35951,1,0,0:0:0:0:
256,192,36134,1,0,0:0:0:0:
256,192,36317,1,8,0:0:0:0:
256,192,36500,1,0,0:0:0:0:
256,192,36682,5,0,0:0:0:0:
256,192,37048,1,0,0:0:0:0:
256,192,37597,1,8,0:0:0:0:
256,192,37780,1,0,0:0:0:0:
256,192,38146,1,0,0:0:0:0:
256,192,38512,1,0,0:0:0:0:
256,192,39060,1,8,0:0:0:0:
256,192,39243,1,0,0:0:0:0:
256,192,39609,1,0,0:0:0:0:
256,192,39975,1,0,0:0:0:0:
256,192,40524,1,8,0:0:0:0:
256,192,40707,1,0,0:0:0:0:
256,192,41073,1,0,0:0:0:0:
256,192,41256,1,0,0:0:0:0:
256,192,41621,1,8,0:0:0:0:
256,192,41987,1,0,0:0:0:0:
256,192,42170,1,0,0:0:0:0:
256,192,42536,1,0,0:0:0:0:
256,192,42902,1,0,0:0:0:0:
256,192,43451,1,8,0:0:0:0:
256,192,43634,1,0,0:0:0:0:
256,192,44000,1,0,0:0:0:0:
256,192,44365,1,0,0:0:0:0:
256,192,44914,1,8,0:0:0:0:
256,192,45097,1,0,0:0:0:0:
256,192,45463,1,0,0:0:0:0:
256,192,45829,1,0,0:0:0:0:
256,192,46378,1,8,0:0:0:0:
256,192,46560,1,0,0:0:0:0:
192,160,46743,1,0,0:0:0:0:
192,160,46926,1,0,0:0:0:0:
192,160,47109,1,0,0:0:0:0:
192,160,47475,1,8,0:0:0:0:
192,160,47841,1,0,0:0:0:0:
192,160,48024,1,0,0:0:0:0:
256,192,48390,1,0,0:0:0:0:
256,192,48756,1,0,0:0:0:0:
256,192,49304,1,8,0:0:0:0:
256,192,49487,1,0,0:0:0:0:
256,192,49853,1,0,0:0:0:0:
256,192,50219,1,0,0:0:0:0:
256,192,50768,1,8,0:0:0:0:
256,192,50951,1,0,0:0:0:0:
256,192,51317,1,0,0:0:0:0:
256,192,51682,1,0,0:0:0:0:
256,192,51865,1,0,0:0:0:0:
256,192,52231,1,8,0:0:0:0:
256,192,52414,1,0,0:0:0:0:
256,192,52780,1,0,0:0:0:0:
256,192,53146,1,0,0:0:0:0:
256,192,53329,1,0,0:0:0:0:
256,192,53695,1,0,0:0:0:0:
256,192,53878,1,0,0:0:0:0:
256,192,54243,1,0,0:0:0:0:
256,192,54609,1,0,0:0:0:0:
256,192,54975,1,0,0:0:0:0:
256,192,55341,1,8,0:0:0:0:
256,192,55707,1,0,0:0:0:0:
256,192,56073,1,0,0:0:0:0:
256,192,56439,1,12,0:0:0:0:
256,192,57170,1,4,0:0:0:0:
256,192,57536,1,4,0:0:0:0:
256,192,57902,1,4,0:0:0:0:
256,192,58268,1,4,0:0:0:0:
256,192,58634,1,4,0:0:0:0:
256,192,59000,1,0,0:0:0:0:
256,192,59182,1,0,0:0:0:0:
256,192,59365,1,8,0:0:0:0:
256,192,59548,1,8,0:0:0:0:
256,192,59731,1,8,0:0:0:0:
256,192,60097,5,0,0:0:0:0:
256,192,60280,1,0,0:0:0:0:
256,192,60463,1,8,0:0:0:0:
256,192,60646,1,0,0:0:0:0:
256,192,61012,1,0,0:0:0:0:
256,192,61195,1,8,0:0:0:0:
256,192,61560,1,0,0:0:0:0:
256,192,61743,1,0,0:0:0:0:
256,192,61926,1,8,0:0:0:0:
256,192,62109,1,0,0:0:0:0:
256,192,62292,1,0,0:0:0:0:
256,192,62658,1,0,0:0:0:0:
256,192,63024,1,0,0:0:0:0:
256,192,63207,1,0,0:0:0:0:
256,192,63390,1,8,0:0:0:0:
256,192,63573,1,0,0:0:0:0:
256,192,63939,1,0,0:0:0:0:
256,192,64121,1,8,0:0:0:0:
256,192,64487,1,0,0:0:0:0:
256,192,64670,1,0,0:0:0:0:
256,192,64853,1,8,0:0:0:0:
256,192,65036,1,0,0:0:0:0:
256,192,65219,1,0,0:0:0:0:
256,192,65585,1,0,0:0:0:0:
256,192,65951,5,0,0:0:0:0:
256,192,66317,1,0,0:0:0:0:
256,192,66682,1,0,0:0:0:0:
256,192,66865,1,0,0:0:0:0:
256,192,67048,1,0,0:0:0:0:
256,192,67231,1,8,0:0:0:0:
256,192,67414,1,0,0:0:0:0:
256,192,67780,1,0,0:0:0:0:
256,192,68146,1,0,0:0:0:0:
256,192,68329,1,0,0:0:0:0:
256,192,68512,1,0,0:0:0:0:
256,192,68695,1,0,0:0:0:0:
256,192,68878,1,0,0:0:0:0:
256,192,69060,1,0,0:0:0:0:
256,192,69243,1,0,0:0:0:0:
256,192,69426,1,0,0:0:0:0:
256,192,69609,1,0,0:0:0:0:
256,192,69792,1,0,0:0:0:0:
256,192,69975,1,8,0:0:0:0:
256,192,70158,1,0,0:0:0:0:
256,192,70341,1,0,0:0:0:0:
256,192,70524,1,0,0:0:0:0:
256,192,70707,1,0,0:0:0:0:
256,192,70890,1,0,0:0:0:0:
256,192,71073,1,0,0:0:0:0:
256,192,71256,1,0,0:0:0:0:
256,192,71439,1,8,0:0:0:0:
256,192,71621,1,0,0:0:0:0:
256,192,71804,1,0,0:0:0:0:
256,192,72170,1,0,0:0:0:0:
256,192,72536,1,0,0:0:0:0:
256,192,72719,1,0,0:0:0:0:
256,192,72902,1,0,0:0:0:0:
256,192,73085,1,0,0:0:0:0:
256,192,73268,1,0,0:0:0:0:
256,192,73634,1,0,0:0:0:0:
256,192,74000,1,0,0:0:0:0:
256,192,74182,1,0,0:0:0:0:
256,192,74365,1,0,0:0:0:0:
256,192,74548,1,0,0:0:0:0:
256,192,74731,1,0,0:0:0:0:
256,192,74914,1,0,0:0:0:0:
256,192,75097,1,0,0:0:0:0:
256,192,75280,1,0,0:0:0:0:
256,192,75463,1,0,0:0:0:0:
256,192,75646,1,0,0:0:0:0:
256,192,75829,1,0,0:0:0:0:
256,192,76012,1,8,0:0:0:0:
256,192,76195,1,0,0:0:0:0:
256,192,76378,1,0,0:0:0:0:
256,192,76560,1,0,0:0:0:0:
256,192,76743,1,0,0:0:0:0:
256,192,76926,1,0,0:0:0:0:
256,192,77109,1,0,0:0:0:0:
256,192,77292,1,8,0:0:0:0:
256,192,77475,1,0,0:0:0:0:
256,192,77658,5,4,0:0:0:0:
256,192,78024,1,4,0:0:0:0:
256,192,78756,1,12,0:0:0:0:
256,192,79121,1,12,0:0:0:0:
256,192,79853,1,0,0:0:0:0:
256,192,80036,1,0,0:0:0:0:
256,192,80219,1,0,0:0:0:0:
256,192,80402,1,0,0:0:0:0:
256,192,80585,1,0,0:0:0:0:
256,192,80768,1,8,0:0:0:0:
256,192,80951,1,0,0:0:0:0:
256,192,81317,1,0,0:0:0:0:
256,192,81500,1,0,0:0:0:0:
256,192,81682,1,0,0:0:0:0:
256,192,81865,1,0,0:0:0:0:
256,192,82048,1,0,0:0:0:0:
256,192,82231,1,8,0:0:0:0:
256,192,82414,1,0,0:0:0:0:
256,192,83512,1,0,0:0:0:0:
256,192,83878,1,0,0:0:0:0:
256,192,84243,1,0,0:0:0:0:
256,192,84426,1,0,0:0:0:0:
256,192,84609,1,0,0:0:0:0:
256,192,84792,1,8,0:0:0:0:
256,192,84975,1,0,0:0:0:0:
256,192,85341,1,0,0:0:0:0:
256,192,85707,1,0,0:0:0:0:
256,192,85890,1,0,0:0:0:0:
256,192,86073,1,0,0:0:0:0:
256,192,86256,1,0,0:0:0:0:
256,192,86439,1,0,0:0:0:0:
256,192,86621,1,0,0:0:0:0:
256,192,86804,1,0,0:0:0:0:
256,192,86987,1,0,0:0:0:0:
256,192,87170,1,0,0:0:0:0:
256,192,87353,1,0,0:0:0:0:
256,192,87536,1,8,0:0:0:0:
256,192,87719,1,0,0:0:0:0:
256,192,87902,1,0,0:0:0:0:
256,192,88085,1,0,0:0:0:0:
256,192,88268,1,0,0:0:0:0:
256,192,88451,1,0,0:0:0:0:
256,192,88634,1,0,0:0:0:0:
256,192,88817,1,0,0:0:0:0:
256,192,89000,1,8,0:0:0:0:
256,192,89182,1,0,0:0:0:0:
256,192,89365,5,0,0:0:0:0:
256,192,89731,1,0,0:0:0:0:
256,192,90280,1,8,0:0:0:0:
256,192,90463,1,0,0:0:0:0:
256,192,90829,1,0,0:0:0:0:
256,192,91195,1,0,0:0:0:0:
256,192,91743,1,8,0:0:0:0:
256,192,91926,1,0,0:0:0:0:
256,192,92292,1,0,0:0:0:0:
256,192,92658,1,0,0:0:0:0:
256,192,93207,1,8,0:0:0:0:
256,192,93390,1,0,0:0:0:0:
256,192,93756,1,0,0:0:0:0:
256,192,93939,1,0,0:0:0:0:
256,192,94304,1,0,0:0:0:0:
256,192,94670,1,0,0:0:0:0:
256,192,94853,1,0,0:0:0:0:
256,192,95219,1,0,0:0:0:0:
256,192,95585,1,0,0:0:0:0:
256,192,96134,1,8,0:0:0:0:
256,192,96317,1,0,0:0:0:0:
256,192,96682,1,0,0:0:0:0:
256,192,97048,1,0,0:0:0:0:
256,192,97597,1,8,0:0:0:0:
256,192,97780,1,0,0:0:0:0:
256,192,98146,1,0,0:0:0:0:
256,192,98512,1,0,0:0:0:0:
256,192,99426,1,0,0:0:0:0:
256,192,99609,1,0,0:0:0:0:
256,192,99792,1,0,0:0:0:0:
256,192,100158,1,8,0:0:0:0:
256,192,100524,1,0,0:0:0:0:
256,192,100707,1,0,0:0:0:0:
256,192,101073,1,0,0:0:0:0:
256,192,101439,1,0,0:0:0:0:
256,192,101987,1,8,0:0:0:0:
256,192,102170,1,0,0:0:0:0:
256,192,102536,1,0,0:0:0:0:
256,192,102902,1,0,0:0:0:0:
256,192,103451,1,8,0:0:0:0:
256,192,103634,1,0,0:0:0:0:
256,192,104000,1,0,0:0:0:0:
256,192,104365,1,0,0:0:0:0:
256,192,104914,1,8,0:0:0:0:
256,192,105097,1,0,0:0:0:0:
256,192,105463,1,0,0:0:0:0:
256,192,105646,1,0,0:0:0:0:
256,192,106012,1,0,0:0:0:0:
256,192,106378,1,0,0:0:0:0:
256,192,106560,1,0,0:0:0:0:
256,192,107109,1,0,0:0:0:0:
256,192,107292,1,0,0:0:0:0:
256,192,107475,1,0,0:0:0:0:
256,192,107841,1,0,0:0:0:0:
256,192,108024,1,0,0:0:0:0:
256,192,108390,1,0,0:0:0:0:
256,192,108573,1,0,0:0:0:0:
256,192,108939,1,12,0:0:0:0:
256,192,109853,1,4,0:0:0:0:
256,192,110219,1,4,0:0:0:0:
256,192,110585,1,4,0:0:0:0:
256,192,110951,1,4,0:0:0:0:
256,192,111317,1,4,0:0:0:0:
256,192,111682,1,0,0:0:0:0:
256,192,111865,1,0,0:0:0:0:
256,192,112048,1,0,0:0:0:0:
256,192,112231,1,8,0:0:0:0:
256,192,112414,1,0,0:0:0:0:
