osu file format v14

[General]
AudioFilename: audio.mp3
AudioLeadIn: 0
PreviewTime: 61188
Countdown: 0
SampleSet: Soft
StackLeniency: 0.7
Mode: 0
LetterboxInBreaks: 0
WidescreenStoryboard: 0

[Editor]
DistanceSpacing: 1.5
BeatDivisor: 4
GridSize: 4
TimelineZoom: 1.2

[Metadata]
Title:Elliott
TitleUnicode:Elliott
Artist:Moseek
ArtistUnicode:Moseek
Creator:luxoDeh
Version:Normal
Source:
Tags:x factor italia
BeatmapID:1677632
BeatmapSetID:798954

[Difficulty]
HPDrainRate:3
CircleSize:3.5
OverallDifficulty:4
ApproachRate:5.5
SliderMultiplier:1.2
SliderTickRate:1

[Events]
//Background and Video events
0,0,"bg.jpg",0,0
//Break Periods
2,46388,56492
2,153055,166968
//Storyboard Layer 0 (Background)
//Storyboard Layer 1 (Fail)
//Storyboard Layer 2 (Pass)
//Storyboard Layer 3 (Foreground)
//Storyboard Sound Samples

[TimingPoints]
474.345007382486,476.190476190476,4,2,1,25,1,0
11902,-100,4,2,1,40,0,0
15712,-100,4,2,1,30,0,0
30474,-100,4,2,1,40,0,0
30950,-100,4,1,1,20,0,0
38569,-100,4,1,1,25,0,0
42379,-100,4,1,1,30,0,0
46188,-100,4,1,1,50,0,0
57617,-100,4,2,1,50,0,0
61426,-100,4,2,1,50,0,1
76664,-100,4,2,1,30,0,0
91426,-100,4,2,1,40,0,0
91902,-100,4,2,1,50,0,0
92379,-100,4,2,1,50,0,0
107141,-100,4,1,1,50,0,0
107617,-100,4,1,1,50,0,0
118569,-100,4,2,1,50,0,0
122379,-100,4,2,1,50,0,1
137617,-100,4,2,1,50,0,0
169998,-100,4,2,1,50,0,1
185236,-100,4,2,1,20,0,0

[Colours]
Combo1 : 255,192,0
Combo2 : 0,136,0
Combo3 : 255,66,66
Combo4 : 0,119,176

[HitObjects]
256,80,474,5,2,0:0:0:0:
384,276,2379,1,2,0:0:0:0:
128,276,4283,5,2,0:0:0:0:
256,80,6188,1,2,0:0:0:0:
384,276,8093,5,2,0:0:0:0:
128,276,9998,1,2,0:0:0:0:
256,192,11902,5,4,0:0:0:0:
256,192,12021,12,2,15712,0:0:0:0:
366,137,16664,5,2,0:0:0:0:
291,301,17141,2,0,L|284:170,1,120,0|2,0:0|0:0,0:0:0:0:
210,68,17974,2,0,P|173:95|159:159,1,90,2|0,0:0|0:0,0:0:0:0:
178,222,18569,2,0,P|132:220|69:157,1,120,2|0,0:0|0:0,0:0:0:0:
206,50,19521,6,0,B|270:42|270:42|297:22,2,90,2|2|0,0:0|0:0|0:0,0:0:0:0:
115,50,20474,2,0,P|61:72|26:139,1,120,2|0,0:0|0:0,0:0:0:0:
99,288,21426,2,0,B|105:334|105:334|96:383,2,90,2|2|0,0:0|0:0|0:0,0:0:0:0:
49,213,22379,2,0,P|99:198|172:233,1,120,2|0,0:0|0:0,0:0:0:0:
308,319,23331,6,0,P|341:328|407:323,1,90,2|2,0:0|0:0,0:0:0:0:
483,222,24045,1,0,0:0:0:0:
471,132,24283,2,0,P|450:98|360:65,1,120,2|0,0:0|0:0,0:0:0:0:
238,176,25236,2,0,P|199:180|140:172,1,90,2|2,0:0|0:0,0:0:0:0:
43,90,25950,1,0,0:0:0:0:
13,174,26188,2,0,P|3:229|26:307,1,120,2|0,0:0|0:0,0:0:0:0:
186,353,27141,6,0,B|238:355|238:355|291:338,1,90,2|2,0:0|0:0,0:0:0:0:
366,245,27855,1,0,0:0:0:0:
366,245,28093,2,0,B|426:251|426:251|432:190,1,120,2|0,0:0|0:0,0:0:0:0:
346,33,29045,2,0,L|257:44,1,90,2|2,0:0|0:0,0:0:0:0:
146,122,29760,1,0,0:0:0:0:
235,134,29998,2,0,L|355:150,1,120,2|8,0:0|0:0,0:0:0:0:
253,299,30950,6,0,L|181:310,1,60,2|0,0:0|0:0,0:0:0:0:
140,235,31426,2,0,L|199:225,1,60,2|0,0:0|0:0,0:0:0:0:
258,158,31902,2,0,P|261:109|236:60,2,90,2|0|0,0:0|0:0|0:0,0:0:0:0:
199,225,32855,2,0,L|89:245,2,90,2|0|0,0:0|0:0|0:0,0:0:0:0:
284,254,33807,2,0,P|329:259|401:213,1,120,2|2,0:0|0:0,0:0:0:0:
450,53,34760,6,0,L|476:114,1,60,2|0,0:0|0:0,0:0:0:0:
384,94,35236,2,0,L|354:26,1,60,2|0,0:0|0:0,0:0:0:0:
272,18,35712,2,0,P|223:26|178:61,2,90,2|0|0,0:0|0:0|0:0,0:0:0:0:
359,39,36664,2,0,L|403:141,2,90,2|0|0,0:0|0:0|0:0,0:0:0:0:
290,98,37617,2,0,L|342:218,1,120,2|2,0:0|0:0,0:0:0:0:
420,367,38569,1,2,0:0:0:0:
338,328,38807,6,0,B|272:315|272:315|224:324,1,90
120,358,39521,1,2,0:0:0:0:
65,285,39760,2,0,B|42:226|42:226|50:154,1,120
100,98,40474,2,0,P|98:57|118:4,2,90,2|0|0,0:0|0:0|0:0,0:0:0:0:
164,162,41426,2,0,P|166:203|146:256,2,90,2|0|0,0:0|0:0|0:0,0:0:0:0:
100,98,42379,5,2,0:0:0:0:
178,54,42617,2,0,L|296:54,1,90
397,92,43331,2,0,L|446:193,1,90,2|0,0:0|0:0,0:0:0:0:
415,306,44045,1,0,0:0:0:0:
332,341,44283,2,0,P|289:354|220:348,2,90,2|0|0,0:0|0:0|0:0,0:0:0:0:
415,306,45236,2,0,P|454:342|481:390,2,90,2|0|0,0:0|0:0|0:0,0:0:0:0:
342,253,46188,5,4,0:0:0:0:
256,192,57617,12,4,61426,0:0:0:0:
292,314,62379,6,0,L|158:316,1,120,2|8,0:0|0:0,0:0:0:0:
98,264,63093,1,0,0:0:0:0:
44,191,63331,2,0,P|42:137|46:113,1,60,2|0,0:0|0:0,0:0:0:0:
72,46,63807,2,0,L|197:91,1,120,8|2,0:0|0:0,0:0:0:0:
273,120,64521,1,0,0:0:0:0:
227,198,64760,1,8,0:0:0:0:
347,331,65236,6,0,P|395:330|458:264,1,120,4|8,0:0|0:0,0:0:0:0:
484,203,65950,1,0,0:0:0:0:
446,121,66188,2,0,B|428:81|421:52|421:52|362:67,1,120,2|8,0:0|0:0,0:0:0:0:
290,92,66902,1,0,0:0:0:0:
200,106,67141,2,0,P|152:101|120:80,1,60,2|0,0:0|0:0,0:0:0:0:
88,23,67617,2,0,L|78:151,1,120,8|2,0:0|0:0,0:0:0:0:
33,220,68331,1,0,0:0:0:0:
122,224,68569,1,8,0:0:0:0:
274,128,69045,6,0,P|322:115|394:126,1,120,4|8,0:0|0:0,0:0:0:0:
448,194,69760,1,0,0:0:0:0:
391,264,69998,2,0,P|343:277|271:266,1,120,2|8,0:0|0:0,0:0:0:0:
207,206,70712,1,0,0:0:0:0:
128,161,70950,2,0,P|85:171|50:192,1,60,2|0,0:0|0:0,0:0:0:0:
20,252,71426,2,0,B|43:319|43:319|99:348,1,120,8|2,0:0|0:0,0:0:0:0:
175,355,72141,1,0,0:0:0:0:
261,330,72379,2,0,P|300:322|335:325,1,60,8|0,0:0|0:0,0:0:0:0:
408,339,72855,6,0,P|443:322|476:267,2,90,4|2|0,0:0|0:0|0:0,0:0:0:0:
320,322,73807,2,0,L|249:216,1,120,2|8,0:0|0:0,0:0:0:0:
185,164,74521,1,0,0:0:0:0:
109,114,74760,2,0,P|95:164|124:232,2,120,2|8|2,0:0|0:0|0:0,0:0:0:0:
273,41,76188,2,0,B|310:54|350:49|350:49|352:78|373:102,1,120,8|0,0:0|0:0,0:0:0:0:
431,146,76902,6,0,P|452:193|460:247,1,90,2|2,0:0|0:0,0:0:0:0:
381,341,77617,2,0,L|281:349,1,90,0|2,0:0|0:0,0:0:0:0:
189,260,78331,1,2,0:0:0:0:
267,215,78569,2,0,P|306:185|325:132,2,90,0|2|2,0:0|0:0|0:0,0:0:0:0:
189,260,79521,2,0,L|78:249,1,90,0|2,0:0|0:0,0:0:0:0:
32,133,80236,1,2,0:0:0:0:
105,80,80474,6,0,L|170:72,1,60,0|2,0:0|0:0,0:0:0:0:
243,108,80950,2,0,L|308:116,1,60,0|2,0:0|0:0,0:0:0:0:
382,73,81426,2,0,P|427:98|457:153,2,90,0|2|2,0:0|0:0|0:0,0:0:0:0:
303,116,82379,2,0,P|263:136|238:173,2,90,0|2|2,0:0|0:0|0:0,0:0:0:0:
321,204,83331,2,0,L|348:305,1,90,0|2,0:0|0:0,0:0:0:0:
218,342,84045,1,2,0:0:0:0:
129,324,84283,5,0,0:0:0:0:
54,273,84521,2,0,P|28:227|29:173,1,90,2|2,0:0|0:0,0:0:0:0:
70,63,85236,2,0,P|118:19|151:9,2,90,0|2|2,0:0|0:0|0:0,0:0:0:0:
100,147,86188,2,0,P|141:156|199:152,2,90,0|2|2,0:0|0:0|0:0,0:0:0:0:
25,190,87141,2,0,P|30:235|54:273,2,90,0|2|2,0:0|0:0|0:0,0:0:0:0:
36,101,88093,5,0,0:0:0:0:
109,49,88331,2,0,L|212:31,1,90,2|2,0:0|0:0,0:0:0:0:
310,108,89045,2,0,L|221:123,2,90,0|2|2,0:0|0:0|0:0,0:0:0:0:
395,137,89998,2,0,P|425:167|448:235,2,90,0|2|2,0:0|0:0|0:0,0:0:0:0:
310,108,90950,1,0,0:0:0:0:
254,279,91426,1,8,0:0:0:0:
201,106,91902,6,0,L|131:96,1,60,4|2,0:0|0:0,0:0:0:0:
86,169,92379,2,0,P|47:209|30:277,1,120,2|0,0:0|0:0,0:0:0:0:
191,348,93331,2,0,L|271:353,1,60,0|2,0:0|0:0,0:0:0:0:
340,355,93807,2,0,P|378:314|391:259,2,90,0|2|2,0:0|0:0|0:0,0:0:0:0:
298,274,94760,2,0,P|269:222|272:168,1,90,0|2,0:0|0:0,0:0:0:0:
285,58,95474,1,2,0:0:0:0:
374,54,95712,6,0,P|420:61|442:69,1,60,0|2,0:0|0:0,0:0:0:0:
433,155,96188,2,0,P|404:163|374:166,1,60,0|2,0:0|0:0,0:0:0:0:
285,149,96664,2,0,P|233:149|169:166,2,90,0|2|2,0:0|0:0|0:0,0:0:0:0:
374,166,97617,2,0,P|427:193|454:223,2,90,0|2|2,0:0|0:0|0:0,0:0:0:0:
285,149,98569,2,0,L|246:54,1,90,0|2,0:0|0:0,0:0:0:0:
120,32,99283,1,2,0:0:0:0:
63,102,99521,5,0,0:0:0:0:
111,178,99760,2,0,P|123:210|121:282,1,90,2|2,0:0|0:0,0:0:0:0:
41,371,100474,2,0,L|136:377,1,90,0|2,0:0|0:0,0:0:0:0:
261,344,101188,1,2,0:0:0:0:
346,314,101426,2,0,P|385:274|404:224,1,90,0|2,0:0|0:0,0:0:0:0:
361,113,102141,1,2,0:0:0:0:
292,54,102379,2,0,P|238:35|197:32,2,90,0|2|2,0:0|0:0|0:0,0:0:0:0:
361,113,103331,5,0,0:0:0:0:
420,180,103569,2,0,L|436:282,1,90,2|2,0:0|0:0,0:0:0:0:
313,329,104283,2,0,L|323:217,1,90,0|2,0:0|0:0,0:0:0:0:
235,134,104998,1,2,0:0:0:0:
156,178,105236,2,0,P|103:193|51:195,2,90,0|2|2,0:0|0:0|0:0,0:0:0:0:
235,134,106188,2,0,P|251:81|325:70,2,120,0|0|4,0:0|0:0|0:0,0:0:0:0:
334,282,107617,5,2,0:0:0:0:
334,282,107855,1,0,0:0:0:0:
375,202,108093,2,0,L|426:83,1,120,0|2,0:0|0:0,0:0:0:0:
252,31,109045,1,0,0:0:0:0:
101,128,109521,1,2,0:0:0:0:
101,128,109760,1,0,0:0:0:0:
185,159,109998,2,0,P|218:204|231:290,1,120,0|2,0:0|0:0,0:0:0:0:
66,333,110950,5,0,0:0:0:0:
247,349,111426,1,2,0:0:0:0:
247,349,111664,1,0,0:0:0:0:
275,262,111902,2,0,B|302:201|302:201|305:126,1,120,0|2,0:0|0:0,0:0:0:0:
165,32,112855,1,0,0:0:0:0:
343,47,113331,1,2,0:0:0:0:
343,47,113569,1,0,0:0:0:0:
405,111,113807,2,0,P|430:159|450:230,1,120,0|2,0:0|0:0,0:0:0:0:
312,340,114760,5,0,0:0:0:0:
134,302,115236,1,2,0:0:0:0:
134,302,115474,1,0,0:0:0:0:
195,236,115712,2,0,P|205:175|186:107,1,120,0|2,0:0|0:0,0:0:0:0:
36,28,116664,1,0,0:0:0:0:
191,119,117141,1,2,0:0:0:0:
191,119,117379,1,0,0:0:0:0:
252,53,117617,2,0,B|289:48|315:25|315:25|331:49|368:65,1,120,0|2,0:0|0:0,0:0:0:0:
256,192,118569,12,4,122379,0:0:0:0:
220,70,123331,6,0,L|354:68,1,120,2|8,0:0|0:0,0:0:0:0:
414,120,124045,1,0,0:0:0:0:
468,193,124283,2,0,P|470:247|466:271,1,60,2|0,0:0|0:0,0:0:0:0:
440,338,124759,2,0,L|315:293,1,120,8|2,0:0|0:0,0:0:0:0:
239,264,125473,1,0,0:0:0:0:
285,186,125712,1,8,0:0:0:0:
165,53,126188,6,0,P|117:54|54:120,1,120,4|8,0:0|0:0,0:0:0:0:
28,181,126902,1,0,0:0:0:0:
66,263,127140,2,0,B|84:303|91:332|91:332|150:317,1,120,2|8,0:0|0:0,0:0:0:0:
222,292,127854,1,0,0:0:0:0:
312,278,128093,2,0,P|360:283|392:304,1,60,2|0,0:0|0:0,0:0:0:0:
424,361,128569,2,0,L|434:233,1,120,8|2,0:0|0:0,0:0:0:0:
479,164,129283,1,0,0:0:0:0:
390,160,129521,1,8,0:0:0:0:
238,256,129997,6,0,P|190:269|118:258,1,120,4|8,0:0|0:0,0:0:0:0:
64,190,130712,1,0,0:0:0:0:
121,120,130950,2,0,P|169:107|241:118,1,120,2|8,0:0|0:0,0:0:0:0:
305,178,131664,1,0,0:0:0:0:
384,223,131902,2,0,P|427:213|462:192,1,60,2|0,0:0|0:0,0:0:0:0:
492,132,132378,2,0,B|469:65|469:65|413:36,1,120,8|2,0:0|0:0,0:0:0:0:
337,29,133093,1,0,0:0:0:0:
251,54,133331,2,0,P|212:62|177:59,1,60,8|0,0:0|0:0,0:0:0:0:
104,45,133807,6,0,P|69:62|36:117,2,90,4|2|0,0:0|0:0|0:0,0:0:0:0:
192,62,134759,2,0,L|263:168,1,120,2|8,0:0|0:0,0:0:0:0:
327,220,135473,1,0,0:0:0:0:
403,270,135712,2,0,P|417:220|388:152,2,120,2|8|2,0:0|0:0|0:0,0:0:0:0:
239,343,137140,2,0,B|202:330|162:335|162:335|160:306|139:282,1,120,8|0,0:0|0:0,0:0:0:0:
67,136,138093,5,0,0:0:0:0:
221,43,138569,2,0,P|273:38|294:42,2,60,8|0|0,0:0|0:0|0:0,0:0:0:0:
67,136,139521,2,0,B|50:199|50:199|10:231,2,90,2|0|0,0:0|0:0|0:0,0:0:0:0:
92,48,140474,1,8,0:0:0:0:
216,176,140950,1,0,0:0:0:0:
372,84,141426,5,2,0:0:0:0:
452,244,141902,1,0,0:0:0:0:
292,324,142379,2,0,P|252:336|212:332,2,60,8|0|0,0:0|0:0|0:0,0:0:0:0:
452,244,143331,2,0,B|469:181|469:181|509:149,2,90,2|0|0,0:0|0:0|0:0,0:0:0:0:
427,332,144284,1,8,0:0:0:0:
303,204,144760,1,0,0:0:0:0:
140,276,145236,5,2,0:0:0:0:
72,108,145712,1,0,0:0:0:0:
140,276,146188,2,0,L|140:344,2,60,8|0|0,0:0|0:0|0:0,0:0:0:0:
215,112,147141,2,0,P|256:96|299:112,2,90,2|0|0,0:0|0:0|0:0,0:0:0:0:
156,176,148093,1,8,0:0:0:0:
256,324,148569,1,0,0:0:0:0:
356,176,149045,5,2,0:0:0:0:
464,320,149521,1,0,0:0:0:0:
356,176,149998,2,0,L|356:100,2,60,8|0|0,0:0|0:0|0:0,0:0:0:0:
294,345,150950,2,0,P|255:365|217:345,2,90,2|0|0,0:0|0:0|0:0,0:0:0:0:
352,276,151902,1,8,0:0:0:0:
256,124,152379,1,0,0:0:0:0:
160,276,152855,5,2,0:0:0:0:
256,192,168093,12,4,169998,0:0:0:0:
312,96,170950,6,0,P|340:64|416:56,1,120,2|8,0:0|0:0,0:0:0:0:
496,92,171664,1,0,0:0:0:0:
480,180,171902,2,0,L|460:316,1,120,2|8,0:0|0:0,0:0:0:0:
384,348,172617,1,0,0:0:0:0:
320,284,172855,2,0,L|312:208,2,60,2|0|8,0:0|0:0|0:0,0:0:0:0:
156,360,173807,6,0,P|112:324|104:244,1,120,4|8,0:0|0:0,0:0:0:0:
108,176,174521,1,0,0:0:0:0:
152,96,174760,2,0,L|228:108,1,60,2|0,0:0|0:0,0:0:0:0:
292,145,175236,2,0,L|368:133,1,60,8|0,0:0|0:0,0:0:0:0:
416,72,175712,2,0,P|448:112|467:139,1,60,2|0,0:0|0:0,0:0:0:0:
480,204,176188,2,0,L|432:324,1,120,8|2,0:0|0:0,0:0:0:0:
359,364,176902,1,0,0:0:0:0:
284,313,177141,1,8,0:0:0:0:
212,147,177617,6,0,P|252:115|304:159,1,120,4|8,0:0|0:0,0:0:0:0:
356,220,178331,1,0,0:0:0:0:
296,284,178569,2,0,P|248:300|156:288,1,120,2|8,0:0|0:0,0:0:0:0:
100,256,179283,1,0,0:0:0:0:
36,192,179521,2,0,L|25:113,1,60,2|0,0:0|0:0,0:0:0:0:
24,42,179998,2,0,P|88:58|156:34,1,120,8|2,0:0|0:0,0:0:0:0:
223,14,180712,1,0,0:0:0:0:
301,58,180950,1,8,0:0:0:0:
422,190,181426,6,0,L|442:306,2,90,4|0|0,0:0|0:0|0:0,0:0:0:0:
428,96,182379,2,0,P|371:110|334:156,1,120,2|8,0:0|0:0,0:0:0:0:
314,246,183093,1,0,0:0:0:0:
254,310,183331,2,0,P|202:330|130:298,2,120,2|8|2,0:0|0:0|0:0,0:0:0:0:
197,138,184760,1,8,0:0:0:0:
256,192,185236,12,2,188807,0:0:0:0:
