osu file format v14

[General]
AudioFilename: audio.mp3
AudioLeadIn: 0
PreviewTime: 61188
Countdown: 0
SampleSet: Soft
StackLeniency: 0.7
Mode: 0
LetterboxInBreaks: 0
WidescreenStoryboard: 0

[Editor]
DistanceSpacing: 1.1
BeatDivisor: 4
GridSize: 4
TimelineZoom: 1.2

[Metadata]
Title:Elliott
TitleUnicode:Elliott
Artist:Moseek
ArtistUnicode:Moseek
Creator:luxoDeh
Version:Hard
Source:
Tags:x factor italia
BeatmapID:1677630
BeatmapSetID:798954

[Difficulty]
HPDrainRate:5
CircleSize:4
OverallDifficulty:6
ApproachRate:8
SliderMultiplier:1.4
SliderTickRate:1

[Events]
//Background and Video events
0,0,"bg.jpg",0,0
//Break Periods
2,46388,56867
2,153055,167343
//Storyboard Layer 0 (Background)
//Storyboard Layer 1 (Fail)
//Storyboard Layer 2 (Pass)
//Storyboard Layer 3 (Foreground)
//Storyboard Sound Samples

[TimingPoints]
474.345007382486,476.190476190476,4,2,1,25,1,0
11902,-100,4,2,1,40,0,0
15712,-100,4,2,1,30,0,0
30474,-133.333333333333,4,2,1,40,0,0
30950,-83.3333333333333,4,1,1,20,0,0
38569,-83.3333333333333,4,1,1,25,0,0
42379,-83.3333333333333,4,1,1,30,0,0
46188,-83.3333333333333,4,1,1,50,0,0
57617,-83.3333333333333,4,2,1,50,0,0
61426,-71.4285714285714,4,2,1,50,0,1
76664,-100,4,2,1,30,0,0
91426,-133.333333333333,4,2,1,40,0,0
91902,-83.3333333333333,4,2,1,50,0,0
107141,-83.3333333333333,4,1,1,50,0,0
107617,-76.9230769230769,4,1,1,50,0,0
118569,-76.9230769230769,4,2,1,50,0,0
122379,-71.4285714285714,4,2,1,50,0,1
137617,-100,4,2,1,50,0,0
169998,-66.6666666666667,4,2,1,50,0,1
185236,-100,4,2,1,20,0,0

[Colours]
Combo1 : 255,192,0
Combo2 : 0,136,0
Combo3 : 255,66,66
Combo4 : 0,119,176

[HitObjects]
256,56,474,5,2,0:0:0:0:
148,296,2379,1,2,0:0:0:0:
364,296,4283,5,2,0:0:0:0:
256,56,6188,1,2,0:0:0:0:
148,296,8093,5,2,0:0:0:0:
364,296,9998,1,2,0:0:0:0:
256,192,11902,5,4,0:0:0:0:
256,192,12021,12,2,15712,0:0:0:0:
326,305,16069,6,0,L|341:190,1,105,2|0,0:0|0:0,0:0:0:0:
275,117,16664,2,0,L|255:264,1,140,2|0,0:0|0:0,0:0:0:0:
70,354,17617,2,0,P|25:334|-2:263,2,105,2|2|0,0:0|0:0|0:0,0:0:0:0:
173,337,18569,2,0,P|211:330|331:344,1,140,2|0,0:0|0:0,0:0:0:0:
486,221,19521,5,2,0:0:0:0:
429,368,19879,1,2,0:0:0:0:
319,255,20236,1,0,0:0:0:0:
366,161,20474,2,0,B|382:122|382:122|359:69|382:15,1,140,2|0,0:0|0:0,0:0:0:0:
411,233,21426,2,0,L|366:337,2,105,2|2|0,0:0|0:0|0:0,0:0:0:0:
356,143,22379,2,0,P|327:117|213:102,1,140,2|0,0:0|0:0,0:0:0:0:
82,245,23331,6,0,L|87:352,1,105,2|2,0:0|0:0,0:0:0:0:
159,209,24045,1,0,0:0:0:0:
159,209,24283,2,0,P|134:149|59:111,1,140,2|0,0:0|0:0,0:0:0:0:
274,56,25236,2,0,L|392:67,2,105,2|2|0,0:0|0:0|0:0,0:0:0:0:
175,92,26188,2,0,P|143:126|139:241,1,140,2|0,0:0|0:0,0:0:0:0:
287,354,27141,6,0,P|349:351|398:358,2,105,2|2|0,0:0|0:0|0:0,0:0:0:0:
182,367,28093,2,0,P|121:345|93:268,1,140,2|0,0:0|0:0,0:0:0:0:
267,164,29045,2,0,B|325:145|325:145|360:93,2,105,2|2|0,0:0|0:0|0:0,0:0:0:0:
174,112,29998,2,0,P|136:118|151:191,1,105,2|0,0:0|0:0,0:0:0:0:
151,204,30474,6,0,B|193:195|193:195|245:206,1,78.7500030040742,8|0,0:0|0:0,0:0:0:0:
271,219,30950,6,0,L|374:232,1,83.9999974365235,2|0,0:0|0:0,0:0:0:0:
354,321,31426,2,0,L|266:337,1,83.9999974365235,2|0,0:0|0:0,0:0:0:0:
163,273,31902,2,0,L|68:261,1,83.9999974365235,2|0,0:0|0:0,0:0:0:0:
36,278,32260,2,0,P|83:201|83:145,1,125.999996154785
39,49,32855,1,2,0:0:0:0:
227,57,33212,1,0,0:0:0:0:
220,245,33569,1,0,0:0:0:0:
312,159,33807,2,0,P|383:169|452:151,1,125.999996154785,2|0,0:0|0:0,0:0:0:0:
471,129,34283,2,0,L|464:231,1,83.9999974365235,2|0,0:0|0:0,0:0:0:0:
398,81,34760,6,0,P|433:51|490:43,2,83.9999974365235,2|0|2,0:0|0:0|0:0,0:0:0:0:
411,201,35474,1,0,0:0:0:0:
293,154,35712,2,0,B|210:148|210:148|154:160,2,125.999996154785,2|0|0,0:0|0:0|0:0,0:0:0:0:
411,201,36664,1,2,0:0:0:0:
266,322,37021,1,0,0:0:0:0:
451,360,37379,1,0,0:0:0:0:
451,360,37498,1,0,0:0:0:0:
451,360,37617,2,0,P|427:305|437:224,1,125.999996154785,2|0,0:0|0:0,0:0:0:0:
456,201,38093,2,0,L|347:195,1,83.9999974365235,2|0,0:0|0:0,0:0:0:0:
278,112,38569,5,2,0:0:0:0:
400,83,38807,2,0,L|265:74,1,125.999996154785
120,183,39521,2,0,L|249:178,2,125.999996154785,2|0|0,0:0|0:0|0:0,0:0:0:0:
37,278,40474,1,2,0:0:0:0:
38,152,40712,1,0,0:0:0:0:
148,90,40950,2,0,L|243:86,1,83.9999974365235,2|0,0:0|0:0,0:0:0:0:
345,141,41426,2,0,P|385:190|389:252,2,125.999996154785,2|0|0,0:0|0:0|0:0,0:0:0:0:
262,237,42379,5,2,0:0:0:0:
344,141,42617,2,0,L|474:147,1,125.999996154785
301,60,43331,2,0,L|152:64,1,125.999996154785,2|0,0:0|0:0,0:0:0:0:
56,210,44045,1,0,0:0:0:0:
137,306,44283,2,0,P|178:336|231:350,1,83.9999974365235,2|0,0:0|0:0,0:0:0:0:
330,311,44760,2,0,L|311:211,1,83.9999974365235,2|0,0:0|0:0,0:0:0:0:
312,136,45236,2,0,L|459:161,1,125.999996154785,2|0,0:0|0:0,0:0:0:0:
374,33,45950,1,0,0:0:0:0:
253,89,46188,5,4,0:0:0:0:
256,192,57617,12,2,61188,0:0:0:0:
256,283,61426,6,0,L|256:181,1,97.9999970092774,4|0,0:0|0:0,0:0:0:0:
309,66,61902,2,0,B|342:124|342:124|386:159,1,97.9999970092774,8|0,0:0|0:0,0:0:0:0:
409,168,62260,1,0,0:0:0:0:
440,205,62379,2,0,P|467:258|440:355,1,146.999995513916,2|0,0:0|0:0,0:0:0:0:
403,355,62855,2,0,L|301:343,1,97.9999970092774,8|0,0:0|0:0,0:0:0:0:
189,288,63331,6,0,L|294:264,1,97.9999970092774,2|0,0:0|0:0,0:0:0:0:
147,213,63807,2,0,L|39:204,1,97.9999970092774,8|0,0:0|0:0,0:0:0:0:
5,221,64164,1,0,0:0:0:0:
5,221,64283,2,0,L|21:158,1,48.9999985046387,2|0,0:0|0:0,0:0:0:0:
29,126,64521,2,0,L|98:52,1,97.9999970092774,0|8,0:0|0:0,0:0:0:0:
203,141,64998,1,0,0:0:0:0:
203,141,65117,1,0,0:0:0:0:
203,141,65236,6,0,P|251:153|351:133,1,146.999995513916,4|0,0:0|0:0,0:0:0:0:
384,106,65712,2,0,L|395:222,1,97.9999970092774,8|0,0:0|0:0,0:0:0:0:
467,330,66188,2,0,P|418:294|321:289,1,146.999995513916,2|0,0:0|0:0,0:0:0:0:
289,305,66664,2,0,P|228:307|163:297,1,97.9999970092774,8|0,0:0|0:0,0:0:0:0:
51,256,67141,6,0,B|43:197|43:197|72:156|84:104,1,146.999995513916,2|0,0:0|0:0,0:0:0:0:
89,70,67617,2,0,P|144:109|183:108,1,97.9999970092774,8|0,0:0|0:0,0:0:0:0:
220,98,67974,1,0,0:0:0:0:
220,98,68093,2,0,L|289:88,1,48.9999985046387,2|0,0:0|0:0,0:0:0:0:
297,51,68331,1,0,0:0:0:0:
419,132,68569,1,8,0:0:0:0:
356,264,68807,1,0,0:0:0:0:
356,264,68926,1,0,0:0:0:0:
356,264,69045,6,0,P|354:326|440:276,1,195.999994018555,4|8,0:0|0:0,0:0:0:0:
347,180,69760,1,0,0:0:0:0:
347,180,69998,2,0,P|271:172|179:187,1,146.999995513916,2|0,0:0|0:0,0:0:0:0:
155,198,70474,2,0,L|189:83,1,97.9999970092774,8|0,0:0|0:0,0:0:0:0:
76,205,70950,6,0,P|103:257|201:265,1,146.999995513916,2|0,0:0|0:0,0:0:0:0:
231,260,71426,2,0,P|297:251|337:265,1,97.9999970092774,8|0,0:0|0:0,0:0:0:0:
370,279,71783,1,0,0:0:0:0:
370,279,71902,2,0,L|444:264,1,48.9999985046387,2|0,0:0|0:0,0:0:0:0:
465,281,72141,1,0,0:0:0:0:
410,144,72379,1,8,0:0:0:0:
484,17,72617,1,0,0:0:0:0:
484,17,72736,1,0,0:0:0:0:
484,17,72855,6,0,L|357:50,1,97.9999970092774,4|0,0:0|0:0,0:0:0:0:
350,71,73212,2,0,L|220:63,1,97.9999970092774,2|0,0:0|0:0,0:0:0:0:
211,38,73569,2,0,L|141:45,1,48.9999985046387,2|0,0:0|0:0,0:0:0:0:
113,50,73807,2,0,P|68:85|53:207,1,146.999995513916,2|0,0:0|0:0,0:0:0:0:
52,216,74283,1,8,0:0:0:0:
190,167,74521,1,0,0:0:0:0:
190,167,74641,1,0,0:0:0:0:
190,167,74760,6,0,P|248:187|288:268,1,146.999995513916,4|0,0:0|0:0,0:0:0:0:
283,307,75236,2,0,P|330:339|444:314,1,146.999995513916,8|0,0:0|0:0,0:0:0:0:
456,304,75712,2,0,L|449:230,1,48.9999985046387,2|0,0:0|0:0,0:0:0:0:
490,131,75950,2,0,L|484:179,1,48.9999985046387
422,86,76188,2,0,P|382:46|307:27,1,97.9999970092774,8|0,0:0|0:0,0:0:0:0:
296,20,76545,1,0,0:0:0:0:
263,33,76664,6,0,L|248:121,1,70,0|2,0:0|0:0,0:0:0:0:
196,192,77141,1,0,0:0:0:0:
196,192,77260,2,0,L|178:107,1,70,2|2,0:0|0:0,0:0:0:0:
175,85,77617,2,0,P|140:116|55:113,2,105,0|2|2,0:0|0:0|0:0,0:0:0:0:
270,42,78569,2,0,L|349:30,1,70,0|2,0:0|0:0,0:0:0:0:
419,99,79045,2,0,L|349:109,1,70,0|2,0:0|0:0,0:0:0:0:
289,195,79521,2,0,P|274:251|272:322,2,105,0|2|2,0:0|0:0|0:0,0:0:0:0:
349,109,80474,5,0,0:0:0:0:
405,197,80712,1,2,0:0:0:0:
289,195,80950,2,0,P|239:193|197:199,1,70,0|2,0:0|0:0,0:0:0:0:
122,236,81426,2,0,P|81:272|41:340,2,105,0|2|2,0:0|0:0|0:0,0:0:0:0:
122,151,82379,2,0,P|87:115|74:57,2,105,0|2|2,0:0|0:0|0:0,0:0:0:0:
204,166,83331,2,0,L|352:146,1,140
495,216,84283,5,0,0:0:0:0:
495,216,84521,2,0,L|388:230,1,105,2|2,0:0|0:0,0:0:0:0:
277,338,85236,1,0,0:0:0:0:
432,360,85593,1,2,0:0:0:0:
378,197,85950,1,2,0:0:0:0:
279,236,86188,1,0,0:0:0:0:
353,374,86545,1,2,0:0:0:0:
463,261,86902,1,2,0:0:0:0:
378,197,87141,2,0,P|369:142|388:70,2,105,0|2|2,0:0|0:0|0:0,0:0:0:0:
463,261,88093,5,0,0:0:0:0:
385,331,88331,2,0,L|268:355,1,105,2|2,0:0|0:0,0:0:0:0:
134,298,89045,2,0,P|187:291|254:249,2,105,0|2|2,0:0|0:0|0:0,0:0:0:0:
37,206,89998,2,0,P|20:159|23:121,1,70,0|2,0:0|0:0,0:0:0:0:
60,42,90474,2,0,L|131:62,1,70,0|2,0:0|0:0,0:0:0:0:
229,36,90950,2,0,P|288:38|337:80,1,105,0|2,0:0|0:0,0:0:0:0:
345,96,91426,6,0,B|315:130|315:130|295:173,1,78.7500030040742,8|2,0:0|0:0,0:0:0:0:
286,204,91902,6,0,P|306:251|363:291,1,83.9999974365235,4|2,0:0|0:0,0:0:0:0:
428,289,92379,1,0,0:0:0:0:
428,289,92498,2,0,L|447:193,1,83.9999974365235,2|2,0:0|0:0,0:0:0:0:
486,182,92855,2,0,L|461:83,1,83.9999974365235,0|2,0:0|0:0,0:0:0:0:
457,72,93212,1,0,0:0:0:0:
447,44,93331,1,0,0:0:0:0:
338,108,93569,2,0,L|285:117,1,41.9999987182618,2|0,0:0|0:0,0:0:0:0:
262,146,93807,6,0,L|123:121,2,125.999996154785,0|2|2,0:0|0:0|0:0,0:0:0:0:
363,221,94760,2,0,P|359:289|289:345,1,125.999996154785,0|2,0:0|0:0,0:0:0:0:
277,341,95236,2,0,P|209:338|160:349,1,83.9999974365235,0|2,0:0|0:0,0:0:0:0:
69,364,95712,5,0,0:0:0:0:
129,253,95950,1,2,0:0:0:0:
3,260,96188,1,0,0:0:0:0:
27,275,96307,2,0,P|42:208|29:132,1,125.999996154785,2|0,0:0|0:0,0:0:0:0:
27,25,96902,1,2,0:0:0:0:
27,25,97021,1,0,0:0:0:0:
27,25,97141,2,0,P|74:68|109:74,1,83.9999974365235,0|2,0:0|0:0,0:0:0:0:
216,53,97617,5,0,0:0:0:0:
194,240,97974,1,2,0:0:0:0:
361,151,98331,1,2,0:0:0:0:
321,31,98569,2,0,B|380:65|380:65|418:78,1,83.9999974365235,0|2,0:0|0:0,0:0:0:0:
439,81,98926,2,0,P|473:125|481:169,1,83.9999974365235,0|2,0:0|0:0,0:0:0:0:
471,197,99283,2,0,L|443:244,1,41.9999987182618,2|0,0:0|0:0,0:0:0:0:
423,271,99521,5,0,0:0:0:0:
314,205,99760,1,2,0:0:0:0:
283,327,99998,1,0,0:0:0:0:
283,327,100117,2,0,P|212:323|147:327,1,125.999996154785,2|0,0:0|0:0,0:0:0:0:
37,363,100712,1,2,0:0:0:0:
37,363,100831,2,0,P|78:252|77:210,1,125.999996154785,0|2,0:0|0:0,0:0:0:0:
67,120,101426,6,0,P|62:70|96:5,2,125.999996154785,0|2|2,0:0|0:0|0:0,0:0:0:0:
88,161,102260,1,0,0:0:0:0:
125,188,102379,2,0,P|173:200|269:182,2,125.999996154785,0|2|2,0:0|0:0|0:0,0:0:0:0:
189,80,103331,5,0,0:0:0:0:
248,190,103569,1,2,0:0:0:0:
312,297,103807,1,0,0:0:0:0:
312,297,103926,2,0,P|360:301|409:289,1,83.9999974365235,2|2,0:0|0:0,0:0:0:0:
436,274,104283,2,0,L|407:140,1,125.999996154785,0|2,0:0|0:0,0:0:0:0:
255,25,104998,1,2,0:0:0:0:
144,85,105236,6,0,P|113:115|86:163,1,83.9999974365235,0|2,0:0|0:0,0:0:0:0:
72,191,105593,1,0,0:0:0:0:
68,237,105712,2,0,L|76:326,1,83.9999974365235,0|2,0:0|0:0,0:0:0:0:
80,366,106069,1,0,0:0:0:0:
80,366,106188,2,0,P|118:322|206:290,1,125.999996154785,0|2,0:0|0:0,0:0:0:0:
222,308,106664,2,0,P|278:320|353:297,1,125.999996154785,0|2,0:0|0:0,0:0:0:0:
381,275,107141,5,4,0:0:0:0:
460,76,107498,1,0,0:0:0:0:
460,76,107617,2,0,L|497:136,2,45.4999979171754,2|0|0,0:0|0:0|0:0,0:0:0:0:
313,26,108093,2,0,P|241:17|123:35,1,181.999991668702,0|2,0:0|0:0,0:0:0:0:
34,325,109045,5,0,0:0:0:0:
223,191,109402,1,0,0:0:0:0:
223,191,109521,2,0,L|244:249,2,45.4999979171754,2|0|0,0:0|0:0|0:0,0:0:0:0:
286,49,109998,2,0,B|340:41|340:41|368:70|368:70|411:60|456:95,1,181.999991668702,0|2,0:0|0:0,0:0:0:0:
313,367,110950,5,0,0:0:0:0:
392,149,111307,1,0,0:0:0:0:
392,149,111426,2,0,L|412:203,2,45.4999979171754,2|0|0,0:0|0:0|0:0,0:0:0:0:
258,70,111902,2,0,B|200:75|174:100|174:100|133:70|82:70,1,181.999991668702,0|2,0:0|0:0,0:0:0:0:
22,372,112855,6,0,P|55:312|136:285,1,136.499993751526
191,292,113331,2,0,L|217:337,2,45.4999979171754,2|0|0,0:0|0:0|0:0,0:0:0:0:
180,137,113807,2,0,B|160:84|160:84|232:98|296:81,1,181.999991668702,0|2,0:0|0:0,0:0:0:0:
469,332,114760,5,0,0:0:0:0:
436,102,115117,1,0,0:0:0:0:
436,102,115236,2,0,L|469:46,2,45.4999979171754,2|0|0,0:0|0:0|0:0,0:0:0:0:
317,201,115712,2,0,B|292:254|291:296|291:296|237:264|237:264|183:276,1,181.999991668702,0|2,0:0|0:0,0:0:0:0:
29,22,116664,5,0,0:0:0:0:
70,250,117021,1,0,0:0:0:0:
70,250,117141,2,0,L|52:302,2,45.4999979171754,2|0|0,0:0|0:0|0:0,0:0:0:0:
150,118,117617,2,0,B|242:122|242:122|297:44,1,181.999991668702,0|2,0:0|0:0,0:0:0:0:
256,192,118569,12,2,122141,0:0:0:0:
256,101,122379,6,0,L|256:203,1,97.9999970092774,4|0,0:0|0:0,0:0:0:0:
203,318,122855,2,0,B|170:260|170:260|126:225,1,97.9999970092774,8|0,0:0|0:0,0:0:0:0:
103,216,123213,1,0,0:0:0:0:
72,179,123332,2,0,P|45:126|72:29,1,146.999995513916,2|0,0:0|0:0,0:0:0:0:
109,29,123808,2,0,L|211:41,1,97.9999970092774,8|0,0:0|0:0,0:0:0:0:
323,96,124284,6,0,L|218:120,1,97.9999970092774,2|0,0:0|0:0,0:0:0:0:
365,171,124760,2,0,L|473:180,1,97.9999970092774,8|0,0:0|0:0,0:0:0:0:
507,163,125117,1,0,0:0:0:0:
507,163,125236,2,0,L|491:226,1,48.9999985046387,2|0,0:0|0:0,0:0:0:0:
483,258,125474,2,0,L|414:332,1,97.9999970092774,0|8,0:0|0:0,0:0:0:0:
309,243,125951,1,0,0:0:0:0:
309,243,126070,1,0,0:0:0:0:
309,243,126189,6,0,P|261:231|161:251,1,146.999995513916,4|0,0:0|0:0,0:0:0:0:
128,278,126665,2,0,L|117:162,1,97.9999970092774,8|0,0:0|0:0,0:0:0:0:
45,54,127141,2,0,P|94:90|191:95,1,146.999995513916,2|0,0:0|0:0,0:0:0:0:
223,79,127617,2,0,P|284:77|349:87,1,97.9999970092774,8|0,0:0|0:0,0:0:0:0:
461,128,128094,6,0,B|469:187|469:187|440:228|428:280,1,146.999995513916,2|0,0:0|0:0,0:0:0:0:
423,314,128570,2,0,P|368:275|329:276,1,97.9999970092774,8|0,0:0|0:0,0:0:0:0:
292,286,128927,1,0,0:0:0:0:
292,286,129046,2,0,L|223:296,1,48.9999985046387,2|0,0:0|0:0,0:0:0:0:
215,333,129284,1,0,0:0:0:0:
93,252,129522,1,8,0:0:0:0:
156,120,129760,1,0,0:0:0:0:
156,120,129879,1,0,0:0:0:0:
156,120,129998,6,0,P|158:58|72:108,1,195.999994018555,4|8,0:0|0:0,0:0:0:0:
165,204,130713,1,0,0:0:0:0:
165,204,130951,2,0,P|241:212|333:197,1,146.999995513916,2|0,0:0|0:0,0:0:0:0:
357,186,131427,2,0,L|323:301,1,97.9999970092774,8|0,0:0|0:0,0:0:0:0:
436,179,131903,6,0,P|409:127|311:119,1,146.999995513916,2|0,0:0|0:0,0:0:0:0:
281,124,132379,2,0,P|215:133|175:119,1,97.9999970092774,8|0,0:0|0:0,0:0:0:0:
142,105,132736,1,0,0:0:0:0:
142,105,132855,2,0,L|68:120,1,48.9999985046387,2|0,0:0|0:0,0:0:0:0:
47,103,133094,1,0,0:0:0:0:
102,240,133332,1,8,0:0:0:0:
28,367,133570,1,0,0:0:0:0:
28,367,133689,1,0,0:0:0:0:
28,367,133808,6,0,L|155:334,1,97.9999970092774,4|0,0:0|0:0,0:0:0:0:
162,313,134165,2,0,L|292:321,1,97.9999970092774,2|0,0:0|0:0,0:0:0:0:
301,346,134522,2,0,L|371:339,1,48.9999985046387,2|0,0:0|0:0,0:0:0:0:
399,334,134760,2,0,P|444:299|459:177,1,146.999995513916,2|0,0:0|0:0,0:0:0:0:
460,168,135236,1,8,0:0:0:0:
322,217,135474,1,0,0:0:0:0:
322,217,135594,1,0,0:0:0:0:
322,217,135713,6,0,P|264:197|224:116,1,146.999995513916,4|0,0:0|0:0,0:0:0:0:
229,77,136189,2,0,P|182:45|68:70,1,146.999995513916,8|0,0:0|0:0,0:0:0:0:
56,80,136665,2,0,L|63:154,1,48.9999985046387,2|0,0:0|0:0,0:0:0:0:
22,253,136903,2,0,L|30:184,1,48.9999985046387
90,298,137141,2,0,P|130:338|205:357,1,97.9999970092774,8|0,0:0|0:0,0:0:0:0:
216,364,137498,1,0,0:0:0:0:
252,353,137617,6,0,L|252:268,1,70,4|0,0:0|0:0,0:0:0:0:
251,244,137974,1,0,0:0:0:0:
252,205,138093,2,0,L|287:126,1,70
299,107,138450,1,0,0:0:0:0:
315,72,138569,2,0,L|395:73,2,70,8|0|0,0:0|0:0|0:0,0:0:0:0:
164,40,139521,6,0,P|128:60|99:104,1,70,2|0,0:0|0:0,0:0:0:0:
87,113,139879,1,0,0:0:0:0:
75,149,139998,2,0,P|71:197|83:227,1,70,2|0,0:0|0:0,0:0:0:0:
91,253,140355,1,0,0:0:0:0:
108,287,140474,2,0,P|114:325|108:362,2,70,8|0|0,0:0|0:0|0:0,0:0:0:0:
212,174,141426,6,0,P|256:166|298:180,1,70,2|0,0:0|0:0,0:0:0:0:
315,186,141783,1,0,0:0:0:0:
350,200,141902,2,0,P|392:208|429:201,1,70
455,191,142260,1,0,0:0:0:0:
480,161,142379,2,0,L|476:76,2,70,8|0|0,0:0|0:0|0:0,0:0:0:0:
486,276,143212,1,2,0:0:0:0:
486,276,143331,6,0,P|467:321|433:347,1,70,2|0,0:0|0:0,0:0:0:0:
415,347,143688,1,0,0:0:0:0:
376,347,143807,2,0,P|323:339|276:340,1,70,2|0,0:0|0:0,0:0:0:0:
268,343,144164,1,0,0:0:0:0:
230,349,144283,2,0,P|174:361|141:353,2,70,8|0|0,0:0|0:0|0:0,0:0:0:0:
253,196,145236,6,0,P|248:145|254:106,1,70,2|0,0:0|0:0,0:0:0:0:
264,91,145593,1,0,0:0:0:0:
290,62,145712,2,0,B|334:67|334:67|379:54,1,70
393,43,146069,1,0,0:0:0:0:
429,30,146188,2,0,P|478:20|505:21,2,70,8|0|0,0:0|0:0|0:0,0:0:0:0:
274,26,147141,6,0,P|224:24|179:27,1,70,2|0,0:0|0:0,0:0:0:0:
167,36,147498,1,0,0:0:0:0:
130,48,147617,2,0,P|84:75|61:105,1,70,2|0,0:0|0:0,0:0:0:0:
57,122,147974,1,0,0:0:0:0:
44,158,148093,2,0,L|46:240,2,70,8|0|0,0:0|0:0|0:0,0:0:0:0:
160,258,149045,6,0,L|186:339,1,70,2|0,0:0|0:0,0:0:0:0:
212,347,149402,1,0,0:0:0:0:
250,341,149521,2,0,L|271:274,1,70
298,246,149879,1,0,0:0:0:0:
334,258,149998,2,0,P|388:277|425:275,2,70,8|0|0,0:0|0:0|0:0,0:0:0:0:
282,154,150831,1,2,0:0:0:0:
282,154,150950,6,0,P|295:98|310:72,1,70,2|0,0:0|0:0,0:0:0:0:
324,57,151307,1,0,0:0:0:0:
361,50,151426,2,0,P|428:53|457:64,1,70,2|0,0:0|0:0,0:0:0:0:
464,72,151783,1,0,0:0:0:0:
471,109,151902,2,0,L|480:180,2,70,8|0|0,0:0|0:0|0:0,0:0:0:0:
256,43,152855,5,2,0:0:0:0:
256,192,168093,12,2,169760,0:0:0:0:
345,115,169998,6,0,P|270:100|212:108,1,105.000004005432,4|0,0:0|0:0,0:0:0:0:
126,208,170474,2,0,P|201:223|259:215,1,105.000004005432,8|0,0:0|0:0,0:0:0:0:
275,211,170831,1,0,0:0:0:0:
321,204,170950,2,0,P|349:201|393:207,2,52.5000020027161,2|0|0,0:0|0:0|0:0,0:0:0:0:
220,324,171426,2,0,B|148:344|148:344|109:342,1,105.000004005432,8|0,0:0|0:0,0:0:0:0:
36,207,171902,6,0,P|47:149|128:85,1,157.500006008148,2|0,0:0|0:0,0:0:0:0:
166,78,172379,2,0,P|223:93|287:80,1,105.000004005432,8|0,0:0|0:0,0:0:0:0:
310,66,172736,1,0,0:0:0:0:
310,66,172855,2,0,L|362:56,1,52.5000020027161,2|0,0:0|0:0,0:0:0:0:
401,30,173093,1,0,0:0:0:0:
344,176,173331,1,8,0:0:0:0:
499,151,173569,1,0,0:0:0:0:
499,151,173688,1,0,0:0:0:0:
499,151,173807,6,0,P|496:207|475:258,1,105.000004005432,4|0,0:0|0:0,0:0:0:0:
326,295,174283,2,0,P|321:226|336:175,1,105.000004005432,8|0,0:0|0:0,0:0:0:0:
352,150,174641,1,0,0:0:0:0:
352,150,174760,2,0,L|242:157,1,105.000004005432,2|0,0:0|0:0,0:0:0:0:
116,69,175236,2,0,L|237:75,1,105.000004005432,8|0,0:0|0:0,0:0:0:0:
79,142,175712,6,0,P|36:85|61:8,1,157.500006008148,2|0,0:0|0:0,0:0:0:0:
60,8,176188,2,0,L|188:14,1,105.000004005432,8|0,0:0|0:0,0:0:0:0:
207,36,176545,1,0,0:0:0:0:
245,63,176664,2,0,L|315:65,1,52.5000020027161,2|0,0:0|0:0,0:0:0:0:
337,39,176902,1,0,0:0:0:0:
272,183,177141,1,8,0:0:0:0:
201,323,177379,1,0,0:0:0:0:
201,323,177498,1,0,0:0:0:0:
201,323,177617,6,0,P|264:341|335:331,1,105.000004005432,4|0,0:0|0:0,0:0:0:0:
452,278,178093,2,0,P|465:221|459:159,1,105.000004005432,8|0,0:0|0:0,0:0:0:0:
455,128,178450,1,0,0:0:0:0:
429,88,178569,2,0,L|368:76,1,52.5000020027161,2|0,0:0|0:0,0:0:0:0:
335,55,178807,2,0,L|284:67,1,52.5000020027161
249,99,179045,2,0,P|204:61|150:137,1,157.500006008148,8|0,0:0|0:0,0:0:0:0:
165,161,179521,6,0,P|193:214|79:246,1,210.000008010865,2|8,0:0|0:0,0:0:0:0:
49,100,180236,1,0,0:0:0:0:
191,33,180474,1,2,0:0:0:0:
268,169,180712,1,0,0:0:0:0:
268,169,180831,1,0,0:0:0:0:
268,169,180950,2,0,P|327:174|387:168,1,105.000004005432,8|0,0:0|0:0,0:0:0:0:
477,53,181426,6,0,L|488:172,1,105.000004005432,4|0,0:0|0:0,0:0:0:0:
452,228,181783,2,0,L|465:349,1,105.000004005432,4|0,0:0|0:0,0:0:0:0:
383,328,182141,2,0,L|321:287,1,52.5000020027161
281,245,182379,2,0,P|215:255|158:332,1,157.500006008148,6|0,0:0|0:0,0:0:0:0:
138,364,182855,2,0,L|92:222,1,105.000004005432,8|0,0:0|0:0,0:0:0:0:
143,111,183331,6,0,B|185:122|185:122|260:101|260:101|330:106,1,157.500006008148,2|0,0:0|0:0,0:0:0:0:
343,109,183807,2,0,P|346:178|457:137,1,210.000008010865,8|2,0:0|0:0,0:0:0:0:
468,130,184402,1,0,0:0:0:0:
468,98,184521,1,0,0:0:0:0:
330,20,184760,1,8,0:0:0:0:
254,158,184998,1,0,0:0:0:0:
254,158,185117,1,0,0:0:0:0:
254,158,185236,5,2,0:0:0:0:
256,192,185355,12,2,188807,0:0:0:0:
