osu file format v14

[General]
AudioFilename: audio.mp3
AudioLeadIn: 0
PreviewTime: 61188
Countdown: 0
SampleSet: Soft
StackLeniency: 0.7
Mode: 0
LetterboxInBreaks: 0
WidescreenStoryboard: 0

[Editor]
DistanceSpacing: 1.2
BeatDivisor: 4
GridSize: 4
TimelineZoom: 1.2

[Metadata]
Title:Elliott
TitleUnicode:Elliott
Artist:Moseek
ArtistUnicode:Moseek
Creator:luxoDeh
Version:Easy
Source:
Tags:x factor italia
BeatmapID:1677629
BeatmapSetID:798954

[Difficulty]
HPDrainRate:2
CircleSize:3
OverallDifficulty:2
ApproachRate:3
SliderMultiplier:1
SliderTickRate:1

[Events]
//Background and Video events
0,0,"bg.jpg",0,0
//Break Periods
2,46388,56177
2,153055,166653
//Storyboard Layer 0 (Background)
//Storyboard Layer 1 (Fail)
//Storyboard Layer 2 (Pass)
//Storyboard Layer 3 (Foreground)
//Storyboard Sound Samples

[TimingPoints]
474.345007382486,476.190476190476,4,2,1,25,1,0
11902,-100,4,2,1,40,0,0
15712,-100,4,2,1,30,0,0
30474,-100,4,2,1,40,0,0
30950,-100,4,1,1,20,0,0
38569,-100,4,1,1,25,0,0
42379,-100,4,1,1,30,0,0
46188,-100,4,1,1,50,0,0
57617,-100,4,2,1,50,0,0
61426,-100,4,2,1,50,0,1
76664,-100,4,2,1,30,0,0
91426,-100,4,2,1,40,0,0
91902,-100,4,2,1,50,0,0
92379,-100,4,2,1,50,0,0
107141,-100,4,1,1,50,0,0
107617,-100,4,1,1,50,0,0
118569,-100,4,2,1,50,0,0
122379,-100,4,2,1,50,0,1
137617,-100,4,2,1,50,0,0
169998,-100,4,2,1,50,0,1
185236,-100,4,2,1,20,0,0

[Colours]
Combo1 : 255,192,0
Combo2 : 0,136,0
Combo3 : 255,66,66
Combo4 : 0,119,176

[HitObjects]
256,61,474,5,2,0:0:0:0:
382,303,4283,5,2,0:0:0:0:
130,303,8093,5,2,0:0:0:0:
256,192,11902,5,4,0:0:0:0:
256,192,12021,12,0,15712,0:0:0:0:
218,153,17617,5,2,0:0:0:0:
425,273,18569,2,0,L|433:165,1,100,0|2,0:0|0:0,0:0:0:0:
387,62,19521,5,0,0:0:0:0:
246,256,20474,2,0,P|206:260|142:236,1,100,2|0,0:0|0:0,0:0:0:0:
65,156,21426,2,0,L|53:44,1,100,2|0,0:0|0:0,0:0:0:0:
167,16,22379,1,2,0:0:0:0:
232,116,22855,1,0,0:0:0:0:
300,17,23331,6,0,P|352:29|404:169,1,200,2|2,0:0|0:0,0:0:0:0:
225,307,25236,2,0,P|173:295|121:155,1,200,2|2,0:0|0:0,0:0:0:0:
133,53,26664,1,0,0:0:0:0:
243,101,27141,6,0,L|243:221,1,100,2|0,0:0|0:0,0:0:0:0:
318,294,28093,1,2,0:0:0:0:
425,240,28569,1,0,0:0:0:0:
426,120,29045,2,0,B|382:100|290:120|290:120|326:159|323:194,1,200,2|2,0:0|0:0,0:0:0:0:
200,211,30474,1,8,0:0:0:0:
142,105,30950,5,2,0:0:0:0:
241,37,31426,1,0,0:0:0:0:
360,37,31902,2,0,P|420:49|466:84,1,100,2|0,0:0|0:0,0:0:0:0:
487,184,32855,2,0,L|473:297,2,100,2|0|2,0:0|0:0|0:0,0:0:0:0:
378,137,34283,1,0,0:0:0:0:
270,190,34760,6,0,L|270:244,2,50,2|0|0,0:0|0:0|0:0,0:0:0:0:
166,129,35712,2,0,L|166:30,2,100,2|0|2,0:0|0:0|0:0,0:0:0:0:
93,225,37141,1,0,0:0:0:0:
10,290,37617,2,0,P|82:328|184:273,1,200,2|2,0:0|0:0,0:0:0:0:
224,166,39045,5,0,0:0:0:0:
315,243,39521,2,0,L|408:320,2,100,2|0|2,0:0|0:0|0:0,0:0:0:0:
224,166,40950,1,0,0:0:0:0:
117,110,41426,2,0,P|165:57|292:66,1,200,2|2,0:0|0:0,0:0:0:0:
383,131,42855,5,0,0:0:0:0:
467,216,43331,2,0,P|487:255|499:321,2,100,2|0|2,0:0|0:0|0:0,0:0:0:0:
383,131,44760,1,0,0:0:0:0:
280,194,45236,2,0,B|247:219|235:248|235:248|184:225|184:225|150:245|113:239,1,200,2|4,0:0|0:0,0:0:0:0:
256,192,57617,12,4,61426,0:0:0:0:
256,192,62855,5,8,0:0:0:0:
320,90,63331,2,0,P|358:73|419:68,2,100,2|8|2,0:0|0:0|0:0,0:0:0:0:
256,192,64760,1,8,0:0:0:0:
161,266,65236,6,0,P|113:260|64:217,1,100,4|8,0:0|0:0,0:0:0:0:
56,110,66188,1,2,0:0:0:0:
140,24,66664,2,0,P|186:21|248:50,1,100,8|2,0:0|0:0,0:0:0:0:
345,88,67617,1,8,0:0:0:0:
352,207,68093,1,2,0:0:0:0:
458,152,68569,1,8,0:0:0:0:
463,274,69045,6,0,P|444:322|396:351,1,100,4|8,0:0|0:0,0:0:0:0:
291,308,69998,1,2,0:0:0:0:
183,360,70474,1,8,0:0:0:0:
79,299,70950,2,0,P|49:264|29:205,2,100,2|8|2,0:0|0:0|0:0,0:0:0:0:
183,360,72379,1,8,0:0:0:0:
291,308,72855,6,0,B|289:263|304:226|304:226|259:227|231:217|207:199|197:161,1,200,4|2,0:0|0:0,0:0:0:0:
207,60,74283,1,8,0:0:0:0:
319,17,74760,2,0,P|364:31|404:72,2,100,2|8|2,0:0|0:0|0:0,0:0:0:0:
207,60,76188,1,8,0:0:0:0:
103,120,76664,5,0,0:0:0:0:
54,230,77141,2,0,P|87:266|151:292,1,100,2|0,0:0|0:0,0:0:0:0:
238,231,78093,1,2,0:0:0:0:
343,287,78569,2,0,P|387:265|421:228,2,100,0|2|0,0:0|0:0|0:0,0:0:0:0:
238,231,79998,1,2,0:0:0:0:
238,111,80474,6,0,L|238:56,2,50,0|0|2,0:0|0:0|0:0,0:0:0:0:
238,231,81426,2,0,P|199:263|149:269,1,100,0|2,0:0|0:0,0:0:0:0:
62,187,82379,2,0,L|62:85,2,100,0|2|0,0:0|0:0|0:0,0:0:0:0:
8,294,83807,1,2,0:0:0:0:
100,370,84283,6,0,P|141:372|209:364,1,100,0|2,0:0|0:0,0:0:0:0:
270,268,85236,2,0,L|270:157,2,100,0|2|0,0:0|0:0|0:0,0:0:0:0:
353,353,86664,1,2,0:0:0:0:
457,293,87141,2,0,P|486:233|451:102,1,200
363,32,88569,5,2,0:0:0:0:
261,95,89045,2,0,P|219:110|160:113,1,100,0|2,0:0|0:0,0:0:0:0:
57,57,89998,2,0,P|23:84|-7:135,2,100,0|2|0,0:0|0:0|0:0,0:0:0:0:
164,113,91426,1,8,0:0:0:0:
217,220,91902,6,0,L|217:282,2,50,4|0|2,0:0|0:0|0:0,0:0:0:0:
280,117,92855,2,0,P|321:104|385:67,1,100,0|2,0:0|0:0,0:0:0:0:
473,15,93807,2,0,P|503:61|511:120,2,100,0|2|0,0:0|0:0|0:0,0:0:0:0:
371,77,95236,1,2,0:0:0:0:
413,189,95712,6,0,L|430:242,2,50,0|0|2,0:0|0:0|0:0,0:0:0:0:
371,77,96664,2,0,B|319:71|319:71|252:82,1,100,0|2,0:0|0:0,0:0:0:0:
175,150,97617,2,0,P|137:156|75:149,2,100,0|2|0,0:0|0:0|0:0,0:0:0:0:
271,78,99045,1,2,0:0:0:0:
271,197,99521,6,0,L|271:256,2,50,0|0|2,0:0|0:0|0:0,0:0:0:0:
391,193,100474,2,0,L|391:298,1,100,0|2,0:0|0:0,0:0:0:0:
291,359,101426,2,0,P|245:367|183:352,1,100,0|2,0:0|0:0,0:0:0:0:
88,298,102379,1,0,0:0:0:0:
120,182,102855,1,2,0:0:0:0:
157,68,103331,5,0,0:0:0:0:
250,143,103807,2,0,P|302:171|362:172,1,100,2|0,0:0|0:0,0:0:0:0:
436,99,104760,2,0,L|442:45,2,50,2|0|0,0:0|0:0|0:0,0:0:0:0:
466,214,105712,1,2,0:0:0:0:
423,326,106188,2,0,B|389:342|347:340|347:340|307:313|307:313|269:334|230:328,1,200,0|4,0:0|0:0,0:0:0:0:
128,275,107617,6,0,L|67:308,2,50,2|0|0,0:0|0:0|0:0,0:0:0:0:
136,155,108569,1,2,0:0:0:0:
244,103,109045,1,0,0:0:0:0:
345,167,109521,2,0,L|345:229,2,50,2|0|0,0:0|0:0|0:0,0:0:0:0:
344,46,110474,1,2,0:0:0:0:
447,107,110950,5,0,0:0:0:0:
447,226,111426,2,0,L|447:284,2,50,2|0|0,0:0|0:0|0:0,0:0:0:0:
447,107,112379,1,2,0:0:0:0:
344,46,112855,1,0,0:0:0:0:
230,85,113331,2,0,L|163:107,2,50,2|0|0,0:0|0:0|0:0,0:0:0:0:
331,148,114283,1,2,0:0:0:0:
296,263,114760,5,0,0:0:0:0:
195,328,115236,2,0,P|164:342|132:344,2,50,2|0|0,0:0|0:0|0:0,0:0:0:0:
296,263,116188,1,2,0:0:0:0:
201,189,116664,1,0,0:0:0:0:
98,251,117141,2,0,P|67:265|35:267,2,50,2|0|0,0:0|0:0|0:0,0:0:0:0:
201,189,118093,1,2,0:0:0:0:
256,192,118569,12,4,122379,0:0:0:0:
256,192,123807,5,8,0:0:0:0:
192,294,124283,2,0,P|154:311|93:316,2,100,2|8|2,0:0|0:0|0:0,0:0:0:0:
256,192,125712,1,8,0:0:0:0:
351,118,126188,6,0,P|399:124|448:167,1,100,4|8,0:0|0:0,0:0:0:0:
456,274,127140,1,2,0:0:0:0:
372,360,127616,2,0,P|325:362|263:333,1,100,8|2,0:0|0:0,0:0:0:0:
167,296,128569,1,8,0:0:0:0:
160,177,129045,1,2,0:0:0:0:
54,232,129521,1,8,0:0:0:0:
49,110,129997,6,0,P|68:62|116:33,1,100,4|8,0:0|0:0,0:0:0:0:
221,76,130950,1,2,0:0:0:0:
329,24,131426,1,8,0:0:0:0:
433,85,131902,2,0,P|463:120|483:179,2,100,2|8|2,0:0|0:0|0:0,0:0:0:0:
329,24,133331,1,8,0:0:0:0:
221,76,133807,6,0,B|223:121|208:158|208:158|253:157|281:167|305:185|315:223,1,200,4|2,0:0|0:0,0:0:0:0:
305,324,135235,1,8,0:0:0:0:
193,367,135712,2,0,P|148:353|108:312,2,100,2|8|2,0:0|0:0|0:0,0:0:0:0:
305,324,137140,1,8,0:0:0:0:
409,264,137616,5,0,0:0:0:0:
256,78,138569,2,0,L|256:28,2,50,8|0|0,0:0|0:0|0:0,0:0:0:0:
228,194,139521,2,0,B|196:233|142:219|142:219|106:173|39:188,1,200,2|8,0:0|0:0,0:0:0:0:
2,297,140950,1,0,0:0:0:0:
107,353,141426,5,2,0:0:0:0:
308,222,142379,2,0,L|308:273,2,50,8|0|0,0:0|0:0|0:0,0:0:0:0:
360,114,143331,2,0,P|400:67|471:159,1,200,2|8,0:0|0:0,0:0:0:0:
479,263,144760,1,0,0:0:0:0:
408,359,145236,5,2,0:0:0:0:
247,180,146188,2,0,P|216:216|197:224,2,50,8|0|0,0:0|0:0|0:0,0:0:0:0:
301,73,147141,2,0,B|276:33|221:23|221:23|191:67|125:62,1,200,2|8,0:0|0:0,0:0:0:0:
19,18,148569,1,0,0:0:0:0:
26,137,149045,5,2,0:0:0:0:
186,317,149998,2,0,L|186:370,2,50,8|0|0,0:0|0:0|0:0,0:0:0:0:
267,229,150950,2,0,B|292:189|347:179|347:179|381:223|444:225,1,200,2|8,0:0|0:0,0:0:0:0:
440,102,152379,1,0,0:0:0:0:
341,34,152855,5,2,0:0:0:0:
256,192,168093,12,4,169998,0:0:0:0:
256,72,171426,5,8,0:0:0:0:
370,37,171902,2,0,P|410:36|469:52,2,100,2|8|2,0:0|0:0|0:0,0:0:0:0:
256,72,173331,1,8,0:0:0:0:
142,37,173807,6,0,P|102:36|43:52,1,100,4|8,0:0|0:0,0:0:0:0:
10,166,174760,1,2,0:0:0:0:
72,268,175236,1,8,0:0:0:0:
169,197,175712,1,2,0:0:0:0:
247,287,176188,2,0,P|279:309|353:326,2,100,8|2|8,0:0|0:0|0:0,0:0:0:0:
169,197,177617,6,0,P|181:151|229:100,1,100,4|8,0:0|0:0,0:0:0:0:
317,51,178569,1,2,0:0:0:0:
436,51,179045,1,8,0:0:0:0:
484,160,179521,2,0,P|486:214|475:263,1,100,2|8,0:0|0:0,0:0:0:0:
397,349,180474,1,2,0:0:0:0:
301,276,180950,1,8,0:0:0:0:
203,345,181426,6,0,B|158:339|147:297|147:297|142:258|164:227|195:218|178:166,1,200,4|2,0:0|0:0,0:0:0:0:
103,93,182855,1,8,0:0:0:0:
214,48,183331,2,0,P|250:43|330:44,2,100,2|8|2,0:0|0:0|0:0,0:0:0:0:
103,93,184760,1,8,0:0:0:0:
256,192,185236,12,2,188807,0:0:0:0:
