osu file format v14

[General]
AudioFilename: audio.mp3
AudioLeadIn: 0
PreviewTime: 52561
Countdown: 0
SampleSet: Soft
StackLeniency: 0.6
Mode: 0
LetterboxInBreaks: 0
WidescreenStoryboard: 1

[Editor]
Bookmarks: 5628,9958,10576,17999,27896,37793,42741,50164,52638,62535,72432,82329,89751
DistanceSpacing: 1.3
BeatDivisor: 4
GridSize: 16
TimelineZoom: 2.2

[Metadata]
Title:Tsugihagi: <=> Make Peace!
TitleUnicode:ツギハギ:⇔めいくぴーす!
Artist:MOSAIC.WAV
ArtistUnicode:MOSAIC.WAV
Creator:Riana
Version:Normal!
Source:ツギハギめいくぴーす!-pretending×friendship-
Tags:tsugihagi make peace pretending × friendship 2nd op opening ~May be friends?~ japanese video game galgame galge eroge pop jpop j-pop buckfro hoto cocoa hoto_cocoa interlude- lude badgames acylica acyl
BeatmapID:3127350
BeatmapSetID:1394111

[Difficulty]
HPDrainRate:3
CircleSize:2.5
OverallDifficulty:4
ApproachRate:5
SliderMultiplier:1.12
SliderTickRate:1

[Events]
//Background and Video events
0,0,"bg.jpg",0,0
//Break Periods
//Storyboard Layer 0 (Background)
//Storyboard Layer 1 (Fail)
//Storyboard Layer 2 (Pass)
//Storyboard Layer 3 (Foreground)
//Storyboard Layer 4 (Overlay)
//Storyboard Sound Samples

[TimingPoints]
696,322.58064516129,4,2,1,40,1,0
696,-111.111111111111,4,2,1,40,0,0
1300,319.148936170213,4,2,2,35,1,0
1898,315.789473684211,4,2,3,35,1,0
2529,-111.111111111111,4,2,4,35,0,0
3161,312.5,4,2,1,50,1,0
3161,-111.111111111111,4,2,1,50,0,0
3473,-111.111111111111,4,2,2,50,0,0
3786,-111.111111111111,4,2,3,50,0,0
4098,-111.111111111111,4,2,4,50,0,0
4391,309.278350515464,4,2,5,50,1,0
4391,-100,4,2,5,50,0,0
5009,-100,4,2,7,50,0,0
5318,-100,4,2,6,50,0,0
5628,-90.9090909090909,4,2,8,65,0,0
5782,-90.9090909090909,4,2,10,65,0,0
5937,-90.9090909090909,4,2,5,65,0,0
6246,-90.9090909090909,4,2,10,65,0,0
6555,-90.9090909090909,4,2,5,65,0,0
6710,-90.9090909090909,4,2,4,65,0,0
6865,-90.9090909090909,4,2,8,65,0,0
7019,-90.9090909090909,4,2,9,55,0,0
7174,-90.9090909090909,4,2,8,65,0,0
7329,-90.9090909090909,4,2,10,65,0,0
7483,-90.9090909090909,4,2,11,55,0,0
7793,-90.9090909090909,4,2,2,65,0,0
7870,-90.9090909090909,4,2,11,65,0,0
7947,-90.9090909090909,4,2,23,65,0,0
8025,-90.9090909090909,4,2,11,65,0,0
8103,-90.9090909090909,4,2,8,65,0,0
8256,-90.9090909090909,4,2,9,55,0,0
8411,-90.9090909090909,4,2,5,65,0,0
8720,-90.9090909090909,4,2,10,65,0,0
8875,-90.9090909090909,4,2,9,55,0,0
8952,-90.9090909090909,4,2,10,55,0,0
9030,-90.9090909090909,4,2,8,65,0,0
9184,-90.9090909090909,4,2,10,65,0,0
9339,-90.9090909090909,4,2,12,65,0,0
9494,-90.9090909090909,4,2,10,65,0,0
9648,-90.9090909090909,4,2,5,65,0,0
9958,-90.9090909090909,4,2,7,65,0,0
10267,-90.9090909090909,4,2,6,65,0,0
10576,-90.9090909090909,4,2,8,65,0,0
10731,-90.9090909090909,4,2,9,65,0,0
10885,-90.9090909090909,4,2,5,65,0,0
11195,-90.9090909090909,4,2,10,65,0,0
11504,-90.9090909090909,4,2,5,65,0,0
11659,-90.9090909090909,4,2,4,65,0,0
11813,-90.9090909090909,4,2,8,65,0,0
11968,-90.9090909090909,4,2,9,55,0,0
12122,-90.9090909090909,4,2,8,65,0,0
12277,-90.9090909090909,4,2,10,65,0,0
12432,-90.9090909090909,4,2,11,55,0,0
12741,-90.9090909090909,4,2,2,65,0,0
12818,-90.9090909090909,4,2,11,65,0,0
12896,-90.9090909090909,4,2,23,65,0,0
12973,-90.9090909090909,4,2,11,65,0,0
13050,-90.9090909090909,4,2,8,65,0,0
13205,-90.9090909090909,4,2,9,55,0,0
13360,-90.9090909090909,4,2,5,65,0,0
13669,-90.9090909090909,4,2,11,65,0,0
13978,-90.9090909090909,4,2,6,65,0,0
14288,-90.9090909090909,4,2,15,65,0,0
14442,-90.9090909090909,4,2,3,65,0,0
14597,-90.9090909090909,4,2,16,65,0,0
14751,-90.9090909090909,4,2,7,65,0,0
14829,-90.9090909090909,4,2,9,65,0,0
14906,-90.9090909090909,4,2,18,65,0,0
15215,-90.9090909090909,4,2,12,65,0,0
15254,-90.9090909090909,4,2,12,55,0,0
15525,-90.9090909090909,4,2,10,70,0,0
15602,-90.9090909090909,4,2,7,70,0,0
15988,-90.9090909090909,4,2,11,70,0,0
16298,-90.9090909090909,4,2,6,70,0,0
16607,-90.9090909090909,4,2,13,70,0,0
16762,-90.9090909090909,4,2,15,70,0,0
16916,-90.9090909090909,4,2,14,70,0,0
17071,-90.9090909090909,4,2,15,70,0,0
17226,-90.9090909090909,4,2,16,70,0,0
17535,-90.9090909090909,4,2,14,55,0,0
17999,-100,4,2,17,55,0,0
19854,-100,4,2,19,55,0,0
19932,-100,4,2,11,55,0,0
20009,-100,4,2,19,55,0,0
20086,-100,4,2,11,55,0,0
20164,-100,4,2,17,55,0,0
22329,-100,4,2,18,55,0,0
22406,-100,4,2,13,55,0,0
22483,-100,4,2,18,55,0,0
22561,-100,4,2,13,55,0,0
22638,-100,4,2,18,55,0,0
22715,-100,4,2,19,55,0,0
22793,-100,4,2,18,55,0,0
22870,-100,4,2,19,55,0,0
22947,-100,4,2,17,55,0,0
23720,-100,4,2,19,55,0,0
23798,-100,4,2,11,55,0,0
23875,-100,4,2,19,55,0,0
24030,-100,4,2,17,55,0,0
24803,-100,4,2,19,55,0,0
24880,-100,4,2,11,55,0,0
24958,-100,4,2,19,55,0,0
25035,-100,4,2,11,55,0,0
25112,-100,4,2,17,55,0,0
25151,-100,4,2,19,55,0,0
25267,-100,4,2,17,55,0,0
25305,-100,4,2,19,55,0,0
25421,-100,4,2,17,55,0,0
25731,-100,4,2,21,65,0,0
26040,-100,4,2,17,55,0,0
26349,-100,4,2,21,65,0,0
26504,-100,4,2,17,55,0,0
26659,-100,4,2,25,55,0,0
26813,-100,4,2,17,55,0,0
26968,-100,4,2,26,55,0,0
27122,-100,4,2,17,55,0,0
27277,-100,4,2,21,65,0,0
27432,-100,4,2,17,55,0,0
27586,-100,4,2,17,55,0,0
27625,-100,4,2,20,40,0,0
27896,-100,4,2,17,55,0,0
29751,-100,4,2,19,55,0,0
29829,-100,4,2,11,55,0,0
29906,-100,4,2,19,55,0,0
29983,-100,4,2,11,55,0,0
30061,-100,4,2,17,55,0,0
32226,-100,4,2,18,55,0,0
32303,-100,4,2,13,55,0,0
32380,-100,4,2,18,55,0,0
32458,-100,4,2,13,55,0,0
32535,-100,4,2,18,55,0,0
32612,-100,4,2,19,55,0,0
32689,-100,4,2,18,55,0,0
32767,-100,4,2,19,55,0,0
32844,-100,4,2,17,55,0,0
33617,-100,4,2,19,55,0,0
33695,-100,4,2,11,55,0,0
33772,-100,4,2,19,55,0,0
33927,-100,4,2,17,55,0,0
34700,-100,4,2,19,55,0,0
34777,-100,4,2,11,55,0,0
34854,-100,4,2,19,55,0,0
34932,-100,4,2,11,55,0,0
35009,-100,4,2,20,55,0,0
35318,-100,4,2,17,55,0,0
35628,-100,4,2,21,65,0,0
35937,-100,4,2,17,55,0,0
36246,-100,4,2,21,65,0,0
36401,-100,4,2,17,55,0,0
36555,-100,4,2,25,55,0,0
36710,-100,4,2,17,55,0,0
36865,-100,4,2,26,55,0,0
37019,-100,4,2,17,55,0,0
37174,-100,4,2,21,65,0,0
37483,-100,4,2,6,55,0,0
37793,-100,4,2,24,45,0,0
38102,-100,4,2,24,45,0,0
38720,-100,4,2,24,45,0,0
39030,-100,4,2,24,45,0,0
39339,-100,4,2,24,45,0,0
39957,-100,4,2,26,55,0,0
40112,-100,4,2,24,45,0,0
40576,-100,4,2,24,45,0,0
41194,-100,4,2,25,55,0,0
41349,-100,4,2,24,45,0,0
41813,-100,4,2,24,45,0,0
42122,-100,4,2,24,45,0,0
42432,-100,4,2,26,50,0,0
42741,-100,4,2,24,55,0,0
45215,-100,4,2,24,50,0,0
45679,-100,4,2,28,50,0,0
45756,-100,4,2,6,50,0,0
45834,-100,4,2,28,50,0,0
45911,-100,4,2,6,50,0,0
45988,-100,4,2,28,50,0,0
46066,-100,4,2,6,50,0,0
46143,-100,4,2,24,50,0,0
47458,-100,4,2,24,50,0,0
47535,-100,4,2,24,50,0,0
47689,-100,4,2,24,55,0,0
47999,-100,4,2,24,55,0,0
48308,-100,4,2,24,55,0,0
48617,-100,4,2,24,55,0,0
48927,-100,4,2,29,55,0,0
49004,-100,4,2,7,55,0,0
49081,-100,4,2,29,55,0,0
49159,-100,4,2,7,55,0,0
49236,-100,4,2,29,55,0,0
49313,-100,4,2,7,55,0,0
49391,-100,4,2,29,55,0,0
49468,-100,4,2,7,55,0,0
49545,-100,4,2,24,55,0,0
50164,-100,4,2,3,50,0,0
50937,-100,4,2,1,50,0,0
51092,-100,4,2,12,50,0,0
51246,-100,4,2,3,50,0,0
51555,-100,4,2,8,50,0,0
51710,-100,4,2,21,65,0,0
52019,-100,4,2,21,70,0,0
52329,-100,4,2,21,70,0,0
52638,-90.9090909090909,4,2,30,75,0,1
52715,-90.9090909090909,4,2,31,75,0,1
52793,-90.9090909090909,4,2,32,75,0,1
52870,-90.9090909090909,4,2,33,75,0,1
52947,-90.9090909090909,4,2,30,75,0,1
53025,-90.9090909090909,4,2,31,75,0,1
53102,-90.9090909090909,4,2,32,75,0,1
53179,-90.9090909090909,4,2,33,75,0,1
53256,-90.9090909090909,4,2,30,75,0,1
53334,-90.9090909090909,4,2,31,75,0,1
53411,-90.9090909090909,4,2,32,75,0,1
53488,-90.9090909090909,4,2,33,75,0,1
53566,-90.9090909090909,4,2,30,75,0,1
53643,-90.9090909090909,4,2,31,75,0,1
53720,-90.9090909090909,4,2,32,75,0,1
53798,-90.9090909090909,4,2,33,75,0,1
53875,-90.9090909090909,4,2,30,75,0,1
53952,-90.9090909090909,4,2,31,75,0,1
54030,-90.9090909090909,4,2,32,75,0,1
54107,-90.9090909090909,4,2,33,75,0,1
54184,-90.9090909090909,4,2,30,75,0,1
54262,-90.9090909090909,4,2,31,75,0,1
54339,-90.9090909090909,4,2,32,75,0,1
54416,-90.9090909090909,4,2,33,75,0,1
54494,-90.9090909090909,4,2,34,75,0,1
54571,-90.9090909090909,4,2,31,75,0,1
54648,-90.9090909090909,4,2,32,75,0,1
54726,-90.9090909090909,4,2,33,75,0,1
54803,-90.9090909090909,4,2,30,75,0,1
54880,-90.9090909090909,4,2,31,75,0,1
54958,-90.9090909090909,4,2,32,75,0,1
55112,-90.9090909090909,4,2,30,75,0,1
55189,-90.9090909090909,4,2,31,75,0,1
55267,-90.9090909090909,4,2,32,75,0,1
55344,-90.9090909090909,4,2,33,75,0,1
55421,-90.9090909090909,4,2,30,75,0,1
55576,-90.9090909090909,4,2,32,75,0,1
55653,-90.9090909090909,4,2,33,75,0,1
55731,-90.9090909090909,4,2,30,75,0,1
55808,-90.9090909090909,4,2,31,75,0,1
55885,-90.9090909090909,4,2,32,75,0,1
55963,-90.9090909090909,4,2,33,75,0,1
56040,-90.9090909090909,4,2,30,75,0,1
56117,-90.9090909090909,4,2,31,75,0,1
56195,-90.9090909090909,4,2,32,75,0,1
56272,-90.9090909090909,4,2,33,75,0,1
56349,-90.9090909090909,4,2,30,75,0,1
56427,-90.9090909090909,4,2,31,75,0,1
56504,-90.9090909090909,4,2,32,75,0,1
56581,-90.9090909090909,4,2,33,75,0,1
56659,-90.9090909090909,4,2,32,75,0,1
56968,-90.9090909090909,4,2,33,75,0,1
57277,-90.9090909090909,4,2,34,75,0,1
57354,-90.9090909090909,4,2,31,75,0,1
57432,-90.9090909090909,4,2,34,75,0,1
57509,-90.9090909090909,4,2,31,75,0,1
57586,-90.9090909090909,4,2,30,75,0,1
57741,-90.9090909090909,4,2,32,75,0,1
57818,-90.9090909090909,4,2,33,75,0,1
57895,-90.9090909090909,4,2,30,75,0,1
58050,-90.9090909090909,4,2,32,75,0,1
58128,-90.9090909090909,4,2,33,75,0,1
58204,-90.9090909090909,4,2,30,75,0,1
58360,-90.9090909090909,4,2,32,75,0,1
58437,-90.9090909090909,4,2,33,75,0,1
58514,-90.9090909090909,4,2,30,75,0,1
58668,-90.9090909090909,4,2,32,75,0,1
58746,-90.9090909090909,4,2,33,75,0,1
58823,-90.9090909090909,4,2,30,75,0,1
58978,-90.9090909090909,4,2,32,75,0,1
59055,-90.9090909090909,4,2,33,75,0,1
59133,-90.9090909090909,4,2,30,75,0,1
59210,-90.9090909090909,4,2,31,75,0,1
59287,-90.9090909090909,4,2,32,75,0,1
59442,-90.9090909090909,4,2,30,75,0,1
59519,-90.9090909090909,4,2,31,75,0,1
59597,-90.9090909090909,4,2,32,75,0,1
59674,-90.9090909090909,4,2,33,75,0,1
59751,-90.9090909090909,4,2,30,75,0,1
59829,-90.9090909090909,4,2,31,75,0,1
59906,-90.9090909090909,4,2,32,75,0,1
59983,-90.9090909090909,4,2,33,75,0,1
60061,-90.9090909090909,4,2,30,75,0,1
60138,-90.9090909090909,4,2,31,75,0,1
60215,-90.9090909090909,4,2,32,75,0,1
60293,-90.9090909090909,4,2,33,75,0,1
60370,-90.9090909090909,4,2,30,75,0,1
60447,-90.9090909090909,4,2,31,75,0,1
60525,-90.9090909090909,4,2,32,75,0,1
60602,-90.9090909090909,4,2,33,75,0,1
60679,-90.9090909090909,4,2,33,75,0,1
60988,-90.9090909090909,4,2,30,75,0,1
61143,-90.9090909090909,4,2,32,75,0,1
61220,-90.9090909090909,4,2,33,75,0,1
61298,-90.9090909090909,4,2,32,75,0,1
61375,-90.9090909090909,4,2,7,75,0,1
61452,-90.9090909090909,4,2,32,75,0,1
61530,-90.9090909090909,4,2,7,75,0,1
61607,-90.9090909090909,4,2,30,75,0,1
62071,-90.9090909090909,4,2,33,75,0,1
62380,-90.9090909090909,4,2,34,75,0,1
62535,-90.9090909090909,4,2,30,75,0,0
62689,-90.9090909090909,4,2,32,65,0,0
62767,-90.9090909090909,4,2,33,65,0,0
62844,-90.9090909090909,4,2,30,65,0,0
62999,-90.9090909090909,4,2,32,65,0,0
63153,-90.9090909090909,4,2,30,65,0,0
63308,-90.9090909090909,4,2,32,65,0,0
63385,-90.9090909090909,4,2,33,65,0,0
63463,-90.9090909090909,4,2,30,65,0,0
63617,-90.9090909090909,4,2,32,65,0,0
63695,-90.9090909090909,4,2,33,65,0,0
63772,-90.9090909090909,4,2,30,65,0,0
63927,-90.9090909090909,4,2,32,65,0,0
64004,-90.9090909090909,4,2,33,65,0,0
64081,-90.9090909090909,4,2,30,65,0,0
64159,-90.9090909090909,4,2,31,65,0,0
64236,-90.9090909090909,4,2,32,65,0,0
64391,-90.9090909090909,4,2,30,65,0,0
64468,-90.9090909090909,4,2,31,65,0,0
64545,-90.9090909090909,4,2,32,65,0,0
64622,-90.9090909090909,4,2,33,65,0,0
64700,-90.9090909090909,4,2,30,65,0,0
64854,-90.9090909090909,4,2,32,65,0,0
64932,-90.9090909090909,4,2,33,65,0,0
65009,-90.9090909090909,4,2,30,75,0,0
65164,-90.9090909090909,4,2,32,65,0,0
65241,-90.9090909090909,4,2,33,65,0,0
65318,-90.9090909090909,4,2,30,65,0,0
65473,-90.9090909090909,4,2,32,65,0,0
65550,-90.9090909090909,4,2,33,65,0,0
65628,-90.9090909090909,4,2,30,65,0,0
65705,-90.9090909090909,4,2,31,65,0,0
65782,-90.9090909090909,4,2,32,65,0,0
65937,-90.9090909090909,4,2,30,65,0,0
66092,-90.9090909090909,4,2,32,65,0,0
66169,-90.9090909090909,4,2,33,65,0,0
66246,-90.9090909090909,4,2,32,65,0,0
66555,-90.9090909090909,4,2,31,65,0,0
66865,-90.9090909090909,4,2,34,65,0,0
67174,-90.9090909090909,4,2,30,75,0,0
67329,-90.9090909090909,4,2,32,65,0,0
67483,-90.9090909090909,4,2,30,65,0,0
67638,-90.9090909090909,4,2,32,65,0,0
67715,-90.9090909090909,4,2,33,65,0,0
67793,-90.9090909090909,4,2,30,65,0,0
67947,-90.9090909090909,4,2,32,65,0,0
68025,-90.9090909090909,4,2,33,65,0,0
68102,-90.9090909090909,4,2,30,65,0,0
68179,-90.9090909090909,4,2,31,65,0,0
68256,-90.9090909090909,4,2,32,65,0,0
68334,-90.9090909090909,4,2,33,65,0,0
68411,-90.9090909090909,4,2,30,65,0,0
68488,-90.9090909090909,4,2,31,65,0,0
68566,-90.9090909090909,4,2,32,65,0,0
68643,-90.9090909090909,4,2,33,65,0,0
68720,-90.9090909090909,4,2,30,65,0,0
68798,-90.9090909090909,4,2,31,65,0,0
68875,-90.9090909090909,4,2,32,65,0,0
68952,-90.9090909090909,4,2,33,65,0,0
69030,-90.9090909090909,4,2,30,65,0,0
69184,-90.9090909090909,4,2,32,65,0,0
69262,-90.9090909090909,4,2,33,65,0,0
69339,-90.9090909090909,4,2,30,65,0,0
69416,-90.9090909090909,4,2,31,65,0,0
69494,-90.9090909090909,4,2,32,65,0,0
69571,-90.9090909090909,4,2,33,65,0,0
69648,-90.9090909090909,4,2,30,65,0,0
69726,-90.9090909090909,4,2,31,65,0,0
69803,-90.9090909090909,4,2,32,65,0,0
69880,-90.9090909090909,4,2,33,65,0,0
69958,-90.9090909090909,4,2,30,65,0,0
70035,-90.9090909090909,4,2,31,65,0,0
70112,-90.9090909090909,4,2,32,65,0,0
70189,-90.9090909090909,4,2,33,65,0,0
70267,-90.9090909090909,4,2,30,75,0,0
70421,-90.9090909090909,4,2,30,65,0,0
70576,-90.9090909090909,4,2,32,65,0,0
70885,-90.9090909090909,4,2,30,75,0,0
71040,-90.9090909090909,4,2,32,65,0,0
71195,-90.9090909090909,4,2,30,65,0,0
71504,-90.9090909090909,4,2,33,65,0,0
71813,-90.9090909090909,4,2,34,65,0,0
72122,-90.9090909090909,4,2,25,65,0,0
72161,-90.9090909090909,4,2,31,35,0,0
72432,-90.9090909090909,4,2,30,75,0,1
72509,-90.9090909090909,4,2,31,75,0,1
72586,-90.9090909090909,4,2,32,75,0,1
72664,-90.9090909090909,4,2,33,75,0,1
72741,-90.9090909090909,4,2,30,75,0,1
72818,-90.9090909090909,4,2,31,75,0,1
72896,-90.9090909090909,4,2,32,75,0,1
72973,-90.9090909090909,4,2,33,75,0,1
73050,-90.9090909090909,4,2,30,75,0,1
73128,-90.9090909090909,4,2,31,75,0,1
73205,-90.9090909090909,4,2,32,75,0,1
73282,-90.9090909090909,4,2,33,75,0,1
73360,-90.9090909090909,4,2,30,75,0,1
73437,-90.9090909090909,4,2,31,75,0,1
73514,-90.9090909090909,4,2,32,75,0,1
73592,-90.9090909090909,4,2,33,75,0,1
73669,-90.9090909090909,4,2,30,75,0,1
73746,-90.9090909090909,4,2,31,75,0,1
73823,-90.9090909090909,4,2,32,75,0,1
73901,-90.9090909090909,4,2,33,75,0,1
73978,-90.9090909090909,4,2,30,75,0,1
74055,-90.9090909090909,4,2,31,75,0,1
74133,-90.9090909090909,4,2,32,75,0,1
74210,-90.9090909090909,4,2,33,75,0,1
74287,-90.9090909090909,4,2,34,75,0,1
74365,-90.9090909090909,4,2,31,75,0,1
74442,-90.9090909090909,4,2,32,75,0,1
74519,-90.9090909090909,4,2,33,75,0,1
74597,-90.9090909090909,4,2,30,75,0,1
74674,-90.9090909090909,4,2,31,75,0,1
74751,-90.9090909090909,4,2,32,75,0,1
74829,-90.9090909090909,4,2,33,75,0,1
74906,-90.9090909090909,4,2,30,75,0,1
74983,-90.9090909090909,4,2,31,75,0,1
75061,-90.9090909090909,4,2,32,75,0,1
75138,-90.9090909090909,4,2,33,75,0,1
75215,-90.9090909090909,4,2,30,75,0,1
75370,-90.9090909090909,4,2,32,75,0,1
75447,-90.9090909090909,4,2,33,75,0,1
75525,-90.9090909090909,4,2,30,75,0,1
75602,-90.9090909090909,4,2,31,75,0,1
75679,-90.9090909090909,4,2,32,75,0,1
75756,-90.9090909090909,4,2,33,75,0,1
75834,-90.9090909090909,4,2,30,75,0,1
75911,-90.9090909090909,4,2,31,75,0,1
75988,-90.9090909090909,4,2,32,75,0,1
76066,-90.9090909090909,4,2,33,75,0,1
76143,-90.9090909090909,4,2,30,75,0,1
76220,-90.9090909090909,4,2,31,75,0,1
76298,-90.9090909090909,4,2,32,75,0,1
76375,-90.9090909090909,4,2,33,75,0,1
76452,-90.9090909090909,4,2,32,75,0,1
76762,-90.9090909090909,4,2,33,75,0,1
77071,-90.9090909090909,4,2,34,75,0,1
77148,-90.9090909090909,4,2,31,75,0,1
77226,-90.9090909090909,4,2,34,75,0,1
77380,-90.9090909090909,4,2,30,75,0,1
77535,-90.9090909090909,4,2,32,75,0,1
77612,-90.9090909090909,4,2,33,75,0,1
77689,-90.9090909090909,4,2,30,75,0,1
77844,-90.9090909090909,4,2,32,75,0,1
77921,-90.9090909090909,4,2,33,75,0,1
77998,-90.9090909090909,4,2,30,75,0,1
78153,-90.9090909090909,4,2,32,75,0,1
78231,-90.9090909090909,4,2,33,75,0,1
78308,-90.9090909090909,4,2,30,75,0,1
78463,-90.9090909090909,4,2,32,75,0,1
78540,-90.9090909090909,4,2,33,75,0,1
78617,-90.9090909090909,4,2,30,75,0,1
78772,-90.9090909090909,4,2,32,75,0,1
78849,-90.9090909090909,4,2,33,75,0,1
78927,-90.9090909090909,4,2,30,75,0,1
79004,-90.9090909090909,4,2,31,75,0,1
79081,-90.9090909090909,4,2,32,75,0,1
79236,-90.9090909090909,4,2,30,75,0,1
79313,-90.9090909090909,4,2,31,75,0,1
79391,-90.9090909090909,4,2,32,75,0,1
79468,-90.9090909090909,4,2,33,75,0,1
79545,-90.9090909090909,4,2,30,75,0,1
79622,-90.9090909090909,4,2,31,75,0,1
79700,-90.9090909090909,4,2,32,75,0,1
79777,-90.9090909090909,4,2,33,75,0,1
79854,-90.9090909090909,4,2,30,75,0,1
79932,-90.9090909090909,4,2,31,75,0,1
80009,-90.9090909090909,4,2,32,75,0,1
80086,-90.9090909090909,4,2,33,75,0,1
80164,-90.9090909090909,4,2,30,75,0,1
80241,-90.9090909090909,4,2,31,75,0,1
80318,-90.9090909090909,4,2,32,75,0,1
80396,-90.9090909090909,4,2,33,75,0,1
80473,-90.9090909090909,4,2,33,75,0,1
80782,-90.9090909090909,4,2,30,75,0,1
80937,-90.9090909090909,4,2,32,75,0,1
81014,-90.9090909090909,4,2,33,75,0,1
81092,-90.9090909090909,4,2,32,75,0,1
81169,-90.9090909090909,4,2,7,75,0,1
81246,-90.9090909090909,4,2,32,75,0,1
81323,-90.9090909090909,4,2,7,75,0,1
81401,-90.9090909090909,4,2,30,75,0,1
81865,-90.9090909090909,4,2,33,75,0,1
82174,-90.9090909090909,4,2,34,75,0,1
82329,-90.9090909090909,4,2,30,75,0,0
82483,-90.9090909090909,4,2,32,65,0,0
82561,-90.9090909090909,4,2,33,65,0,0
82638,-90.9090909090909,4,2,30,65,0,0
82793,-90.9090909090909,4,2,32,65,0,0
82947,-90.9090909090909,4,2,30,65,0,0
83025,-90.9090909090909,4,2,31,65,0,0
83102,-90.9090909090909,4,2,32,65,0,0
83179,-90.9090909090909,4,2,33,65,0,0
83257,-90.9090909090909,4,2,30,65,0,0
83411,-90.9090909090909,4,2,32,65,0,0
83566,-90.9090909090909,4,2,30,65,0,0
83720,-90.9090909090909,4,2,32,65,0,0
83875,-90.9090909090909,4,2,30,65,0,0
83952,-90.9090909090909,4,2,31,65,0,0
84030,-90.9090909090909,4,2,32,65,0,0
84107,-90.9090909090909,4,2,33,65,0,0
84185,-90.9090909090909,4,2,30,65,0,0
84262,-90.9090909090909,4,2,31,65,0,0
84339,-90.9090909090909,4,2,32,65,0,0
84416,-90.9090909090909,4,2,33,65,0,0
84494,-90.9090909090909,4,2,30,65,0,0
84648,-90.9090909090909,4,2,32,65,0,0
84726,-90.9090909090909,4,2,33,65,0,0
84803,-90.9090909090909,4,2,30,75,0,0
84958,-90.9090909090909,4,2,32,65,0,0
85035,-90.9090909090909,4,2,33,65,0,0
85112,-90.9090909090909,4,2,30,65,0,0
85267,-90.9090909090909,4,2,32,65,0,0
85422,-90.9090909090909,4,2,30,65,0,0
85576,-90.9090909090909,4,2,32,65,0,0
85653,-90.9090909090909,4,2,33,65,0,0
85731,-90.9090909090909,4,2,30,65,0,0
85885,-90.9090909090909,4,2,32,65,0,0
86040,-90.9090909090909,4,2,30,65,0,0
86195,-90.9090909090909,4,2,32,65,0,0
86272,-90.9090909090909,4,2,33,65,0,0
86349,-90.9090909090909,4,2,30,65,0,0
86504,-90.9090909090909,4,2,32,65,0,0
86581,-90.9090909090909,4,2,33,65,0,0
86659,-90.9090909090909,4,2,30,65,0,0
86813,-90.9090909090909,4,2,32,65,0,0
86891,-90.9090909090909,4,2,33,65,0,0
86968,-90.9090909090909,4,2,30,65,0,0
87045,-90.9090909090909,4,2,31,65,0,0
87122,-90.9090909090909,4,2,32,65,0,0
87200,-90.9090909090909,4,2,33,65,0,0
87277,-90.9090909090909,4,2,30,65,0,0
87586,-90.9090909090909,4,2,32,65,0,0
87896,-90.9090909090909,4,2,31,65,0,0
88205,-90.9090909090909,4,2,34,65,0,0
88514,-90.9090909090909,4,2,25,70,0,0
88823,-90.9090909090909,4,2,24,70,0,0
89133,-90.9090909090909,4,2,26,70,0,0
89287,-90.9090909090909,4,2,25,70,0,0
89751,-90.9090909090909,4,2,8,65,0,0
89906,-90.9090909090909,4,2,10,65,0,0
90061,-90.9090909090909,4,2,5,65,0,0
90370,-90.9090909090909,4,2,10,65,0,0
90679,-90.9090909090909,4,2,5,65,0,0
90834,-90.9090909090909,4,2,4,65,0,0
90988,-90.9090909090909,4,2,8,65,0,0
91143,-90.9090909090909,4,2,9,55,0,0
91220,-90.9090909090909,4,2,10,55,0,0
91298,-90.9090909090909,4,2,8,65,0,0
91452,-90.9090909090909,4,2,10,65,0,0
91607,-90.9090909090909,4,2,11,55,0,0
91916,-90.9090909090909,4,2,2,65,0,0
91994,-90.9090909090909,4,2,11,65,0,0
92071,-90.9090909090909,4,2,23,65,0,0
92148,-90.9090909090909,4,2,11,65,0,0
92226,-90.9090909090909,4,2,8,65,0,0
92380,-90.9090909090909,4,2,9,55,0,0
92535,-90.9090909090909,4,2,5,65,0,0
92843,-90.9090909090909,4,2,10,65,0,0
92999,-90.9090909090909,4,2,9,55,0,0
93076,-90.9090909090909,4,2,10,55,0,0
93153,-90.9090909090909,4,2,8,65,0,0
93231,-90.9090909090909,4,2,11,65,0,0
93308,-90.9090909090909,4,2,10,65,0,0
93385,-90.9090909090909,4,2,11,65,0,0
93463,-90.9090909090909,4,2,12,65,0,0
93617,-90.9090909090909,4,2,10,65,0,0
93772,-90.9090909090909,4,2,5,65,0,0
94081,-90.9090909090909,4,2,7,65,0,0
94391,-90.9090909090909,4,2,6,65,0,0
94700,-90.9090909090909,4,2,8,65,0,0
94854,-90.9090909090909,4,2,9,65,0,0
95009,-90.9090909090909,4,2,5,65,0,0
95318,-90.9090909090909,4,2,10,65,0,0
95628,-90.9090909090909,4,2,5,65,0,0
95782,-90.9090909090909,4,2,4,65,0,0
95937,-90.9090909090909,4,2,8,65,0,0
96092,-90.9090909090909,4,2,9,55,0,0
96169,-90.9090909090909,4,2,10,55,0,0
96246,-90.9090909090909,4,2,8,65,0,0
96401,-90.9090909090909,4,2,10,65,0,0
96555,-90.9090909090909,4,2,11,55,0,0
96865,-90.9090909090909,4,2,2,65,0,0
96942,-90.9090909090909,4,2,11,65,0,0
97019,-90.9090909090909,4,2,23,65,0,0
97097,-90.9090909090909,4,2,11,65,0,0
97174,-90.9090909090909,4,2,8,65,0,0
97329,-90.9090909090909,4,2,9,55,0,0
97483,-90.9090909090909,4,2,5,65,0,0
97793,-90.9090909090909,4,2,11,65,0,0
98102,-90.9090909090909,4,2,6,65,0,0
98411,-90.9090909090909,4,2,15,65,0,0
98566,-90.9090909090909,4,2,3,65,0,0
98720,-90.9090909090909,4,2,16,65,0,0
98875,-90.9090909090909,4,2,7,65,0,0
98952,-90.9090909090909,4,2,9,65,0,0
99030,-90.9090909090909,4,2,18,65,0,0
99339,-90.9090909090909,4,2,12,65,0,0
99378,-90.9090909090909,4,2,9,40,0,0
99648,-111.111111111111,4,2,1,65,0,0
100112,-111.111111111111,4,2,2,65,0,0
100267,-111.111111111111,4,2,3,65,0,0
100421,-111.111111111111,4,2,2,65,0,0
100885,-111.111111111111,4,2,26,65,0,0
100963,-111.111111111111,4,2,18,65,0,0
101195,-111.111111111111,4,2,13,55,0,0

[Colours]
Combo1 : 225,225,225
Combo2 : 202,210,255
Combo3 : 155,194,253

[HitObjects]
115,133,696,6,0,L|221:118,1,100.799996923828,2|12,0:2|1:3,0:0:0:0:
286,50,1300,2,0,L|354:60,1,56,2|0,0:2|0:0,0:0:0:0:
395,43,1619,1,12,1:3:0:0:
438,132,1898,6,0,L|416:261,1,112,2|12,0:2|1:3,0:0:0:0:
323,270,2529,1,2,0:2:0:0:
225,296,2845,1,12,1:3:0:0:
158,219,3161,6,0,P|127:170|118:108,1,100.799996923828,6|6,1:2|1:2,0:0:0:0:
185,53,3786,2,0,P|242:50|301:73,1,100.799996923828,6|6,1:2|1:2,0:0:0:0:
362,134,4391,6,0,L|429:129,1,56,2|2,1:2|1:2,0:0:0:0:
469,107,4700,1,2,1:2:0:0:
469,107,4854,2,0,P|444:168|441:231,1,112,2|2,1:2|1:2,0:0:0:0:
468,261,5318,1,2,1:2:0:0:
345,274,5628,5,6,3:2:0:0:
345,274,5782,1,2,1:2:0:0:
345,274,5937,2,0,L|264:261,1,61.6000018798829,8|2,3:3|1:2,0:0:0:0:
248,213,6246,2,0,L|122:230,1,123.200003759766,2|6,3:2|3:2,0:0:0:0:
72,118,6865,6,0,P|75:88|90:50,1,61.6000018798829,6|2,3:2|1:2,0:0:0:0:
147,55,7174,2,0,P|174:42|214:36,1,61.6000018798829,2|10,3:2|1:2,0:0:0:0:
260,64,7483,1,2,3:2:0:0:
260,64,7638,2,0,L|273:201,1,123.200003759766,2|6,1:2|1:2,0:0:0:0:
311,234,8102,5,6,3:2:0:0:
420,178,8411,1,10,3:3:0:0:
511,261,8720,1,2,3:2:0:0:
511,261,8875,1,2,1:2:0:0:
511,261,9030,1,2,3:2:0:0:
414,337,9339,6,0,P|353:318|279:300,1,123.200003759766,2|2,3:2|3:2,0:0:0:0:
184,249,9958,2,0,L|178:188,1,61.6000018798829,2|2,3:2|1:2,0:0:0:0:
203,131,10267,2,0,L|209:70,1,61.6000018798829,2|2,1:2|1:2,0:0:0:0:
172,20,10576,5,6,3:2:0:0:
50,32,10885,2,0,P|34:64|37:113,1,61.6000018798829,8|2,3:3|1:2,0:0:0:0:
5,145,11194,2,0,P|41:191|25:274,1,123.200003759766,2|6,3:2|3:2,0:0:0:0:
156,217,11813,6,0,P|169:189|196:159,1,61.6000018798829,6|2,3:2|1:2,0:0:0:0:
248,183,12122,2,0,P|278:180|318:188,1,61.6000018798829,2|10,3:2|1:2,0:0:0:0:
351,230,12431,1,2,3:2:0:0:
351,230,12586,2,0,L|316:363,1,123.200003759766,2|6,1:2|1:2,0:0:0:0:
260,366,13050,5,6,3:2:0:0:
156,298,13359,1,10,3:3:0:0:
181,177,13668,1,2,3:2:0:0:
181,177,13823,1,2,1:2:0:0:
181,177,13978,1,2,3:2:0:0:
211,57,14287,6,0,P|150:38|76:20,2,123.200003759766,4|4|4,1:2|1:2|1:2,0:0:0:0:
328,20,15215,1,2,3:2:0:0:
256,192,15525,12,4,17226,3:2:0:0:
31,86,17999,6,0,P|102:76|165:68,1,112,14|2,3:2|3:2,0:0:0:0:
214,156,18617,1,10,3:3:0:0:
214,156,18772,2,0,P|285:166|348:174,1,112,2|2,1:2|1:2,0:0:0:0:
369,205,19236,6,0,P|397:183|485:165,1,112,10|2,3:3|3:2,0:0:0:0:
509,268,19854,2,0,L|487:380,1,112,10|0,3:3|3:2,0:0:0:0:
379,346,20473,6,0,L|255:331,1,112,10|2,3:3|3:2,0:0:0:0:
193,248,21092,2,0,L|186:189,1,56,10|2,3:3|1:2,0:0:0:0:
143,155,21401,1,10,3:3:0:0:
143,155,21555,6,0,P|212:136|261:110,1,112,2|2,1:2|1:2,0:0:0:0:
283,74,22019,1,10,3:3:0:0:
184,20,22329,2,0,P|129:11|36:98,1,168,10|2,3:3|1:2,0:0:0:0:
10,120,22947,6,0,P|19:178|30:247,1,112,14|2,3:3|3:2,0:0:0:0:
129,277,23566,2,0,P|137:221|146:166,1,112,10|2,3:3|3:3,0:0:0:0:
190,131,24030,1,2,1:2:0:0:
281,204,24339,5,0,1:0:0:0:
281,204,24494,2,0,P|345:184|359:183,1,56,2|2,3:2|1:2,0:0:0:0:
388,195,24803,1,10,3:3:0:0:
432,92,25112,2,0,L|424:31,1,56,2|2,3:2|1:2,0:0:0:0:
373,14,25421,6,0,L|305:10,2,56,8|10|2,3:3|3:3|1:2,0:0:0:0:
327,116,26040,2,0,L|259:120,2,56,10|8|2,3:3|1:3|1:3,0:0:0:0:
347,226,26659,6,0,L|218:245,1,112,10|10,3:3|3:3,0:0:0:0:
183,223,27122,1,0,1:0:0:0:
183,223,27277,1,10,3:3:0:0:
76,258,27586,2,0,L|67:328,1,56,0|0,3:0|3:0,0:0:0:0:
113,348,27896,6,0,P|184:358|247:366,1,112,14|2,3:2|3:2,0:0:0:0:
296,278,28514,1,10,3:3:0:0:
296,278,28669,2,0,P|367:268|430:260,1,112,2|2,1:2|1:2,0:0:0:0:
450,227,29133,6,0,P|472:199|490:111,1,112,8|2,3:3|3:2,0:0:0:0:
387,87,29751,2,0,L|275:109,1,112,10|0,3:3|3:2,0:0:0:0:
175,61,30370,6,0,L|160:185,1,112,10|2,3:3|3:2,0:0:0:0:
244,247,30989,2,0,L|251:306,1,56,10|2,3:3|1:2,0:0:0:0:
294,340,31298,1,10,3:3:0:0:
294,340,31452,6,0,P|225:359|176:385,1,112,2|2,1:2|1:2,0:0:0:0:
137,354,31916,1,10,3:3:0:0:
93,250,32226,2,0,P|84:195|171:102,1,168,10|2,3:3|1:2,0:0:0:0:
193,76,32844,6,0,P|251:85|320:96,1,112,14|2,3:3|3:2,0:0:0:0:
350,195,33463,2,0,P|294:203|239:212,1,112,10|2,3:3|3:3,0:0:0:0:
204,256,33927,1,2,1:2:0:0:
259,359,34236,5,2,1:2:0:0:
259,359,34391,2,0,P|323:339|337:338,1,56,2|2,3:2|1:2,0:0:0:0:
366,350,34700,1,10,3:3:0:0:
437,263,35009,2,0,L|429:202,1,56,0|0,1:0|1:0,0:0:0:0:
412,153,35318,6,0,L|344:149,2,56,8|10|2,3:3|3:3|1:2,0:0:0:0:
452,48,35937,2,0,L|520:44,2,56,10|10|2,3:3|3:3|1:3,0:0:0:0:
343,18,36556,6,0,L|214:-1,1,112,10|10,3:3|3:3,0:0:0:0:
179,21,37019,1,0,1:0:0:0:
179,21,37174,1,10,3:3:0:0:
120,116,37483,2,0,L|129:186,2,56,2|2|12,1:2|1:2|3:3,0:0:0:0:
232,121,38102,5,8,3:2:0:0:
291,215,38411,1,8,3:3:0:0:
402,203,38720,2,0,L|393:263,1,56,8|8,3:2|3:3,0:0:0:0:
421,307,39030,5,8,3:2:0:0:
328,370,39339,1,8,1:2:0:0:
328,370,39494,1,8,3:3:0:0:
220,337,39803,1,0,1:0:0:0:
220,337,39958,1,10,1:2:0:0:
213,225,40267,6,0,L|238:101,1,112,8|8,3:3|3:2,0:0:0:0:
208,65,40731,1,8,3:3:0:0:
114,126,41040,2,0,L|48:118,1,56,0|12,1:0|3:2,0:0:0:0:
9,105,41349,1,0,3:0:0:0:
9,105,41504,6,0,P|34:49|47:-22,2,112,0|2|10,1:0|1:2|1:3,0:0:0:0:
32,214,42432,1,14,3:2:0:0:
126,274,42741,6,0,L|206:255,1,56,10|8,3:3|1:2,0:0:0:0:
234,277,43050,1,2,1:2:0:0:
320,205,43360,2,0,L|400:186,1,56,0|10,1:0|1:2,0:0:0:0:
428,208,43669,1,2,1:2:0:0:
469,104,43978,6,0,L|389:85,1,56,10|10,3:3|1:2,0:0:0:0:
361,107,44287,1,10,3:3:0:0:
275,35,44597,2,0,L|195:16,1,56,0|8,1:0|1:2,0:0:0:0:
167,38,44906,1,0,1:0:0:0:
75,102,45215,6,0,L|82:181,1,56,12|0,1:2|1:0,0:0:0:0:
43,201,45525,2,0,P|83:200|155:223,2,112,10|10|10,1:3|3:3|3:3,0:0:0:0:
1,305,46452,1,14,3:2:0:0:
94,377,46762,1,10,3:3:0:0:
94,377,46916,2,0,P|160:353|220:358,1,112,10|10,1:2|1:2,0:0:0:0:
293,289,47535,5,10,3:3:0:0:
293,289,47689,2,0,L|309:173,2,112,0|8|8,1:0|3:3|3:3,0:0:0:0:
332,329,48463,1,8,1:2:0:0:
332,329,48617,1,8,3:3:0:0:
426,267,48927,6,0,L|434:193,1,56,10|10,3:3|1:2,0:0:0:0:
475,176,49236,2,0,L|467:102,1,56,10|10,3:3|1:2,0:0:0:0:
422,88,49545,2,0,L|430:14,2,56,10|8|8,3:3|3:2|3:3,0:0:0:0:
184,76,51710,5,10,3:2:0:0:
94,143,52019,1,10,3:2:0:0:
161,232,52329,1,2,3:3:0:0:
273,281,52638,6,0,P|327:257|395:248,1,123.200003759766,14|10,3:2|3:2,0:0:0:0:
443,216,53102,1,10,1:2:0:0:
443,216,53256,2,0,L|434:77,1,123.200003759766,10|10,3:2|3:2,0:0:0:0:
319,50,53875,5,10,3:2:0:0:
319,50,54030,1,10,1:2:0:0:
319,50,54184,2,0,L|236:66,1,61.6000018798829,10|10,3:2|1:2,0:0:0:0:
141,101,54648,2,0,L|71:88,2,61.6000018798829,10|10|10,1:2|3:2|1:2,0:0:0:0:
194,132,55112,6,0,P|153:172|138:246,1,123.200003759766,14|2,3:3|3:2,0:0:0:0:
235,308,55731,2,0,L|307:321,1,61.6000018798829,2|10,3:2|1:2,0:0:0:0:
342,358,56040,2,0,L|424:345,1,61.6000018798829,2|10,3:2|1:2,0:0:0:0:
444,302,56349,5,2,3:2:0:0:
390,190,56659,1,2,3:2:0:0:
489,117,56968,2,0,L|498:48,1,61.6000018798829,2|10,3:2|1:2,0:0:0:0:
470,5,57277,1,10,3:2:0:0:
347,18,57586,6,0,P|302:55|230:51,1,123.200003759766,14|10,3:3|3:2,0:0:0:0:
213,112,58050,1,10,1:2:0:0:
213,112,58204,2,0,L|234:238,1,123.200003759766,10|10,3:2|3:2,0:0:0:0:
238,365,58823,5,10,3:2:0:0:
238,365,58978,1,10,1:2:0:0:
238,365,59132,2,0,L|177:353,1,61.6000018798829,10|10,3:2|1:2,0:0:0:0:
67,331,59596,2,0,L|6:342,2,61.6000018798829,10|10|10,1:2|3:2|1:2,0:0:0:0:
96,276,60061,6,0,P|139:232|154:173,1,123.200003759766,10|14,3:2|3:3,0:0:0:0:
274,175,60679,2,0,P|309:120|306:44,1,123.200003759766,10|14,3:3|3:3,0:0:0:0:
203,8,61298,6,0,L|124:0,1,61.6000018798829,10|8,3:3|1:2,0:0:0:0:
83,22,61607,1,14,3:3:0:0:
13,123,61916,2,0,L|5:184,1,61.6000018798829,10|10,3:2|1:2,0:0:0:0:
52,223,62226,2,0,L|59:284,1,61.6000018798829,10|10,3:3|1:2,0:0:0:0:
29,337,62535,5,14,3:3:0:0:
148,363,62844,2,0,P|254:338|291:342,2,123.200003759766,10|10|10,3:2|3:2|3:2,0:0:0:0:
175,242,63772,5,10,3:2:0:0:
280,179,64081,1,10,3:2:0:0:
280,179,64236,2,0,P|362:168|376:135,1,123.200003759766,10|10,1:2|1:2,0:0:0:0:
356,85,64700,1,10,3:2:0:0:
356,85,64854,6,0,L|297:69,2,61.6000018798829,10|14|10,1:2|3:3|1:2,0:0:0:0:
404,46,65318,2,0,L|467:34,1,61.6000018798829,10|10,3:2|1:2,0:0:0:0:
483,161,65782,1,10,1:2:0:0:
483,161,65937,2,0,P|495:217|499:245,1,61.6000018798829,10|10,3:2|1:2,0:0:0:0:
477,280,66246,6,0,P|414:256|347:247,1,123.200003759766,10|10,3:3|3:3,0:0:0:0:
314,205,66710,1,10,1:2:0:0:
314,205,66865,2,0,P|247:215|184:241,1,123.200003759766,10|14,3:2|3:3,0:0:0:0:
96,162,67483,6,0,L|108:93,1,61.6000018798829,10|10,3:2|1:2,0:0:0:0:
86,36,67793,1,10,3:2:0:0:
86,36,67947,2,0,P|138:66|199:77,1,123.200003759766,10|10,1:2|1:2,0:0:0:0:
252,43,68411,1,10,3:2:0:0:
357,112,68720,6,0,L|345:181,1,61.6000018798829,10|10,3:2|1:2,0:0:0:0:
327,232,69030,1,10,3:2:0:0:
327,232,69184,2,0,P|275:201|215:190,1,123.200003759766,10|10,1:2|1:2,0:0:0:0:
158,212,69648,1,10,3:2:0:0:
231,310,69958,6,0,L|361:330,1,123.200003759766,10|14,3:2|3:3,0:0:0:0:
431,234,70576,1,2,3:2:0:0:
431,234,70731,2,0,L|420:148,1,61.6000018798829,10|14,1:2|3:3,0:0:0:0:
399,115,71040,1,10,1:2:0:0:
399,115,71195,5,10,3:2:0:0:
292,57,71504,2,0,P|244:90|168:106,2,123.200003759766,10|10|4,3:3|3:2|3:2,0:0:0:0:
305,179,72432,6,0,P|281:233|272:301,1,123.200003759766,14|10,3:2|3:2,0:0:0:0:
240,349,72896,1,10,1:2:0:0:
240,349,73050,2,0,L|101:340,1,123.200003759766,10|10,3:2|3:2,0:0:0:0:
10,304,73669,5,10,3:2:0:0:
10,304,73824,1,10,1:2:0:0:
10,304,73978,2,0,L|-6:221,1,61.6000018798829,10|10,3:2|1:2,0:0:0:0:
95,166,74442,2,0,L|165:153,2,61.6000018798829,10|10|10,1:2|3:2|1:2,0:0:0:0:
41,133,74906,6,0,P|82:93|97:19,1,123.200003759766,14|2,3:3|3:2,0:0:0:0:
221,35,75525,2,0,L|303:23,1,61.6000018798829,2|10,3:2|1:2,0:0:0:0:
324,71,75834,2,0,L|406:91,1,61.6000018798829,2|10,3:2|1:2,0:0:0:0:
443,68,76143,5,10,3:2:0:0:
499,177,76452,1,2,3:2:0:0:
401,252,76762,2,0,L|332:261,1,61.6000018798829,2|10,3:2|1:2,0:0:0:0:
291,221,77071,1,10,3:2:0:0:
243,334,77380,6,0,P|186:309|125:300,1,123.200003759766,14|10,3:3|3:2,0:0:0:0:
86,261,77844,1,10,1:2:0:0:
86,261,77998,2,0,L|108:122,1,123.200003759766,10|10,3:2|3:2,0:0:0:0:
235,170,78617,5,10,3:2:0:0:
235,170,78772,1,10,1:2:0:0:
235,170,78926,2,0,L|308:175,1,61.6000018798829,10|10,3:2|1:2,0:0:0:0:
405,237,79390,2,0,L|416:176,2,61.6000018798829,10|10|10,1:2|3:2|1:2,0:0:0:0:
403,298,79854,6,0,P|359:340|300:355,1,123.200003759766,10|14,3:2|3:3,0:0:0:0:
191,297,80473,2,0,L|70:272,1,123.200003759766,10|14,3:3|3:3,0:0:0:0:
102,153,81092,6,0,P|68:92|77:32,1,123.200003759766,10|14,3:3|3:3,0:0:0:0:
126,9,81555,1,10,1:2:0:0:
126,9,81710,2,0,L|187:16,1,61.6000018798829,10|10,3:2|1:2,0:0:0:0:
221,68,82020,2,0,L|282:60,1,61.6000018798829,10|10,3:3|1:2,0:0:0:0:
336,31,82329,5,14,3:3:0:0:
430,110,82638,2,0,P|456:125|486:131,2,61.6000018798829,10|10|10,3:2|1:2|3:2,0:0:0:0:
343,198,83256,1,10,3:2:0:0:
343,198,83411,2,0,L|329:258,1,61.6000018798829,10|10,1:2|3:2,0:0:0:0:
274,285,83720,6,0,P|192:274|178:241,1,123.200003759766,10|10,1:2|1:2,0:0:0:0:
180,183,84184,1,10,3:2:0:0:
271,100,84494,2,0,L|351:93,1,61.6000018798829,10|10,3:2|1:2,0:0:0:0:
392,79,84803,6,0,P|374:147|387:220,1,123.200003759766,14|10,3:3|3:2,0:0:0:0:
414,256,85267,1,10,1:2:0:0:
414,256,85421,2,0,P|346:274|289:322,1,123.200003759766,10|10,3:2|3:2,0:0:0:0:
290,365,85885,6,0,P|221:347|149:360,1,123.200003759766,10|10,1:2|1:2,0:0:0:0:
117,384,86349,1,10,3:2:0:0:
37,289,86659,1,10,3:2:0:0:
126,205,86968,5,10,3:2:0:0:
126,205,87122,1,10,1:2:0:0:
126,205,87277,2,0,P|228:193|263:167,1,123.200003759766,10|10,3:2|3:2,0:0:0:0:
298,211,87741,2,0,P|400:223|435:249,1,123.200003759766,2|2,1:2|1:2,0:0:0:0:
469,202,88205,2,0,L|483:117,1,61.6000018798829,10|2,3:2|1:2,0:0:0:0:
487,80,88514,5,4,3:2:0:0:
364,92,88823,1,4,3:2:0:0:
245,110,89133,1,4,3:2:0:0:
245,110,89287,1,4,3:2:0:0:
146,188,89597,5,8,3:2:0:0:
146,188,89751,2,0,L|128:276,1,61.6000018798829,6|2,3:2|1:2,0:0:0:0:
169,301,90061,1,8,3:3:0:0:
272,239,90369,2,0,L|398:256,1,123.200003759766,2|6,3:2|3:2,0:0:0:0:
440,118,90988,6,0,P|437:88|422:50,1,61.6000018798829,6|2,3:2|1:2,0:0:0:0:
365,55,91297,2,0,P|337:42|297:36,1,61.6000018798829,2|10,3:2|1:2,0:0:0:0:
252,64,91606,1,2,3:2:0:0:
252,64,91761,2,0,L|239:201,1,123.200003759766,2|4,1:2|1:2,0:0:0:0:
201,234,92225,5,6,3:2:0:0:
92,178,92534,1,10,3:3:0:0:
0,262,92843,1,2,3:2:0:0:
0,262,92998,1,2,1:2:0:0:
0,262,93153,1,2,3:2:0:0:
73,360,93462,6,0,P|134:341|208:323,1,123.200003759766,2|2,3:2|3:2,0:0:0:0:
267,229,94081,2,0,L|273:168,1,61.6000018798829,2|2,3:2|1:2,0:0:0:0:
305,115,94390,2,0,L|299:54,1,61.6000018798829,2|2,1:2|1:2,0:0:0:0:
349,17,94699,5,6,3:2:0:0:
470,50,95009,1,8,3:3:0:0:
472,172,95318,2,0,P|414:163|350:219,1,123.200003759766,2|6,3:2|3:2,0:0:0:0:
307,220,95782,5,4,1:2:0:0:
307,220,95937,1,6,3:2:0:0:
198,162,96246,2,0,P|167:169|132:190,1,61.6000018798829,2|10,3:2|1:2,0:0:0:0:
97,226,96554,1,2,3:2:0:0:
97,226,96709,2,0,L|131:359,1,123.200003759766,2|6,1:2|1:2,0:0:0:0:
180,376,97173,5,4,3:2:0:0:
249,274,97482,1,10,3:3:0:0:
368,250,97793,1,2,3:2:0:0:
368,250,97946,1,2,1:2:0:0:
368,250,98101,1,2,3:2:0:0:
485,212,98411,6,0,P|466:151|448:77,2,123.200003759766,6|4|4,1:2|1:2|1:2,0:0:0:0:
488,335,99338,1,2,3:2:0:0:
387,328,99648,6,0,L|267:318,1,100.799996923828,2|10,3:2|1:3,0:0:0:0:
286,218,100267,2,0,L|406:208,1,100.799996923828,8|8,1:2|1:2,0:0:0:0:
459,139,100885,2,0,P|411:62|297:28,1,201.599993847656,10|10,3:3|3:2,0:0:0:0:
