osu file format v14

[General]
AudioFilename: audio.mp3
AudioLeadIn: 0
PreviewTime: 200376
Countdown: 1
SampleSet: Normal
StackLeniency: 0.7
Mode: 0
LetterboxInBreaks: 0
WidescreenStoryboard: 0

[Editor]
Bookmarks: 10068,33328,41786,73504
DistanceSpacing: 1.7
BeatDivisor: 4
GridSize: 8
TimelineZoom: 1.7

[Metadata]
Title:Thing! Think! Ting!
TitleUnicode:Thing! Think! Ting!
Artist:MOSAIC.WAV
ArtistUnicode:MOSAIC.WAV
Creator:Musty
Version:eeee
Source:
Tags:
BeatmapID:1946352
BeatmapSetID:932197

[Difficulty]
HPDrainRate:7
CircleSize:4.2
OverallDifficulty:9.3
ApproachRate:9.7
SliderMultiplier:2
SliderTickRate:1

[Events]
//Background and Video events
0,0,"fallingbg.jpg",0,0
//Break Periods
2,42382,45520
2,50576,53449
//Storyboard Layer 0 (Background)
//Storyboard Layer 1 (Fail)
//Storyboard Layer 2 (Pass)
//Storyboard Layer 3 (Foreground)
//Storyboard Sound Samples

[TimingPoints]
1610,264.31718061674,4,1,1,40,1,0
1610,-133.333333333333,4,1,1,40,0,0
7953,-114.285714285714,4,1,1,40,0,0
10068,-100,4,2,2,50,0,0
33328,-100,4,1,1,50,0,0
73239,-100,4,1,0,50,0,0
73504,-66.6666666666667,4,1,1,50,0,1
73570,-66.6666666666667,4,1,0,50,0,1
77733,-66.6666666666667,4,1,1,50,0,1
77799,-66.6666666666667,4,1,0,50,0,1
81962,-66.6666666666667,4,1,1,50,0,1
82028,-66.6666666666667,4,1,0,50,0,1
86191,-66.6666666666667,4,1,1,50,0,1
86257,-66.6666666666667,4,1,0,50,0,1
90420,-66.6666666666667,4,1,1,50,0,0
92535,-66.6666666666667,4,3,10,50,0,0

[HitObjects]
115,297,1610,5,0,0:0:0:0:
110,207,1742,2,0,L|106:121,1,75.0000028610231
397,297,3592,5,0,0:0:0:0:
397,297,3658,1,0,0:0:0:0:
397,297,3724,1,0,0:0:0:0:
402,207,3856,2,0,L|406:121,1,75.0000028610231
255,111,5839,5,0,0:0:0:0:
221,27,5971,2,0,P|256:16|291:29,1,75.0000028610231,0|8,0:0|0:0,0:0:0:0:
186,168,6235,1,0,0:0:0:0:
186,168,6301,1,0,0:0:0:0:
186,168,6367,1,0,0:0:0:0:
326,168,6499,1,0,0:0:0:0:
326,168,6632,2,0,P|336:211|331:257,1,75.0000028610231,8|0,0:0|0:0,0:0:0:0:
256,285,6896,1,0,0:0:0:0:
256,285,6962,1,0,0:0:0:0:
256,285,7028,1,0,0:0:0:0:
177,241,7160,2,0,P|176:204|186:168,1,75.0000028610231,8|0,0:0|0:0,0:0:0:0:
155,83,7424,6,0,L|73:98,1,75.0000028610231,2|0,0:0|0:0,0:0:0:0:
357,83,7689,2,0,L|439:98,1,75.0000028610231,2|0,0:0|0:0,0:0:0:0:
334,241,7953,6,0,P|339:308|314:343,1,87.500000834465,4|0,0:0|0:0,0:0:0:0:
181,324,8217,2,0,P|168:283|178:241,1,87.500000834465,8|0,0:0|0:0,0:0:0:0:
301,150,8482,2,0,L|444:174,1,131.250001251698
416,161,8746,2,0,P|381:127|376:81,1,87.500000834465,8|0,0:0|0:0,0:0:0:0:
256,26,9010,2,0,P|222:61|176:66,1,87.500000834465
96,223,9275,2,0,P|131:257|136:303,1,87.500000834465,8|0,0:0|0:0,0:0:0:0:
129,304,9473,1,0,0:0:0:0:
122,319,9539,2,0,P|156:284|202:279,1,87.500000834465
387,338,9803,5,8,0:0:0:0:
347,320,9869,1,8,0:0:0:0:
321,285,9935,1,8,0:0:0:0:
315,242,10001,1,8,0:0:0:0:
331,202,10068,6,0,P|392:172|451:186,1,100,6|0,1:0|2:0,0:0:0:0:
357,347,10332,2,0,P|296:377|237:363,1,100,10|0,1:0|2:0,0:0:0:0:
101,305,10596,2,0,P|63:230|106:117,1,200,2|8,1:0|1:0,0:0:0:0:
234,214,10993,6,0,L|364:200,1,100,2|0,1:0|0:0,0:0:0:0:
144,378,11257,2,0,L|14:364,1,100,2|8,1:0|1:0,0:0:0:0:
153,223,11521,1,0,0:0:0:0:
336,318,11654,5,2,1:0:0:0:
44,367,11786,1,2,1:0:0:0:
336,318,11918,5,10,1:0:0:0:
44,367,12050,1,2,1:0:0:0:
365,227,12182,6,0,P|426:279|426:330,1,100,6|0,1:0|0:0,0:0:0:0:
153,223,12447,2,0,P|174:178|217:155,1,100,10|0,1:0|0:0,0:0:0:0:
248,373,12711,2,0,L|46:354,1,200,2|8,1:0|1:0,0:0:0:0:
223,148,13107,6,0,L|212:30,1,100,2|0,1:0|0:0,0:0:0:0:
417,103,13372,2,0,L|428:-15,1,100,2|8,1:0|1:0,0:0:0:0:
365,227,13636,1,0,0:0:0:0:
213,48,13768,5,2,1:0:0:0:
200,290,13900,1,2,1:0:0:0:
213,48,14032,5,10,1:0:0:0:
200,290,14164,1,2,1:0:0:0:
417,103,14297,6,0,L|307:96,1,100,6|0,1:0|0:0,0:0:0:0:
100,296,14561,2,0,L|210:289,1,100,10|0,1:0|0:0,0:0:0:0:
123,28,14825,2,0,B|90:125|90:125|141:216,1,200,2|10,1:0|1:0,0:0:0:0:
293,362,15222,2,0,P|328:277|306:235,1,100,2|0,1:0|0:0,0:0:0:0:
259,32,15486,2,0,P|224:117|246:159,1,100,2|8,1:0|0:1,0:0:0:0:
417,103,15750,1,0,0:0:0:0:
198,257,15883,5,2,1:0:0:0:
352,35,16015,1,2,1:0:0:0:
198,257,16147,5,10,1:0:0:0:
352,35,16279,1,2,1:0:0:0:
403,303,16411,6,0,L|283:314,1,100,6|0,1:0|0:0,0:0:0:0:
107,164,16676,2,0,L|227:175,1,100,10|0,1:0|0:0,0:0:0:0:
41,259,16940,2,0,P|-7:170|43:71,1,200,2|10,1:0|1:0,0:0:0:0:
158,249,17336,2,0,P|118:336|95:347,1,100,2|0,1:0|0:0,0:0:0:0:
91,179,17601,2,0,P|145:146|201:150,1,100,2|8,1:0|0:1,0:0:0:0:
118,335,17865,1,0,0:0:0:0:
27,84,17997,5,2,1:0:0:0:
255,307,18129,1,2,1:0:0:0:
27,84,18261,5,10,1:0:0:0:
255,307,18393,1,2,1:0:0:0:
111,259,18526,5,4,0:0:0:0:
474,244,18658,1,4,0:0:0:0:
99,275,18790,6,0,L|-8:283,1,100,2|0,0:0|0:0,0:0:0:0:
0,169,19054,2,0,L|107:161,1,100,2|0,0:0|0:0,0:0:0:0:
99,275,19319,2,0,L|-8:283,1,100,2|0,0:0|0:0,0:0:0:0:
0,169,19583,2,0,L|107:161,1,100,2|0,0:0|0:0,0:0:0:0:
99,275,19847,2,0,L|-8:283,1,100,2|0,0:0|0:0,0:0:0:0:
0,169,20111,2,0,L|107:161,1,100,2|0,0:0|0:0,0:0:0:0:
227,242,20376,1,0,0:0:0:0:
197,95,20508,1,0,0:0:0:0:
331,160,20640,6,0,L|438:168,1,100,2|0,0:0|0:0,0:0:0:0:
430,54,20904,2,0,L|323:46,1,100,2|0,0:0|0:0,0:0:0:0:
331,160,21169,2,0,L|438:168,1,100,2|0,0:0|0:0,0:0:0:0:
430,54,21433,2,0,L|323:46,1,100,2|0,0:0|0:0,0:0:0:0:
331,160,21697,2,0,L|438:168,1,100,2|0,0:0|0:0,0:0:0:0:
430,54,21961,2,0,L|323:46,1,100,2|0,0:0|0:0,0:0:0:0:
210,138,22226,1,0,0:0:0:0:
63,107,22358,1,0,0:0:0:0:
184,17,22491,2,0,L|141:112,1,100
76,242,22755,5,4,0:0:0:0:
439,257,22887,1,4,0:0:0:0:
60,245,23019,6,0,P|25:318|28:352,1,100,2|0,0:0|0:0,0:0:0:0:
137,370,23284,2,0,P|172:297|169:263,1,100,2|0,0:0|0:0,0:0:0:0:
60,245,23548,2,0,P|25:318|28:352,1,100,2|0,0:0|0:0,0:0:0:0:
37,333,23746,1,0,0:0:0:0:
56,328,23812,5,6,0:0:0:0:
23,44,23944,1,6,0:0:0:0:
160,374,24076,6,0,L|260:377,1,100,2|0,0:0|0:0,0:0:0:0:
388,275,24341,2,0,L|288:278,1,100,2|0,0:0|0:0,0:0:0:0:
160,374,24605,2,0,L|260:377,1,100,2|0,0:0|0:0,0:0:0:0:
388,275,24869,5,4,0:0:0:0:
17,149,25002,2,0,L|7:43,1,100,4|0,0:0|0:0,0:0:0:0:
284,178,25266,2,0,L|258:390,1,200,4|0,0:0|0:0,0:0:0:0:
214,93,25662,2,0,P|334:64|387:153,1,200,6|0,0:0|0:0,0:0:0:0:
183,211,26059,2,0,P|117:152|113:110,1,100,2|0,0:0|0:0,0:0:0:0:
35,304,26323,2,0,L|270:281,1,200,2|0,0:0|0:0,0:0:0:0:
16,194,26720,1,0,0:0:0:0:
137,371,26852,1,0,0:0:0:0:
67,100,26984,5,4,0:0:0:0:
411,251,27116,1,4,0:0:0:0:
53,89,27248,6,0,L|158:84,1,100,2|0,0:0|0:0,0:0:0:0:
242,197,27513,2,0,L|137:192,1,100,2|0,0:0|0:0,0:0:0:0:
53,89,27777,2,0,L|158:84,1,100,2|0,0:0|0:0,0:0:0:0:
242,197,28042,2,0,L|137:192,1,100,2|0,0:0|0:0,0:0:0:0:
53,89,28306,2,0,L|158:84,1,100,2|0,0:0|0:0,0:0:0:0:
242,197,28571,2,0,L|137:192,1,100,2|0,0:0|0:0,0:0:0:0:
280,78,28834,2,0,L|385:73,1,100,2|0,0:0|0:0,0:0:0:0:
463,209,29098,6,0,L|358:204,1,100,2|0,0:0|0:0,0:0:0:0:
201,340,29363,2,0,P|275:314|325:321,1,100,2|0,0:0|0:0,0:0:0:0:
103,158,29627,1,0,0:0:0:0:
128,285,29759,2,0,P|54:311|4:304,1,100,2|0,0:0|0:0,0:0:0:0:
61,83,30024,2,0,P|131:70|181:197,1,200,2|0,0:0|0:0,0:0:0:0:
2,123,30420,2,0,L|32:-4,1,100,2|0,0:0|0:0,0:0:0:0:
218,259,30684,2,0,L|240:356,1,100,2|0,0:0|0:0,0:0:0:0:
240,356,30883,1,0,0:0:0:0:
240,356,30949,1,0,0:0:0:0:
351,288,31081,1,0,0:0:0:0:
472,334,31213,5,4,0:0:0:0:
89,213,31345,1,4,0:0:0:0:
459,316,31477,6,0,P|442:265|456:208,1,100,2|0,0:0|0:0,0:0:0:0:
343,144,31742,2,0,P|360:93|346:36,1,100,2|0,0:0|0:0,0:0:0:0:
159,48,32006,2,0,P|152:97|169:144,1,100,2|0,0:0|0:0,0:0:0:0:
40,334,32270,5,4,0:0:0:0:
423,213,32402,1,4,0:0:0:0:
47,315,32535,6,0,L|79:185,1,100,2|0,0:0|0:0,0:0:0:0:
198,339,32799,1,0,3:0:0:0:
66,88,32931,1,0,3:0:0:0:
110,91,32997,1,0,3:0:0:0:
154,92,33063,1,0,3:0:0:0:
198,94,33129,1,0,3:0:0:0:
242,96,33195,1,0,3:0:0:0:
286,101,33261,1,0,0:0:0:0:
331,105,33328,6,0,P|377:65|395:28,1,100,2|0,0:0|0:0,0:0:0:0:
190,106,33592,2,0,P|144:146|126:183,1,100,10|0,0:0|0:0,0:0:0:0:
371,318,33856,1,2,0:0:0:0:
281,201,33988,1,0,0:0:0:0:
146,384,34121,1,8,0:0:0:0:
252,299,34253,1,0,0:0:0:0:
7,161,34385,5,2,0:0:0:0:
97,278,34517,1,0,0:0:0:0:
232,95,34650,1,8,0:0:0:0:
126,180,34782,1,0,0:0:0:0:
19,57,34913,2,0,L|130:68,1,100,2|0,0:0|0:0,0:0:0:0:
380,191,35178,2,0,L|269:202,1,100,8|0,0:0|0:0,0:0:0:0:
487,83,35442,5,2,0:0:0:0:
456,223,35574,1,0,0:0:0:0:
273,93,35706,1,8,0:0:0:0:
398,113,35839,1,0,0:0:0:0:
304,295,35971,1,2,0:0:0:0:
324,170,36104,1,0,0:0:0:0:
194,353,36236,1,8,0:0:0:0:
334,384,36368,1,0,0:0:0:0:
25,301,36499,5,2,0:0:0:0:
56,161,36631,1,0,0:0:0:0:
239,291,36763,1,8,0:0:0:0:
114,271,36896,1,0,0:0:0:0:
208,89,37028,1,2,0:0:0:0:
188,214,37161,1,0,0:0:0:0:
318,31,37293,1,8,0:0:0:0:
178,0,37425,1,0,0:0:0:0:
377,122,37557,6,0,P|425:70|428:29,1,100,2|0,0:0|0:0,0:0:0:0:
134,125,37821,2,0,P|86:177|83:218,1,100,8|0,0:0|0:0,0:0:0:0:
324,335,38085,5,2,0:0:0:0:
163,356,38217,1,0,0:0:0:0:
272,177,38350,1,8,0:0:0:0:
234,281,38482,1,0,0:0:0:0:
502,233,38614,1,2,0:0:0:0:
341,254,38746,1,0,0:0:0:0:
450,75,38879,1,8,0:0:0:0:
412,179,39011,1,0,0:0:0:0:
253,98,39143,5,2,0:0:0:0:
92,77,39275,1,0,0:0:0:0:
201,256,39408,1,8,0:0:0:0:
163,152,39540,1,0,0:0:0:0:
431,200,39672,1,2,0:0:0:0:
270,179,39804,1,0,0:0:0:0:
379,358,39937,1,8,0:0:0:0:
341,254,40069,1,0,0:0:0:0:
167,339,40200,6,0,L|286:348,1,100,2|0,0:0|0:0,0:0:0:0:
512,239,40464,2,0,L|393:248,1,100,8|0,0:0|0:0,0:0:0:0:
395,99,40728,5,2,0:0:0:0:
472,324,40861,1,0,0:0:0:0:
474,153,40993,1,8,0:0:0:0:
397,378,41126,1,0,0:0:0:0:
296,93,41257,1,2,0:0:0:0:
219,318,41390,1,0,0:0:0:0:
217,147,41522,1,8,0:0:0:0:
294,372,41655,1,0,0:0:0:0:
185,232,41786,5,0,0:0:0:0:
108,354,41918,2,0,P|133:242|102:123,1,200,2|0,0:0|2:0,0:0:0:0:
327,232,46015,5,0,0:0:0:0:
404,354,46147,2,0,P|379:242|425:47,1,300,2|0,0:0|2:0,0:0:0:0:
77,79,46940,5,0,0:0:0:0:
246,155,47072,2,0,P|118:111|0:226,1,300,2|0,0:0|0:0,0:0:0:0:
288,359,47601,2,0,B|256:290|294:233|308:263|390:173|307:77,1,300,2|0,0:0|0:0,0:0:0:0:
167,263,48129,2,0,L|278:275,1,100,2|0,0:0|0:0,0:0:0:0:
69,327,48394,1,0,0:0:0:0:
27,128,48526,2,0,P|115:186|263:133,1,250,2|0,0:0|0:0,0:0:0:0:
247,150,48922,1,0,0:0:0:0:
173,98,49054,1,0,0:0:0:0:
167,263,49187,6,0,L|156:375,1,100,2|0,0:0|0:0,0:0:0:0:
12,256,49451,1,0,0:0:0:0:
303,37,49583,2,0,P|337:101|275:274,1,250,2|0,0:0|0:0,0:0:0:0:
289,262,49980,1,0,0:0:0:0:
243,185,50112,1,0,0:0:0:0:
424,202,50244,1,0,0:0:0:0:
383,281,50376,1,2,0:0:0:0:
350,306,53944,6,0,P|252:331|170:321,1,150
164,305,54209,1,0,0:0:0:0:
180,216,54341,1,0,0:0:0:0:
95,185,54473,5,0,0:0:0:0:
282,84,54605,2,0,P|141:53|-7:112,1,300,2|0,0:0|0:0,0:0:0:0:
42,186,55134,1,0,0:0:0:0:
7,268,55266,1,0,0:0:0:0:
60,340,55398,1,0,0:0:0:0:
7,267,55530,5,2,0:0:0:0:
263,330,55662,1,0,0:0:0:0:
127,229,55795,1,0,0:0:0:0:
164,367,55927,1,0,0:0:0:0:
216,234,56059,1,0,0:0:0:0:
196,156,56191,1,0,0:0:0:0:
202,76,56323,5,0,0:0:0:0:
235,49,56389,1,0,0:0:0:0:
274,48,56455,1,0,0:0:0:0:
308,68,56521,1,0,0:0:0:0:
327,102,56587,6,0,L|406:95,1,50
403,67,56720,2,0,P|399:233|449:341,1,250
345,355,57116,6,0,P|298:284|45:330,1,350,4|0,0:0|0:0,0:0:0:0:
124,371,57645,6,0,P|149:276|76:216,1,200
26,156,58041,1,0,0:0:0:0:
79,96,58173,2,0,L|286:81,1,200,4|0,0:0|0:0,0:0:0:0:
351,47,58570,1,0,0:0:0:0:
342,208,58702,2,0,P|333:153|419:201,1,200
266,237,59098,1,0,0:0:0:0:
328,287,59231,2,0,P|337:342|251:294,1,200
169,343,59627,1,0,0:0:0:0:
81,264,59759,6,0,P|149:253|181:262,1,100
182,180,60024,2,0,P|133:171|84:183,1,100
83,103,60288,6,0,P|151:92|183:101,1,100,4|0,0:0|0:0,0:0:0:0:
184,19,60553,2,0,P|135:10|86:22,1,100
195,107,60817,6,0,L|402:87,1,200
455,36,61213,1,0,0:0:0:0:
445,152,61345,2,0,P|438:217|345:345,1,200,4|0,0:0|0:0,0:0:0:0:
299,284,61742,2,0,P|165:270|91:321,1,200
41,262,62138,6,0,P|71:182|76:157,1,100
174,169,62402,2,0,P|138:91|124:70,1,100
309,25,62667,2,0,P|251:18|197:33,1,100
379,153,62931,2,0,P|472:114|480:45,1,150
483,74,63195,2,0,P|507:199|513:213,1,100
437,226,63460,1,0,0:0:0:0:
477,295,63592,1,0,0:0:0:0:
391,360,63724,2,0,L|260:349,1,100
221,312,63988,5,0,0:0:0:0:
145,340,64121,1,0,0:0:0:0:
73,304,64253,1,0,0:0:0:0:
71,224,64385,1,0,0:0:0:0:
130,170,64517,1,0,0:0:0:0:
209,175,64649,1,0,0:0:0:0:
248,168,64715,1,0,0:0:0:0:
284,151,64781,1,0,0:0:0:0:
316,78,64913,1,0,0:0:0:0:
219,20,65046,1,0,0:0:0:0:
358,240,65178,6,0,L|486:231,1,100
457,232,65442,1,0,0:0:0:0:
352,360,65574,2,0,B|331:347|331:347|126:371|59:289,1,300,4|0,0:0|0:0,0:0:0:0:
70,218,66103,1,0,0:0:0:0:
127,164,66235,6,0,P|193:221|197:247,1,100
195,229,66499,1,0,0:0:0:0:
10,118,66632,2,0,B|26:134|26:134|134:37|302:39,1,300,4|0,0:0|0:0,0:0:0:0:
356,64,67160,1,0,0:0:0:0:
387,137,67292,6,0,P|441:133|407:100,1,100
433,107,67557,1,0,0:0:0:0:
314,187,67689,2,0,P|425:259|393:200,1,400,4|0,0:0|0:0,0:0:0:0:
343,263,68350,1,0,0:0:0:0:
176,131,68482,1,0,0:0:0:0:
152,207,68614,1,0,0:0:0:0:
66,146,68746,2,4,P|54:56|73:-12,1,150
56,169,69010,2,4,P|70:242|57:315,1,150
31,332,69275,5,4,0:0:0:0:
187,364,69407,1,0,0:0:0:0:
146,208,69539,1,8,0:0:0:0:
99,380,69671,1,0,0:0:0:0:
237,249,69803,6,0,P|240:180|212:136,1,100,2|0,0:0|0:0,0:0:0:0:
63,64,70068,2,0,P|46:110|53:159,1,100,10|0,0:0|0:0,0:0:0:0:
249,67,70332,1,2,0:0:0:0:
138,213,70464,1,0,0:0:0:0:
135,17,70596,1,8,0:0:0:0:
237,249,70728,1,0,0:0:0:0:
53,159,70861,6,0,L|151:119,1,100,2|0,0:0|0:0,0:0:0:0:
415,324,71125,2,0,L|317:284,1,100,8|0,0:0|0:0,0:0:0:0:
129,355,71389,5,4,0:0:0:0:
266,180,71521,1,0,0:0:0:0:
246,366,71654,1,8,0:0:0:0:
152,216,71786,1,0,0:0:0:0:
152,216,71918,2,0,P|143:167|164:117,1,100,2|0,0:0|0:0,0:0:0:0:
360,216,72182,2,0,P|369:167|348:117,1,100,2|0,0:0|0:0,0:0:0:0:
314,105,72380,1,0,0:0:0:0:
276,90,72447,5,0,0:0:0:0:
319,56,72513,1,0,0:0:0:0:
373,50,72579,1,0,0:0:0:0:
426,60,72645,1,0,0:0:0:0:
463,100,72711,1,0,0:0:0:0:
479,152,72777,1,0,0:0:0:0:
473,206,72843,1,0,0:0:0:0:
450,256,72909,1,0,0:0:0:0:
399,278,72975,6,0,P|348:366|397:393,1,150
318,358,73239,5,0,0:0:0:0:
304,293,73306,1,0,0:0:0:0:
293,228,73372,1,0,0:0:0:0:
283,163,73438,1,0,0:0:0:0:
267,90,73504,6,0,P|138:60|80:68,1,150.000005722046,6|0,0:3|0:0,0:0:0:0:
53,298,73768,2,0,P|182:328|240:320,1,150.000005722046,8|0,0:0|0:0,0:0:0:0:
344,52,74032,5,2,0:0:0:0:
116,186,74165,1,0,0:0:0:0:
419,268,74297,1,8,0:0:0:0:
206,32,74429,1,0,0:0:0:0:
280,376,74561,2,0,P|293:302|281:228,1,150.000005722046,2|0,0:0|0:0,0:0:0:0:
0,101,74825,2,0,P|-11:174|1:248,1,150.000005722046,8|0,0:0|0:0,0:0:0:0:
139,333,75090,5,2,0:0:0:0:
277,79,75222,1,0,0:0:0:0:
67,171,75354,1,8,0:0:0:0:
377,324,75486,1,0,0:0:0:0:
168,0,75618,2,0,L|156:161,1,150.000005722046,2|0,0:0|0:0,0:0:0:0:
471,245,75883,2,0,P|371:219|195:290,1,300.000011444092,14|0,0:0|0:0,0:0:0:0:
292,23,76279,2,0,P|342:62|440:64,1,150.000005722046,2|8,0:0|0:0,0:0:0:0:
363,328,76543,1,0,0:0:0:0:
77,190,76676,5,8,0:0:0:0:
219,6,76808,1,0,0:0:0:0:
185,338,76940,5,8,0:0:0:0:
123,74,77072,1,0,0:0:0:0:
435,190,77204,5,8,0:0:0:0:
293,6,77336,1,0,0:0:0:0:
327,338,77468,5,8,0:0:0:0:
389,74,77600,1,0,0:0:0:0:
94,273,77733,6,0,P|201:241|276:284,1,150.000005722046,6|0,0:3|0:0,0:0:0:0:
476,144,77997,2,0,P|369:176|294:133,1,150.000005722046,8|0,0:0|0:0,0:0:0:0:
152,23,78261,1,2,0:0:0:0:
320,327,78394,1,0,0:0:0:0:
67,184,78526,1,8,0:0:0:0:
389,74,78658,1,0,0:0:0:0:
177,326,78790,6,0,L|188:141,1,150.000005722046,2|0,0:0|0:0,0:0:0:0:
485,3,79054,2,0,L|493:152,1,150.000005722046,8|0,0:0|0:0,0:0:0:0:
92,99,79319,2,0,P|206:60|307:194,1,300.000011444092,2|8,0:0|0:0,0:0:0:0:
73,350,79715,2,0,P|-9:202|77:11,1,375.000014305115,2|0,0:0|0:0,0:0:0:0:
96,21,80112,6,0,L|252:13,1,150.000005722046,10|0,0:0|0:0,0:0:0:0:
350,270,80376,1,2,0:0:0:0:
512,105,80508,2,0,L|356:97,1,150.000005722046,2|8,0:0|0:0,0:0:0:0:
128,246,80772,1,0,0:0:0:0:
441,368,80905,5,8,0:0:0:0:
348,142,81037,1,0,0:0:0:0:
350,341,81169,5,8,0:0:0:0:
301,44,81301,1,0,0:0:0:0:
162,341,81433,5,8,0:0:0:0:
211,44,81565,1,0,0:0:0:0:
71,368,81698,5,8,0:0:0:0:
164,142,81830,1,0,0:0:0:0:
350,341,81962,6,0,P|295:288|286:198,1,150.000005722046,6|0,0:3|0:0,0:0:0:0:
445,27,82226,2,0,P|500:80|509:170,1,150.000005722046,8|0,0:0|0:0,0:0:0:0:
241,57,82491,1,2,0:0:0:0:
408,262,82623,1,0,0:0:0:0:
130,200,82755,1,8,0:0:0:0:
392,90,82887,1,0,0:0:0:0:
226,355,83019,6,0,L|239:150,1,150.000005722046,2|0,0:0|0:0,0:0:0:0:
56,21,83284,2,0,L|43:226,1,150.000005722046,8|0,0:0|0:0,0:0:0:0:
225,355,83548,2,0,L|411:367,1,150.000005722046,2|0,0:0|0:0,0:0:0:0:
512,218,83812,2,0,L|326:206,1,150.000005722046,8|0,0:0|0:0,0:0:0:0:
92,291,84076,1,2,0:0:0:0:
219,68,84209,1,0,0:0:0:0:
338,292,84341,1,8,0:0:0:0:
0,179,84473,6,0,P|-8:60|163:78,1,300.000011444092,2|0,0:0|0:0,0:0:0:0:
392,135,84869,2,0,L|232:154,1,150.000005722046,2|0,0:0|0:0,0:0:0:0:
81,123,85134,5,8,0:0:0:0:
334,34,85266,1,0,0:0:0:0:
178,34,85398,5,8,0:0:0:0:
431,123,85530,1,0,0:0:0:0:
81,261,85662,5,8,0:0:0:0:
334,350,85794,1,0,0:0:0:0:
178,350,85926,5,8,0:0:0:0:
431,261,86058,1,0,0:0:0:0:
188,119,86191,6,0,L|202:288,1,150.000005722046,6|0,0:3|0:0,0:0:0:0:
435,169,86455,2,0,L|447:19,1,150.000005722046,8|0,0:0|0:0,0:0:0:0:
156,30,86720,2,0,P|95:106|118:176,1,150.000005722046,2|0,0:0|0:0,0:0:0:0:
407,352,86984,2,0,P|407:279|353:230,1,150.000005722046,8|0,0:0|0:0,0:0:0:0:
48,286,87248,5,2,0:0:0:0:
301,308,87380,1,0,0:0:0:0:
177,106,87513,1,10,0:0:0:0:
140,358,87645,1,0,0:0:0:0:
118,190,87777,5,2,0:0:0:0:
371,212,87909,1,0,0:0:0:0:
247,10,88042,1,10,0:0:0:0:
210,262,88173,2,0,B|339:105|524:211,1,300.000011444092,2|0,0:0|0:0,0:0:0:0:
151,350,88570,6,0,P|103:277|117:208,1,150.000005722046,10|0,0:0|0:0,0:0:0:0:
458,348,88834,1,0,0:0:0:0:
200,112,88966,2,0,L|204:277,1,150.000005722046,2|8,0:0|0:0,0:0:0:0:
315,351,89231,1,0,0:0:0:0:
447,235,89363,5,8,0:0:0:0:
200,112,89495,1,0,0:0:0:0:
447,149,89627,5,8,0:0:0:0:
200,272,89759,1,0,0:0:0:0:
65,235,89891,5,8,0:0:0:0:
312,112,90023,1,0,0:0:0:0:
65,149,90155,5,8,0:0:0:0:
312,272,90287,1,0,0:0:0:0:
169,35,90420,6,0,L|160:203,1,150.000005722046,2|0,0:0|0:0,0:0:0:0:
362,341,90684,1,0,0:0:0:0:
0,314,90817,2,0,B|58:264|147:254|135:300|121:349|230:350|311:266|311:213|288:157|248:119,1,450.000017166138,2|0,0:0|0:0,0:0:0:0:
160,184,91345,1,0,0:0:0:0:
452,304,91477,5,0,0:0:0:0:
452,304,91609,2,0,P|408:246|336:243,1,150.000005722046,2|0,0:0|0:0,0:0:0:0:
47,28,91874,2,0,B|81:103|185:107|177:51|164:-4|347:1|351:142,1,375.000014305115,2|0,0:0|0:0,0:0:0:0:
356,142,92270,2,0,P|407:80|492:91,1,150.000005722046,2|0,0:0|0:0,0:0:0:0:
441,170,92535,1,2,0:0:0:0:
