osu file format v14

[General]
AudioFilename: audio.mp3
AudioLeadIn: 0
PreviewTime: 45796
Countdown: 0
SampleSet: None
StackLeniency: 0.7
Mode: 3
LetterboxInBreaks: 0
SpecialStyle: 0
WidescreenStoryboard: 1

[Editor]
DistanceSpacing: 1.4
BeatDivisor: 4
GridSize: 32
TimelineZoom: 1.6

[Metadata]
Title:Saikyou OX Keikaku
TitleUnicode:最強○×計画
Artist:MOSAIC.WAV
ArtistUnicode:MOSAIC.WAV
Creator:SReisen
Version:Yome~
Source:すもももももも
Tags:Masaya Koike Hajime Kanasugi Susumu Kayamori LACM-4313 Marubatsu The Strongest Family Planning female vocal opening
BeatmapID:4556574
BeatmapSetID:2160764

[Difficulty]
HPDrainRate:7.5
CircleSize:4
OverallDifficulty:8
ApproachRate:5
SliderMultiplier:1.4
SliderTickRate:1

[Events]
//Background and Video events
0,0,"bg.jpeg",0,0
//Break Periods
//Storyboard Layer 0 (Background)
//Storyboard Layer 1 (Fail)
//Storyboard Layer 2 (Pass)
//Storyboard Layer 3 (Foreground)
//Storyboard Layer 4 (Overlay)
//Storyboard Sound Samples

[TimingPoints]
796,340.909090909091,4,2,1,50,1,0
6250,-133.333333333333,4,2,1,50,0,0
6421,-66.6666666666667,4,2,1,50,0,0
6591,-133.333333333333,4,2,1,50,0,0
6761,-66.6666666666667,4,2,1,50,0,0
6932,-133.333333333333,4,2,1,50,0,0
7102,-66.6666666666667,4,2,1,50,0,0
7273,-133.333333333333,4,2,1,50,0,0
7614,-66.6666666666667,4,2,1,50,0,0
7784,-133.333333333333,4,2,1,50,0,0
7869,-66.6666666666667,4,2,1,50,0,0
7955,-133.333333333333,4,2,1,50,0,0
8125,-66.6666666666667,4,2,1,50,0,0
8296,-100,4,2,1,50,0,0
8636,-66.6666666666667,4,2,1,50,0,0
8807,-133.333333333333,4,2,1,50,0,0
8977,-100,4,2,1,50,0,0
21080,-133.333333333333,4,2,1,50,0,0
21250,-66.6666666666667,4,2,1,50,0,0
21421,-100,4,2,1,50,0,0
22273,-133.333333333333,4,2,1,50,0,0
22443,-66.6666666666667,4,2,1,50,0,0
22614,-100,4,2,1,50,0,0
25171,-66.6666666666667,4,2,1,50,0,0
25341,-133.333333333333,4,2,1,50,0,0
25511,-100,4,2,1,50,0,0
26534,-66.6666666666667,4,2,1,50,0,0
26705,-133.333333333333,4,2,1,50,0,0
26875,-100,4,2,1,50,0,0
30625,-66.6666666666667,4,2,1,50,0,0
30796,-133.333333333333,4,2,1,50,0,0
30966,-100,4,2,1,50,0,0
31307,-66.6666666666667,4,2,1,50,0,0
31477,-133.333333333333,4,2,1,50,0,0
31648,-100,4,2,1,50,0,0
31989,-66.6666666666667,4,2,1,50,0,0
32159,-133.333333333333,4,2,1,50,0,0
32330,-100,4,2,1,50,0,0
33352,-66.6666666666667,4,2,1,50,0,0
33523,-133.333333333333,4,2,1,50,0,0
33693,-100,4,2,1,50,0,0
34205,-133.333333333333,4,2,1,50,0,0
34375,-66.6666666666667,4,2,1,50,0,0
34546,-100,4,2,1,50,0,0
44261,-133.333333333333,4,2,1,50,0,0
44432,-66.6666666666667,4,2,1,50,0,0
44602,-133.333333333333,4,2,1,50,0,0
44773,-66.6666666666667,4,2,1,50,0,0
44943,-133.333333333333,4,2,1,50,0,0
45028,-66.6666666666667,4,2,1,50,0,0
45114,-100,4,2,1,50,0,0
45455,-66.6666666666667,4,2,1,50,0,0
45625,-133.333333333333,4,2,1,50,0,0
45796,-100,4,2,1,50,0,0
56364,-66.6666666666667,4,2,1,50,0,0
56534,-133.333333333333,4,2,1,50,0,0
56875,-66.6666666666667,4,2,1,50,0,0
57046,-100,4,2,1,50,0,0
59432,-133.333333333333,4,2,1,50,0,0
59602,-66.6666666666667,4,2,1,50,0,0
59773,-100,4,2,1,50,0,0
66591,-133.333333333333,4,2,1,50,0,0
66761,-66.6666666666667,4,2,1,50,0,0
66932,-100,4,2,1,50,0,0
86705,-133.333333333333,4,2,1,50,0,0
87386,-117.647058823529,4,2,1,50,0,0
88068,-100,4,2,1,50,0,0
93182,-66.6666666666667,4,2,1,50,0,0
93352,-133.333333333333,4,2,1,50,0,0
93523,-100,4,2,1,50,0,0
96080,-66.6666666666667,4,2,1,50,0,0
96250,-133.333333333333,4,2,1,50,0,0
96421,-100,4,2,1,50,0,0
97443,-66.6666666666667,4,2,1,50,0,0
97614,-133.333333333333,4,2,1,50,0,0
97784,-100,4,2,1,50,0,0
101534,-66.6666666666667,4,2,1,50,0,0
101705,-133.333333333333,4,2,1,50,0,0
101875,-100,4,2,1,50,0,0
102216,-66.6666666666667,4,2,1,50,0,0
102386,-133.333333333333,4,2,1,50,0,0
102557,-100,4,2,1,50,0,0
102898,-66.6666666666667,4,2,1,50,0,0
103068,-133.333333333333,4,2,1,50,0,0
103239,-100,4,2,1,50,0,0
104261,-66.6666666666667,4,2,1,50,0,0
104432,-133.333333333333,4,2,1,50,0,0
104602,-100,4,2,1,50,0,0
105114,-66.6666666666667,4,2,1,50,0,0
105284,-133.333333333333,4,2,1,50,0,0
105455,-100,4,2,1,50,0,0
115171,-133.333333333333,4,2,1,50,0,0
115341,-66.6666666666667,4,2,1,50,0,0
115511,-133.333333333333,4,2,1,50,0,0
115682,-66.6666666666667,4,2,1,50,0,0
115852,-133.333333333333,4,2,1,50,0,0
115938,-66.6666666666667,4,2,1,50,0,0
116023,-100,4,2,1,50,0,0
116364,-66.6666666666667,4,2,1,50,0,0
116534,-133.333333333333,4,2,1,50,0,0
116705,-100,4,2,1,50,0,0
127273,-66.6666666666667,4,2,1,50,0,0
127443,-133.333333333333,4,2,1,50,0,0
127784,-66.6666666666667,4,2,1,50,0,0
127955,-100,4,2,1,50,0,0
130341,-133.333333333333,4,2,1,50,0,0
130511,-66.6666666666667,4,2,1,50,0,0
130682,-100,4,2,1,50,0,0
137330,-133.333333333333,4,2,1,50,0,0
137415,-66.6666666666667,4,2,1,50,0,0
137500,-133.333333333333,4,2,1,50,0,0
137671,-66.6666666666667,4,2,1,50,0,0
137841,-100,4,2,1,50,0,0
138182,-66.6666666666667,4,2,1,50,0,0
138352,-133.333333333333,4,2,1,50,0,0
138523,-100,4,2,1,50,0,0
168182,-133.333333333333,4,2,1,50,0,0
168352,-66.6666666666667,4,2,1,50,0,0
168523,-100,4,2,1,50,0,1
187614,-100,4,2,1,50,0,0
194943,-66.6666666666667,4,2,1,50,0,0
195114,-133.333333333333,4,2,1,50,0,0
195284,-100,4,2,1,50,0,0
205852,-66.6666666666667,4,2,1,50,0,0
206023,-133.333333333333,4,2,1,50,0,0
206193,-100,4,2,1,50,0,0
215909,-133.333333333333,4,2,1,50,0,0
215994,-66.6666666666667,4,2,1,50,0,0
216080,-133.333333333333,4,2,1,50,0,0
216250,-66.6666666666667,4,2,1,50,0,0
216421,-100,4,2,1,50,0,0
236193,-133.333333333333,4,2,1,50,0,0
236364,-66.6666666666667,4,2,1,50,0,0
236534,-133.333333333333,4,2,1,50,0,0
236705,-66.6666666666667,4,2,1,50,0,0
236875,-133.333333333333,4,2,1,50,0,0
237046,-66.6666666666667,4,2,1,50,0,0
237216,-133.333333333333,4,2,1,50,0,0
237557,-66.6666666666667,4,2,1,50,0,0
237727,-133.333333333333,4,2,1,50,0,0
237813,-66.6666666666667,4,2,1,50,0,0
237898,-133.333333333333,4,2,1,50,0,0
238068,-66.6666666666667,4,2,1,50,0,0
238239,-100,4,2,1,50,0,0

[HitObjects]
192,192,1136,5,0,0:0:0:0:
320,192,1222,128,0,6250:0:0:0:0:
192,192,2585,1,0,0:0:0:0:
64,192,5057,5,0,0:0:0:0:
192,192,5227,1,0,0:0:0:0:
448,192,5568,1,0,0:0:0:0:
64,192,5739,1,0,0:0:0:0:
448,192,5909,1,0,0:0:0:0:
64,192,6250,1,2,0:0:0:0:
192,192,6250,1,0,0:0:0:0:
320,192,6591,1,0,0:0:0:0:
192,192,6591,1,2,0:0:0:0:
448,192,6932,1,0,0:0:0:0:
320,192,6932,1,2,0:0:0:0:
64,192,7273,1,0,0:0:0:0:
192,192,7273,1,2,0:0:0:0:
320,192,7784,1,0,0:0:0:0:
448,192,7784,1,2,0:0:0:0:
192,192,7955,1,0,0:0:0:0:
64,192,7955,1,2,0:0:0:0:
320,192,8296,1,2,0:0:0:0:
448,192,8296,1,0,0:0:0:0:
192,192,8466,1,2,0:0:0:0:
320,192,8551,1,2,0:0:0:0:
64,192,8636,1,8,0:0:0:0:
448,192,8636,1,0,0:0:0:0:
192,192,8636,1,4,0:0:0:0:
64,192,8977,1,2,0:0:0:0:
192,192,8977,1,0,0:0:0:0:
448,192,8977,1,4,0:0:0:0:
320,192,9063,1,0,0:0:0:0:
192,192,9148,128,0,9318:0:0:0:0:
448,192,9318,1,8,0:0:0:0:
320,192,9318,128,0,9489:0:0:0:0:
64,192,9489,128,0,9659:0:0:0:0:
448,192,9659,128,0,9830:0:0:0:0:
192,192,9659,1,2,0:0:0:0:
320,192,9830,128,2,10000:0:0:0:0:
64,192,10000,1,0,0:0:0:0:
192,192,10000,1,8,0:0:0:0:
448,192,10171,1,0,0:0:0:0:
320,192,10341,1,2,0:0:0:0:
64,192,10341,1,0,0:0:0:0:
192,192,10511,1,0,0:0:0:0:
320,192,10682,1,8,0:0:0:0:
448,192,10682,1,0,0:0:0:0:
192,192,10852,1,0,0:0:0:0:
320,192,10938,1,2,0:0:0:0:
448,192,11023,1,2,0:0:0:0:
64,192,11023,1,0,0:0:0:0:
192,192,11108,1,0,0:0:0:0:
320,192,11193,1,2,0:0:0:0:
64,192,11364,1,8,0:0:0:0:
192,192,11364,1,0,0:0:0:0:
448,192,11534,1,0,0:0:0:0:
320,192,11705,1,2,0:0:0:0:
192,192,11705,1,0,0:0:0:0:
64,192,11790,1,0,0:0:0:0:
192,192,11875,128,0,12046:0:0:0:0:
320,192,12046,1,8,0:0:0:0:
448,192,12046,128,0,12216:0:0:0:0:
192,192,12216,128,0,12386:0:0:0:0:
64,192,12386,128,0,12557:0:0:0:0:
448,192,12386,1,2,0:0:0:0:
192,192,12557,128,2,12727:0:0:0:0:
448,192,12727,1,0,0:0:0:0:
320,192,12727,1,8,0:0:0:0:
320,192,12898,128,0,13068:0:0:0:0:
64,192,13068,1,8,0:0:0:0:
192,192,13068,128,0,13239:0:0:0:0:
448,192,13239,128,0,13409:0:0:0:0:
320,192,13409,128,0,13580:0:0:0:0:
192,192,13409,1,2,0:0:0:0:
64,192,13580,128,0,14261:0:0:0:0:
192,192,13750,1,0,0:0:0:0:
448,192,13750,1,8,0:0:0:0:
448,192,13921,1,8,0:0:0:0:
320,192,14091,1,8,0:0:0:0:
192,192,14091,1,4,0:0:0:0:
192,192,14432,1,2,0:0:0:0:
448,192,14432,1,0,0:0:0:0:
64,192,14517,1,0,0:0:0:0:
320,192,14602,128,0,14773:0:0:0:0:
448,192,14773,1,8,0:0:0:0:
192,192,14773,128,0,14943:0:0:0:0:
448,192,14943,128,0,15114:0:0:0:0:
64,192,15114,128,0,15284:0:0:0:0:
192,192,15114,1,2,0:0:0:0:
320,192,15284,128,0,15455:0:0:0:0:
64,192,15455,1,0,0:0:0:0:
448,192,15455,1,8,0:0:0:0:
192,192,15625,1,0,0:0:0:0:
448,192,15796,1,2,0:0:0:0:
320,192,15796,1,0,0:0:0:0:
192,192,15966,1,0,0:0:0:0:
64,192,16136,1,8,0:0:0:0:
448,192,16136,1,0,0:0:0:0:
320,192,16307,1,0,0:0:0:0:
192,192,16392,1,2,0:0:0:0:
448,192,16477,1,2,0:0:0:0:
320,192,16477,1,0,0:0:0:0:
64,192,16563,1,0,0:0:0:0:
192,192,16648,1,2,0:0:0:0:
448,192,16818,1,8,0:0:0:0:
64,192,16818,1,0,0:0:0:0:
64,192,17159,1,2,0:0:0:0:
192,192,17159,1,0,0:0:0:0:
320,192,17244,1,0,0:0:0:0:
448,192,17330,128,0,17500:0:0:0:0:
64,192,17500,1,8,0:0:0:0:
192,192,17500,128,0,17671:0:0:0:0:
320,192,17671,128,0,17841:0:0:0:0:
192,192,17841,128,0,18011:0:0:0:0:
448,192,17841,1,2,0:0:0:0:
64,192,18011,128,2,18182:0:0:0:0:
448,192,18182,1,0,0:0:0:0:
320,192,18182,1,8,0:0:0:0:
192,192,18352,1,0,0:0:0:0:
320,192,18438,1,0,0:0:0:0:
64,192,18523,1,8,0:0:0:0:
448,192,18523,1,0,0:0:0:0:
320,192,18864,128,0,19034:0:0:0:0:
192,192,19034,128,0,19205:0:0:0:0:
448,192,19205,128,0,19375:0:0:0:0:
64,192,19375,128,2,19546:0:0:0:0:
448,192,19546,1,8,0:0:0:0:
320,192,19546,128,0,19886:0:0:0:0:
448,192,19886,1,2,0:0:0:0:
64,192,19886,1,0,0:0:0:0:
192,192,19972,1,0,0:0:0:0:
320,192,20057,1,0,0:0:0:0:
448,192,20227,1,8,0:0:0:0:
192,192,20227,1,0,0:0:0:0:
64,192,20398,1,0,0:0:0:0:
192,192,20483,1,2,0:0:0:0:
320,192,20568,1,2,0:0:0:0:
64,192,20653,1,0,0:0:0:0:
448,192,20739,1,2,0:0:0:0:
320,192,20909,1,8,0:0:0:0:
192,192,20909,1,0,0:0:0:0:
448,192,21080,1,2,0:0:0:0:
64,192,21080,1,8,0:0:0:0:
320,192,21421,128,0,21761:0:0:0:0:
192,192,21761,128,0,21932:0:0:0:0:
64,192,21932,128,0,22102:0:0:0:0:
320,192,22102,1,2,0:0:0:0:
192,192,22188,1,2,0:0:0:0:
320,192,22273,1,8,0:0:0:0:
448,192,22273,128,0,22614:0:0:0:0:
320,192,22614,1,0,0:0:0:0:
192,192,22614,1,4,0:0:0:0:
64,192,22614,1,2,0:0:0:0:
448,192,22784,1,0,0:0:0:0:
320,192,22869,1,0,0:0:0:0:
192,192,22955,1,0,0:0:0:0:
64,192,22955,1,8,0:0:0:0:
320,192,23125,1,0,0:0:0:0:
448,192,23210,1,2,0:0:0:0:
320,192,23296,1,2,0:0:0:0:
192,192,23296,1,0,0:0:0:0:
64,192,23466,1,2,0:0:0:0:
320,192,23551,1,0,0:0:0:0:
448,192,23636,1,0,0:0:0:0:
192,192,23636,1,8,0:0:0:0:
64,192,23807,1,2,0:0:0:0:
192,192,23892,1,0,0:0:0:0:
320,192,23977,1,2,0:0:0:0:
448,192,23977,1,0,0:0:0:0:
192,192,24148,1,0,0:0:0:0:
320,192,24233,1,0,0:0:0:0:
64,192,24318,1,0,0:0:0:0:
448,192,24318,1,8,0:0:0:0:
192,192,24489,1,0,0:0:0:0:
320,192,24574,1,2,0:0:0:0:
192,192,24659,1,0,0:0:0:0:
64,192,24659,1,2,0:0:0:0:
448,192,24830,1,2,0:0:0:0:
320,192,24915,1,0,0:0:0:0:
64,192,25000,1,0,0:0:0:0:
192,192,25000,1,8,0:0:0:0:
320,192,25171,1,2,0:0:0:0:
448,192,25171,1,0,0:0:0:0:
320,192,25511,1,2,0:0:0:0:
192,192,25597,1,0,0:0:0:0:
64,192,25682,1,0,0:0:0:0:
448,192,25682,1,8,0:0:0:0:
192,192,25852,1,0,0:0:0:0:
320,192,25938,1,2,0:0:0:0:
192,192,26023,1,2,0:0:0:0:
64,192,26023,1,0,0:0:0:0:
320,192,26193,1,2,0:0:0:0:
64,192,26364,1,0,0:0:0:0:
448,192,26364,1,8,0:0:0:0:
192,192,26534,1,2,0:0:0:0:
448,192,26875,1,2,0:0:0:0:
320,192,26960,1,2,0:0:0:0:
192,192,27046,1,2,0:0:0:0:
64,192,27046,1,8,0:0:0:0:
320,192,27216,1,2,0:0:0:0:
192,192,27301,1,2,0:0:0:0:
448,192,27386,1,8,0:0:0:0:
64,192,27386,1,2,0:0:0:0:
192,192,27557,1,2,0:0:0:0:
320,192,27642,1,2,0:0:0:0:
192,192,27727,1,2,0:0:0:0:
64,192,27727,1,8,0:0:0:0:
320,192,27898,1,0,0:0:0:0:
448,192,28068,1,2,0:0:0:0:
64,192,28068,1,0,0:0:0:0:
192,192,28068,1,4,0:0:0:0:
320,192,28239,1,0,0:0:0:0:
192,192,28324,1,0,0:0:0:0:
320,192,28409,1,0,0:0:0:0:
448,192,28409,1,8,0:0:0:0:
64,192,28580,1,0,0:0:0:0:
192,192,28665,1,2,0:0:0:0:
320,192,28750,1,2,0:0:0:0:
448,192,28750,1,0,0:0:0:0:
192,192,28921,1,2,0:0:0:0:
320,192,29006,1,0,0:0:0:0:
64,192,29091,1,0,0:0:0:0:
448,192,29091,1,8,0:0:0:0:
320,192,29261,1,2,0:0:0:0:
192,192,29347,1,0,0:0:0:0:
448,192,29432,1,2,0:0:0:0:
64,192,29432,1,0,0:0:0:0:
192,192,29602,1,0,0:0:0:0:
320,192,29688,1,0,0:0:0:0:
448,192,29773,1,0,0:0:0:0:
64,192,29773,1,8,0:0:0:0:
320,192,29943,1,0,0:0:0:0:
192,192,30028,1,2,0:0:0:0:
320,192,30114,1,0,0:0:0:0:
448,192,30114,1,2,0:0:0:0:
64,192,30284,1,2,0:0:0:0:
192,192,30369,1,0,0:0:0:0:
448,192,30455,1,0,0:0:0:0:
320,192,30455,1,8,0:0:0:0:
192,192,30625,1,2,0:0:0:0:
64,192,30625,1,4,0:0:0:0:
448,192,30625,1,0,0:0:0:0:
320,192,30966,1,2,0:0:0:0:
448,192,31136,1,0,0:0:0:0:
192,192,31136,1,8,0:0:0:0:
448,192,31307,1,0,0:0:0:0:
320,192,31307,1,2,0:0:0:0:
64,192,31307,1,4,0:0:0:0:
192,192,31648,1,2,0:0:0:0:
320,192,31818,1,0,0:0:0:0:
64,192,31818,1,8,0:0:0:0:
64,192,31989,1,4,0:0:0:0:
192,192,31989,1,2,0:0:0:0:
448,192,31989,1,0,0:0:0:0:
64,192,32330,1,2,0:0:0:0:
192,192,32330,1,0,0:0:0:0:
320,192,32500,1,2,0:0:0:0:
448,192,32500,1,0,0:0:0:0:
64,192,32671,1,8,0:0:0:0:
448,192,32671,1,0,0:0:0:0:
320,192,32841,1,0,0:0:0:0:
192,192,32841,1,2,0:0:0:0:
448,192,33011,1,2,0:0:0:0:
320,192,33097,1,0,0:0:0:0:
192,192,33182,1,8,0:0:0:0:
64,192,33182,1,0,0:0:0:0:
448,192,33352,1,2,0:0:0:0:
320,192,33352,1,0,0:0:0:0:
64,192,33693,1,0,0:0:0:0:
192,192,33693,1,2,0:0:0:0:
448,192,33864,1,2,0:0:0:0:
320,192,33864,1,0,0:0:0:0:
64,192,34034,1,0,0:0:0:0:
192,192,34205,1,0,0:0:0:0:
320,192,34205,1,2,0:0:0:0:
448,192,34546,1,2,0:0:0:0:
64,192,34546,1,0,0:0:0:0:
192,192,34716,1,0,0:0:0:0:
448,192,34886,1,2,0:0:0:0:
320,192,34972,1,0,0:0:0:0:
64,192,35057,1,0,0:0:0:0:
192,192,35057,1,2,0:0:0:0:
448,192,35227,1,0,0:0:0:0:
320,192,35227,1,8,0:0:0:0:
64,192,35398,1,0,0:0:0:0:
192,192,35483,1,2,0:0:0:0:
448,192,35568,1,2,0:0:0:0:
320,192,35568,1,0,0:0:0:0:
192,192,35739,1,2,0:0:0:0:
64,192,35909,1,8,0:0:0:0:
448,192,35909,1,0,0:0:0:0:
320,192,35994,1,0,0:0:0:0:
192,192,36080,1,0,0:0:0:0:
448,192,36250,1,2,0:0:0:0:
64,192,36250,1,0,0:0:0:0:
192,192,36335,1,0,0:0:0:0:
320,192,36421,1,0,0:0:0:0:
192,192,36591,1,8,0:0:0:0:
64,192,36591,1,0,0:0:0:0:
320,192,36761,1,0,0:0:0:0:
448,192,36847,1,2,0:0:0:0:
192,192,36932,1,0,0:0:0:0:
320,192,36932,1,2,0:0:0:0:
64,192,37102,1,2,0:0:0:0:
192,192,37159,1,0,0:0:0:0:
320,192,37216,1,0,0:0:0:0:
448,192,37273,1,8,0:0:0:0:
64,192,37273,1,0,0:0:0:0:
192,192,37443,1,0,0:0:0:0:
320,192,37614,1,2,0:0:0:0:
448,192,37614,1,0,0:0:0:0:
192,192,37699,1,0,0:0:0:0:
64,192,37784,1,0,0:0:0:0:
192,192,37955,1,0,0:0:0:0:
448,192,37955,1,8,0:0:0:0:
320,192,38125,1,0,0:0:0:0:
192,192,38210,1,2,0:0:0:0:
448,192,38296,1,2,0:0:0:0:
320,192,38296,1,0,0:0:0:0:
64,192,38466,1,2,0:0:0:0:
192,192,38636,1,8,0:0:0:0:
320,192,38636,1,0,0:0:0:0:
448,192,38807,1,0,0:0:0:0:
64,192,38977,1,2,0:0:0:0:
192,192,39063,1,2,0:0:0:0:
320,192,39148,1,2,0:0:0:0:
448,192,39148,1,8,0:0:0:0:
192,192,39318,1,2,0:0:0:0:
448,192,39489,1,2,0:0:0:0:
64,192,39489,1,8,0:0:0:0:
320,192,39659,1,2,0:0:0:0:
192,192,39659,1,8,0:0:0:0:
448,192,39830,1,2,0:0:0:0:
320,192,39886,1,0,0:0:0:0:
192,192,39943,1,0,0:0:0:0:
64,192,40000,1,8,0:0:0:0:
320,192,40171,1,0,0:0:0:0:
64,192,40341,1,2,0:0:0:0:
448,192,40341,1,0,0:0:0:0:
192,192,40426,1,0,0:0:0:0:
320,192,40511,1,0,0:0:0:0:
448,192,40682,1,0,0:0:0:0:
64,192,40682,1,8,0:0:0:0:
192,192,40852,1,0,0:0:0:0:
320,192,40938,1,2,0:0:0:0:
64,192,41023,1,2,0:0:0:0:
192,192,41023,1,0,0:0:0:0:
320,192,41193,1,2,0:0:0:0:
64,192,41364,1,8,0:0:0:0:
448,192,41364,1,0,0:0:0:0:
192,192,41449,1,0,0:0:0:0:
320,192,41534,1,0,0:0:0:0:
64,192,41705,1,2,0:0:0:0:
448,192,41705,1,0,0:0:0:0:
320,192,41790,1,0,0:0:0:0:
192,192,41875,1,0,0:0:0:0:
320,192,42046,1,8,0:0:0:0:
448,192,42046,1,0,0:0:0:0:
192,192,42216,1,0,0:0:0:0:
64,192,42301,1,2,0:0:0:0:
320,192,42386,1,0,0:0:0:0:
192,192,42386,1,2,0:0:0:0:
448,192,42557,1,2,0:0:0:0:
320,192,42614,1,0,0:0:0:0:
192,192,42671,1,0,0:0:0:0:
64,192,42727,1,8,0:0:0:0:
320,192,42898,1,0,0:0:0:0:
192,192,43068,1,2,0:0:0:0:
64,192,43068,1,0,0:0:0:0:
320,192,43153,1,0,0:0:0:0:
448,192,43239,1,0,0:0:0:0:
192,192,43409,1,0,0:0:0:0:
64,192,43409,1,8,0:0:0:0:
320,192,43580,1,0,0:0:0:0:
192,192,43665,1,2,0:0:0:0:
64,192,43750,1,2,0:0:0:0:
448,192,43750,1,0,0:0:0:0:
192,192,43921,1,2,0:0:0:0:
448,192,44091,1,8,0:0:0:0:
320,192,44091,1,0,0:0:0:0:
448,192,44261,1,0,0:0:0:0:
64,192,44261,1,2,0:0:0:0:
192,192,44602,1,2,0:0:0:0:
320,192,44602,1,0,0:0:0:0:
192,192,44943,1,2,0:0:0:0:
448,192,44943,1,0,0:0:0:0:
64,192,45114,1,2,0:0:0:0:
448,192,45114,1,0,0:0:0:0:
320,192,45284,1,0,0:0:0:0:
192,192,45369,1,0,0:0:0:0:
64,192,45455,1,0,0:0:0:0:
448,192,45455,1,8,0:0:0:0:
320,192,45796,1,2,0:0:0:0:
64,192,45796,1,4,0:0:0:0:
448,192,45796,1,0,0:0:0:0:
192,192,46136,1,0,0:0:0:0:
448,192,46136,1,2,0:0:0:0:
64,192,46307,1,0,0:0:0:0:
320,192,46392,1,2,0:0:0:0:
192,192,46477,1,2,0:0:0:0:
64,192,46477,1,0,0:0:0:0:
448,192,46648,1,8,0:0:0:0:
320,192,46648,1,0,0:0:0:0:
192,192,46818,1,8,0:0:0:0:
64,192,46818,1,0,0:0:0:0:
448,192,47159,1,2,0:0:0:0:
64,192,47159,128,0,47330:0:0:0:0:
320,192,47330,128,0,47500:0:0:0:0:
192,192,47500,128,0,47671:0:0:0:0:
64,192,47500,1,2,0:0:0:0:
448,192,47671,128,0,47841:0:0:0:0:
320,192,47841,128,0,48011:0:0:0:0:
64,192,47841,1,2,0:0:0:0:
64,192,48011,1,8,0:0:0:0:
192,192,48097,1,0,0:0:0:0:
448,192,48182,1,8,0:0:0:0:
320,192,48182,128,0,48352:0:0:0:0:
192,192,48352,128,0,48523:0:0:0:0:
448,192,48523,1,2,0:0:0:0:
64,192,48523,1,0,0:0:0:0:
192,192,48864,1,0,0:0:0:0:
448,192,48864,1,8,0:0:0:0:
64,192,49034,1,0,0:0:0:0:
320,192,49119,1,2,0:0:0:0:
192,192,49205,1,0,0:0:0:0:
64,192,49205,1,2,0:0:0:0:
320,192,49375,1,8,0:0:0:0:
448,192,49375,1,0,0:0:0:0:
448,192,49546,1,8,0:0:0:0:
64,192,49546,1,0,0:0:0:0:
320,192,49886,1,2,0:0:0:0:
192,192,49886,1,0,0:0:0:0:
448,192,50057,128,0,50398:0:0:0:0:
64,192,50227,1,2,0:0:0:0:
192,192,50398,128,0,50568:0:0:0:0:
448,192,50568,1,8,0:0:0:0:
320,192,50568,128,0,50739:0:0:0:0:
64,192,50739,1,2,0:0:0:0:
192,192,50824,1,0,0:0:0:0:
64,192,50909,1,2,0:0:0:0:
320,192,50909,128,0,51250:0:0:0:0:
192,192,51080,1,0,0:0:0:0:
64,192,51250,1,0,0:0:0:0:
448,192,51250,1,2,0:0:0:0:
192,192,51335,1,0,0:0:0:0:
320,192,51421,1,0,0:0:0:0:
64,192,51506,1,0,0:0:0:0:
192,192,51591,1,8,0:0:0:0:
64,192,51676,1,0,0:0:0:0:
448,192,51761,1,0,0:0:0:0:
320,192,51847,1,2,0:0:0:0:
192,192,51932,1,2,0:0:0:0:
448,192,52017,1,0,0:0:0:0:
320,192,52102,1,2,0:0:0:0:
448,192,52188,1,0,0:0:0:0:
64,192,52273,1,8,0:0:0:0:
320,192,52358,1,0,0:0:0:0:
192,192,52443,1,0,0:0:0:0:
448,192,52528,1,0,0:0:0:0:
64,192,52614,1,2,0:0:0:0:
320,192,52699,1,0,0:0:0:0:
192,192,52784,1,0,0:0:0:0:
320,192,52869,1,0,0:0:0:0:
448,192,52955,1,8,0:0:0:0:
64,192,53040,1,0,0:0:0:0:
192,192,53125,1,0,0:0:0:0:
320,192,53210,1,2,0:0:0:0:
448,192,53296,1,2,0:0:0:0:
64,192,53381,1,0,0:0:0:0:
192,192,53466,1,2,0:0:0:0:
64,192,53551,1,0,0:0:0:0:
448,192,53636,1,2,0:0:0:0:
320,192,53722,1,0,0:0:0:0:
448,192,53807,1,0,0:0:0:0:
192,192,53892,1,0,0:0:0:0:
64,192,53977,1,2,0:0:0:0:
320,192,54063,1,0,0:0:0:0:
192,192,54148,1,0,0:0:0:0:
448,192,54233,1,0,0:0:0:0:
320,192,54318,1,8,0:0:0:0:
192,192,54403,1,0,0:0:0:0:
64,192,54489,1,0,0:0:0:0:
448,192,54574,1,2,0:0:0:0:
320,192,54659,1,2,0:0:0:0:
448,192,54744,1,0,0:0:0:0:
64,192,54830,1,2,0:0:0:0:
192,192,54915,1,0,0:0:0:0:
320,192,55000,1,8,0:0:0:0:
448,192,55085,1,0,0:0:0:0:
64,192,55171,1,0,0:0:0:0:
192,192,55171,1,2,0:0:0:0:
320,192,55341,1,0,0:0:0:0:
192,192,55511,1,0,0:0:0:0:
64,192,55511,1,8,0:0:0:0:
448,192,55682,1,8,0:0:0:0:
320,192,55682,1,0,0:0:0:0:
64,192,55852,1,0,0:0:0:0:
192,192,55938,1,2,0:0:0:0:
320,192,56023,1,0,0:0:0:0:
448,192,56023,1,2,0:0:0:0:
192,192,56193,1,8,0:0:0:0:
64,192,56193,1,0,0:0:0:0:
320,192,56364,1,8,0:0:0:0:
448,192,56364,1,0,0:0:0:0:
64,192,56705,1,0,0:0:0:0:
448,192,56705,1,4,0:0:0:0:
192,192,56705,1,2,0:0:0:0:
64,192,57046,1,2,0:0:0:0:
320,192,57046,1,0,0:0:0:0:
448,192,57216,1,0,0:0:0:0:
192,192,57301,1,2,0:0:0:0:
448,192,57386,1,0,0:0:0:0:
320,192,57386,1,2,0:0:0:0:
192,192,57557,1,0,0:0:0:0:
64,192,57557,1,8,0:0:0:0:
448,192,57727,1,0,0:0:0:0:
64,192,57727,1,8,0:0:0:0:
448,192,58068,128,0,58239:0:0:0:0:
320,192,58068,1,2,0:0:0:0:
192,192,58239,128,0,58409:0:0:0:0:
64,192,58409,1,2,0:0:0:0:
320,192,58409,128,0,58580:0:0:0:0:
64,192,58580,128,0,58750:0:0:0:0:
320,192,58750,1,2,0:0:0:0:
192,192,58750,128,0,58921:0:0:0:0:
448,192,58921,1,8,0:0:0:0:
320,192,59006,1,0,0:0:0:0:
448,192,59091,128,0,59261:0:0:0:0:
64,192,59091,1,8,0:0:0:0:
320,192,59261,128,0,59432:0:0:0:0:
192,192,59432,1,0,0:0:0:0:
64,192,59432,1,2,0:0:0:0:
448,192,59773,1,2,0:0:0:0:
320,192,59773,1,0,0:0:0:0:
64,192,59943,1,0,0:0:0:0:
192,192,60028,1,2,0:0:0:0:
448,192,60114,1,2,0:0:0:0:
320,192,60114,1,0,0:0:0:0:
64,192,60284,1,0,0:0:0:0:
192,192,60284,1,8,0:0:0:0:
448,192,60455,1,0,0:0:0:0:
320,192,60455,1,8,0:0:0:0:
320,192,60796,1,0,0:0:0:0:
192,192,60796,1,2,0:0:0:0:
64,192,60966,128,0,61307:0:0:0:0:
448,192,61136,1,8,0:0:0:0:
320,192,61307,128,0,61477:0:0:0:0:
192,192,61477,128,0,61648:0:0:0:0:
448,192,61477,1,8,0:0:0:0:
64,192,61648,1,2,0:0:0:0:
320,192,61733,1,0,0:0:0:0:
448,192,61818,128,0,62159:0:0:0:0:
64,192,61989,1,2,0:0:0:0:
64,192,62159,1,2,0:0:0:0:
192,192,62159,1,0,0:0:0:0:
320,192,62244,1,0,0:0:0:0:
192,192,62330,1,0,0:0:0:0:
448,192,62415,1,0,0:0:0:0:
64,192,62500,1,8,0:0:0:0:
320,192,62585,1,0,0:0:0:0:
192,192,62671,1,0,0:0:0:0:
448,192,62756,1,2,0:0:0:0:
64,192,62841,1,2,0:0:0:0:
320,192,62926,1,0,0:0:0:0:
192,192,63011,1,2,0:0:0:0:
320,192,63097,1,0,0:0:0:0:
64,192,63182,1,8,0:0:0:0:
448,192,63267,1,0,0:0:0:0:
64,192,63352,1,0,0:0:0:0:
320,192,63438,1,0,0:0:0:0:
192,192,63523,1,2,0:0:0:0:
448,192,63608,1,0,0:0:0:0:
64,192,63693,1,0,0:0:0:0:
320,192,63778,1,0,0:0:0:0:
192,192,63864,1,8,0:0:0:0:
448,192,63949,1,0,0:0:0:0:
320,192,64034,1,0,0:0:0:0:
448,192,64119,1,2,0:0:0:0:
64,192,64205,1,2,0:0:0:0:
192,192,64290,1,0,0:0:0:0:
64,192,64375,1,2,0:0:0:0:
448,192,64460,1,0,0:0:0:0:
320,192,64546,1,8,0:0:0:0:
192,192,64631,1,0,0:0:0:0:
320,192,64716,1,0,0:0:0:0:
64,192,64801,1,0,0:0:0:0:
448,192,64886,1,2,0:0:0:0:
64,192,64972,1,0,0:0:0:0:
320,192,65057,1,0,0:0:0:0:
192,192,65142,1,0,0:0:0:0:
448,192,65227,1,8,0:0:0:0:
64,192,65313,1,0,0:0:0:0:
320,192,65398,1,0,0:0:0:0:
192,192,65483,1,2,0:0:0:0:
448,192,65568,1,2,0:0:0:0:
64,192,65653,1,0,0:0:0:0:
448,192,65739,1,2,0:0:0:0:
192,192,65824,1,0,0:0:0:0:
320,192,65909,1,8,0:0:0:0:
192,192,65994,1,0,0:0:0:0:
448,192,66080,1,2,0:0:0:0:
320,192,66165,1,0,0:0:0:0:
192,192,66250,1,0,0:0:0:0:
64,192,66335,1,0,0:0:0:0:
448,192,66421,1,8,0:0:0:0:
320,192,66421,1,0,0:0:0:0:
192,192,66591,1,0,0:0:0:0:
64,192,66591,1,8,0:0:0:0:
64,192,66932,1,8,0:0:0:0:
448,192,66932,1,0,0:0:0:0:
320,192,67102,1,2,0:0:0:0:
192,192,67188,1,2,0:0:0:0:
320,192,67273,1,0,0:0:0:0:
448,192,67273,1,8,0:0:0:0:
64,192,67614,128,0,68977:0:0:0:0:
192,192,67614,1,4,0:0:0:0:
448,192,67614,1,2,0:0:0:0:
448,192,67955,1,8,0:0:0:0:
320,192,67955,1,0,0:0:0:0:
192,192,68125,1,0,0:0:0:0:
320,192,68210,1,2,0:0:0:0:
448,192,68296,1,2,0:0:0:0:
192,192,68466,1,2,0:0:0:0:
448,192,68636,1,8,0:0:0:0:
320,192,68636,1,0,0:0:0:0:
448,192,68977,128,0,70341:0:0:0:0:
192,192,68977,1,2,0:0:0:0:
320,192,69318,1,0,0:0:0:0:
64,192,69318,1,8,0:0:0:0:
192,192,69489,1,0,0:0:0:0:
320,192,69574,1,2,0:0:0:0:
64,192,69659,1,2,0:0:0:0:
192,192,69830,1,2,0:0:0:0:
64,192,70000,1,8,0:0:0:0:
320,192,70000,1,0,0:0:0:0:
192,192,70341,128,0,73068:0:0:0:0:
320,192,70341,1,2,0:0:0:0:
64,192,70682,1,0,0:0:0:0:
448,192,70682,1,8,0:0:0:0:
320,192,70852,1,0,0:0:0:0:
448,192,70938,1,2,0:0:0:0:
64,192,71023,1,2,0:0:0:0:
320,192,71193,1,2,0:0:0:0:
448,192,71364,1,0,0:0:0:0:
64,192,71364,1,8,0:0:0:0:
320,192,71705,1,2,0:0:0:0:
320,192,72046,1,8,0:0:0:0:
448,192,72046,1,0,0:0:0:0:
64,192,72216,1,0,0:0:0:0:
448,192,72301,1,2,0:0:0:0:
320,192,72386,1,2,0:0:0:0:
448,192,72557,1,2,0:0:0:0:
320,192,72727,1,0,0:0:0:0:
64,192,72727,1,8,0:0:0:0:
448,192,73068,128,0,74432:0:0:0:0:
320,192,73068,1,4,0:0:0:0:
64,192,73068,1,2,0:0:0:0:
64,192,73409,1,8,0:0:0:0:
192,192,73409,1,0,0:0:0:0:
320,192,73580,1,0,0:0:0:0:
192,192,73665,1,2,0:0:0:0:
64,192,73750,1,2,0:0:0:0:
320,192,73921,1,2,0:0:0:0:
64,192,74091,1,8,0:0:0:0:
192,192,74091,1,0,0:0:0:0:
64,192,74432,128,0,75796:0:0:0:0:
320,192,74432,1,2,0:0:0:0:
192,192,74773,1,0,0:0:0:0:
448,192,74773,1,8,0:0:0:0:
320,192,74943,1,0,0:0:0:0:
192,192,75028,1,2,0:0:0:0:
448,192,75114,1,2,0:0:0:0:
320,192,75284,1,2,0:0:0:0:
448,192,75455,1,8,0:0:0:0:
192,192,75455,1,0,0:0:0:0:
448,192,75796,1,2,0:0:0:0:
320,192,75796,1,0,0:0:0:0:
192,192,75881,1,0,0:0:0:0:
320,192,75966,128,0,76136:0:0:0:0:
64,192,76136,1,8,0:0:0:0:
192,192,76136,128,0,76307:0:0:0:0:
448,192,76307,128,0,76477:0:0:0:0:
64,192,76477,128,0,76648:0:0:0:0:
320,192,76477,1,2,0:0:0:0:
192,192,76648,128,2,76818:0:0:0:0:
448,192,76818,1,0,0:0:0:0:
320,192,76818,1,8,0:0:0:0:
64,192,76989,1,0,0:0:0:0:
192,192,77159,1,2,0:0:0:0:
448,192,77159,1,0,0:0:0:0:
320,192,77330,1,0,0:0:0:0:
192,192,77500,1,8,0:0:0:0:
64,192,77500,1,0,0:0:0:0:
320,192,77671,1,0,0:0:0:0:
192,192,77756,1,2,0:0:0:0:
64,192,77841,1,2,0:0:0:0:
448,192,77841,1,0,0:0:0:0:
320,192,77926,1,0,0:0:0:0:
192,192,78011,1,2,0:0:0:0:
448,192,78182,1,8,0:0:0:0:
320,192,78182,1,0,0:0:0:0:
64,192,78352,1,0,0:0:0:0:
192,192,78523,1,2,0:0:0:0:
320,192,78523,1,0,0:0:0:0:
448,192,78608,1,0,0:0:0:0:
320,192,78693,128,0,78864:0:0:0:0:
192,192,78864,1,8,0:0:0:0:
64,192,78864,128,0,79034:0:0:0:0:
320,192,79034,128,0,79205:0:0:0:0:
448,192,79205,128,0,79375:0:0:0:0:
64,192,79205,1,2,0:0:0:0:
320,192,79375,128,2,79546:0:0:0:0:
64,192,79546,1,0,0:0:0:0:
192,192,79546,1,8,0:0:0:0:
192,192,79716,128,0,79886:0:0:0:0:
448,192,79886,1,8,0:0:0:0:
320,192,79886,128,0,80057:0:0:0:0:
64,192,80057,128,0,80227:0:0:0:0:
192,192,80227,128,0,80398:0:0:0:0:
320,192,80227,1,2,0:0:0:0:
448,192,80398,128,0,81080:0:0:0:0:
320,192,80568,1,0,0:0:0:0:
64,192,80568,1,8,0:0:0:0:
64,192,80739,1,8,0:0:0:0:
192,192,80909,1,8,0:0:0:0:
320,192,80909,1,4,0:0:0:0:
320,192,81250,1,2,0:0:0:0:
64,192,81250,1,0,0:0:0:0:
448,192,81335,1,0,0:0:0:0:
192,192,81421,128,0,81591:0:0:0:0:
64,192,81591,1,8,0:0:0:0:
320,192,81591,128,0,81761:0:0:0:0:
64,192,81761,128,0,81932:0:0:0:0:
448,192,81932,128,0,82102:0:0:0:0:
320,192,81932,1,2,0:0:0:0:
192,192,82102,128,0,82273:0:0:0:0:
448,192,82273,1,0,0:0:0:0:
64,192,82273,1,8,0:0:0:0:
320,192,82443,1,0,0:0:0:0:
64,192,82614,1,2,0:0:0:0:
192,192,82614,1,0,0:0:0:0:
320,192,82784,1,0,0:0:0:0:
448,192,82955,1,8,0:0:0:0:
64,192,82955,1,0,0:0:0:0:
192,192,83125,1,0,0:0:0:0:
320,192,83210,1,2,0:0:0:0:
64,192,83296,1,2,0:0:0:0:
192,192,83296,1,0,0:0:0:0:
448,192,83466,1,2,0:0:0:0:
192,192,83636,1,8,0:0:0:0:
320,192,83636,1,0,0:0:0:0:
448,192,83977,1,2,0:0:0:0:
320,192,83977,1,0,0:0:0:0:
192,192,84063,1,0,0:0:0:0:
64,192,84148,128,0,84318:0:0:0:0:
448,192,84318,1,8,0:0:0:0:
320,192,84318,128,0,84489:0:0:0:0:
192,192,84489,128,0,84659:0:0:0:0:
320,192,84659,128,0,84830:0:0:0:0:
64,192,84659,1,2,0:0:0:0:
448,192,84830,128,0,85000:0:0:0:0:
64,192,85000,1,0,0:0:0:0:
192,192,85000,1,8,0:0:0:0:
320,192,85171,128,0,85341:0:0:0:0:
448,192,85341,1,8,0:0:0:0:
64,192,85341,128,0,85511:0:0:0:0:
192,192,85511,128,0,85682:0:0:0:0:
448,192,85682,128,0,85852:0:0:0:0:
320,192,85852,128,0,86705:0:0:0:0:
64,192,86193,1,2,0:0:0:0:
192,192,86364,1,8,0:0:0:0:
448,192,86534,1,0,0:0:0:0:
192,192,86705,1,2,0:0:0:0:
64,192,86705,1,0,0:0:0:0:
448,192,86875,1,0,0:0:0:0:
320,192,87046,1,0,0:0:0:0:
192,192,87216,1,0,0:0:0:0:
64,192,87386,1,0,0:0:0:0:
320,192,87557,1,0,0:0:0:0:
192,192,87727,1,0,0:0:0:0:
320,192,87898,1,0,0:0:0:0:
448,192,88068,1,2,0:0:0:0:
192,192,88068,1,4,0:0:0:0:
64,192,88068,128,0,88239:0:0:0:0:
320,192,88239,128,0,88409:0:0:0:0:
448,192,88409,128,0,88580:0:0:0:0:
320,192,88580,1,2,0:0:0:0:
192,192,88580,128,0,88750:0:0:0:0:
64,192,88580,1,4,0:0:0:0:
320,192,88750,128,0,88921:0:0:0:0:
192,192,88921,128,0,89091:0:0:0:0:
320,192,89091,1,4,0:0:0:0:
448,192,89091,1,2,0:0:0:0:
64,192,89091,128,0,89261:0:0:0:0:
448,192,89261,128,0,89432:0:0:0:0:
192,192,89432,128,0,89602:0:0:0:0:
448,192,89602,1,2,0:0:0:0:
320,192,89602,128,0,89773:0:0:0:0:
64,192,89773,128,0,89943:0:0:0:0:
192,192,89943,128,0,90114:0:0:0:0:
64,192,90114,1,4,0:0:0:0:
320,192,90114,1,2,0:0:0:0:
448,192,90114,128,0,90284:0:0:0:0:
64,192,90284,128,0,90455:0:0:0:0:
320,192,90455,128,0,90625:0:0:0:0:
448,192,90455,1,2,0:0:0:0:
64,192,90625,128,0,90796:0:0:0:0:
320,192,90796,1,2,0:0:0:0:
192,192,90796,1,4,0:0:0:0:
448,192,90796,128,0,90966:0:0:0:0:
320,192,90966,128,0,91136:0:0:0:0:
192,192,91136,128,0,91307:0:0:0:0:
64,192,91307,128,0,91477:0:0:0:0:
192,192,91648,128,0,91818:0:0:0:0:
320,192,91818,128,0,91989:0:0:0:0:
448,192,91989,128,0,92159:0:0:0:0:
64,192,92330,1,0,0:0:0:0:
64,192,92500,1,0,0:0:0:0:
448,192,92841,1,0,0:0:0:0:
64,192,93011,1,2,0:0:0:0:
192,192,93097,1,2,0:0:0:0:
320,192,93182,1,4,0:0:0:0:
64,192,93182,1,2,0:0:0:0:
448,192,93182,128,0,93523:0:0:0:0:
320,192,93523,1,2,0:0:0:0:
192,192,93523,1,4,0:0:0:0:
64,192,93523,1,0,0:0:0:0:
64,192,93693,1,0,0:0:0:0:
192,192,93778,1,0,0:0:0:0:
320,192,93864,1,0,0:0:0:0:
448,192,93864,1,8,0:0:0:0:
192,192,94034,1,0,0:0:0:0:
64,192,94119,1,2,0:0:0:0:
192,192,94205,1,2,0:0:0:0:
320,192,94205,1,0,0:0:0:0:
448,192,94375,1,2,0:0:0:0:
192,192,94460,1,0,0:0:0:0:
64,192,94546,1,0,0:0:0:0:
320,192,94546,1,8,0:0:0:0:
448,192,94716,1,2,0:0:0:0:
192,192,94886,1,2,0:0:0:0:
64,192,94886,1,0,0:0:0:0:
320,192,95057,1,0,0:0:0:0:
192,192,95142,1,0,0:0:0:0:
448,192,95227,1,0,0:0:0:0:
64,192,95227,1,8,0:0:0:0:
320,192,95398,1,0,0:0:0:0:
192,192,95483,1,2,0:0:0:0:
320,192,95568,1,0,0:0:0:0:
448,192,95568,1,2,0:0:0:0:
64,192,95739,1,2,0:0:0:0:
192,192,95824,1,0,0:0:0:0:
448,192,95909,1,0,0:0:0:0:
320,192,95909,1,8,0:0:0:0:
192,192,96080,1,2,0:0:0:0:
64,192,96080,1,0,0:0:0:0:
192,192,96421,1,2,0:0:0:0:
320,192,96506,1,0,0:0:0:0:
448,192,96591,1,0,0:0:0:0:
64,192,96591,1,8,0:0:0:0:
320,192,96761,1,0,0:0:0:0:
192,192,96847,1,2,0:0:0:0:
320,192,96932,1,2,0:0:0:0:
448,192,96932,1,0,0:0:0:0:
192,192,97102,1,2,0:0:0:0:
448,192,97273,1,0,0:0:0:0:
64,192,97273,1,8,0:0:0:0:
320,192,97443,1,2,0:0:0:0:
64,192,97784,1,2,0:0:0:0:
192,192,97869,1,2,0:0:0:0:
320,192,97955,1,2,0:0:0:0:
448,192,97955,1,8,0:0:0:0:
192,192,98125,1,2,0:0:0:0:
320,192,98210,1,2,0:0:0:0:
64,192,98296,1,8,0:0:0:0:
448,192,98296,1,2,0:0:0:0:
320,192,98466,1,2,0:0:0:0:
192,192,98551,1,2,0:0:0:0:
320,192,98636,1,2,0:0:0:0:
448,192,98636,1,8,0:0:0:0:
192,192,98807,1,0,0:0:0:0:
64,192,98977,1,2,0:0:0:0:
448,192,98977,1,0,0:0:0:0:
320,192,98977,1,4,0:0:0:0:
192,192,99148,1,0,0:0:0:0:
320,192,99233,1,0,0:0:0:0:
192,192,99318,1,0,0:0:0:0:
64,192,99318,1,8,0:0:0:0:
448,192,99489,1,0,0:0:0:0:
320,192,99574,1,2,0:0:0:0:
192,192,99659,1,2,0:0:0:0:
64,192,99659,1,0,0:0:0:0:
320,192,99830,1,2,0:0:0:0:
192,192,99915,1,0,0:0:0:0:
448,192,100000,1,0,0:0:0:0:
64,192,100000,1,8,0:0:0:0:
192,192,100171,1,2,0:0:0:0:
64,192,100341,1,2,0:0:0:0:
448,192,100341,1,0,0:0:0:0:
320,192,100511,1,0,0:0:0:0:
192,192,100597,1,0,0:0:0:0:
64,192,100682,1,0,0:0:0:0:
448,192,100682,1,8,0:0:0:0:
192,192,100852,1,0,0:0:0:0:
320,192,100938,1,2,0:0:0:0:
192,192,101023,1,0,0:0:0:0:
64,192,101023,1,2,0:0:0:0:
448,192,101193,1,2,0:0:0:0:
320,192,101278,1,0,0:0:0:0:
64,192,101364,1,0,0:0:0:0:
192,192,101364,1,8,0:0:0:0:
320,192,101534,1,2,0:0:0:0:
448,192,101534,1,4,0:0:0:0:
64,192,101534,1,0,0:0:0:0:
192,192,101875,1,2,0:0:0:0:
64,192,102046,1,0,0:0:0:0:
320,192,102046,1,8,0:0:0:0:
64,192,102216,1,0,0:0:0:0:
192,192,102216,1,2,0:0:0:0:
448,192,102216,1,4,0:0:0:0:
320,192,102557,1,2,0:0:0:0:
192,192,102727,1,0,0:0:0:0:
448,192,102727,1,8,0:0:0:0:
448,192,102898,1,4,0:0:0:0:
320,192,102898,1,2,0:0:0:0:
64,192,102898,1,0,0:0:0:0:
448,192,103239,1,2,0:0:0:0:
320,192,103239,1,0,0:0:0:0:
192,192,103409,1,2,0:0:0:0:
64,192,103409,1,0,0:0:0:0:
448,192,103580,1,8,0:0:0:0:
64,192,103580,1,0,0:0:0:0:
192,192,103750,1,0,0:0:0:0:
320,192,103750,1,2,0:0:0:0:
64,192,103921,1,2,0:0:0:0:
192,192,104006,1,0,0:0:0:0:
320,192,104091,1,8,0:0:0:0:
448,192,104091,1,0,0:0:0:0:
64,192,104261,1,2,0:0:0:0:
192,192,104261,1,0,0:0:0:0:
448,192,104602,1,0,0:0:0:0:
320,192,104602,1,2,0:0:0:0:
64,192,104773,1,2,0:0:0:0:
192,192,104773,1,0,0:0:0:0:
448,192,104943,1,0,0:0:0:0:
320,192,105114,1,0,0:0:0:0:
192,192,105114,1,2,0:0:0:0:
64,192,105455,1,2,0:0:0:0:
448,192,105455,1,0,0:0:0:0:
320,192,105625,1,0,0:0:0:0:
64,192,105796,1,2,0:0:0:0:
192,192,105881,1,0,0:0:0:0:
448,192,105966,1,0,0:0:0:0:
320,192,105966,1,2,0:0:0:0:
64,192,106136,1,0,0:0:0:0:
192,192,106136,1,8,0:0:0:0:
448,192,106307,1,0,0:0:0:0:
320,192,106392,1,2,0:0:0:0:
64,192,106477,1,2,0:0:0:0:
192,192,106477,1,0,0:0:0:0:
320,192,106648,1,2,0:0:0:0:
448,192,106818,1,8,0:0:0:0:
64,192,106818,1,0,0:0:0:0:
192,192,106903,1,0,0:0:0:0:
320,192,106989,1,0,0:0:0:0:
64,192,107159,1,2,0:0:0:0:
448,192,107159,1,0,0:0:0:0:
320,192,107244,1,0,0:0:0:0:
192,192,107330,1,0,0:0:0:0:
320,192,107500,1,8,0:0:0:0:
448,192,107500,1,0,0:0:0:0:
192,192,107671,1,0,0:0:0:0:
64,192,107756,1,2,0:0:0:0:
320,192,107841,1,0,0:0:0:0:
192,192,107841,1,2,0:0:0:0:
448,192,108011,1,2,0:0:0:0:
320,192,108068,1,0,0:0:0:0:
192,192,108125,1,0,0:0:0:0:
64,192,108182,1,8,0:0:0:0:
320,192,108352,1,0,0:0:0:0:
192,192,108523,1,2,0:0:0:0:
448,192,108523,1,0,0:0:0:0:
320,192,108608,1,0,0:0:0:0:
448,192,108693,1,0,0:0:0:0:
192,192,108864,1,0,0:0:0:0:
64,192,108864,1,8,0:0:0:0:
448,192,109034,1,0,0:0:0:0:
320,192,109119,1,2,0:0:0:0:
64,192,109205,1,2,0:0:0:0:
192,192,109205,1,0,0:0:0:0:
320,192,109375,1,2,0:0:0:0:
448,192,109546,1,8,0:0:0:0:
64,192,109546,1,0,0:0:0:0:
192,192,109716,1,0,0:0:0:0:
448,192,109886,1,2,0:0:0:0:
320,192,109972,1,2,0:0:0:0:
192,192,110057,1,2,0:0:0:0:
64,192,110057,1,8,0:0:0:0:
320,192,110227,1,2,0:0:0:0:
64,192,110398,1,2,0:0:0:0:
448,192,110398,1,8,0:0:0:0:
192,192,110568,1,2,0:0:0:0:
320,192,110568,1,8,0:0:0:0:
64,192,110739,1,2,0:0:0:0:
192,192,110796,1,0,0:0:0:0:
320,192,110852,1,0,0:0:0:0:
448,192,110909,1,0,0:0:0:0:
64,192,110909,1,8,0:0:0:0:
192,192,111080,1,0,0:0:0:0:
448,192,111250,1,2,0:0:0:0:
64,192,111250,1,0,0:0:0:0:
320,192,111335,1,0,0:0:0:0:
192,192,111421,1,0,0:0:0:0:
64,192,111591,1,0,0:0:0:0:
448,192,111591,1,8,0:0:0:0:
320,192,111761,1,0,0:0:0:0:
192,192,111847,1,2,0:0:0:0:
448,192,111932,1,2,0:0:0:0:
320,192,111932,1,0,0:0:0:0:
192,192,112102,1,2,0:0:0:0:
448,192,112273,1,8,0:0:0:0:
64,192,112273,1,0,0:0:0:0:
320,192,112358,1,0,0:0:0:0:
192,192,112443,1,0,0:0:0:0:
448,192,112614,1,2,0:0:0:0:
64,192,112614,1,0,0:0:0:0:
192,192,112699,1,0,0:0:0:0:
320,192,112784,1,0,0:0:0:0:
192,192,112955,1,8,0:0:0:0:
64,192,112955,1,0,0:0:0:0:
320,192,113125,1,0,0:0:0:0:
448,192,113210,1,2,0:0:0:0:
192,192,113296,1,0,0:0:0:0:
320,192,113296,1,2,0:0:0:0:
64,192,113466,1,2,0:0:0:0:
192,192,113523,1,0,0:0:0:0:
320,192,113580,1,0,0:0:0:0:
448,192,113636,1,8,0:0:0:0:
64,192,113807,1,0,0:0:0:0:
192,192,113977,1,2,0:0:0:0:
448,192,113977,1,0,0:0:0:0:
320,192,114063,1,0,0:0:0:0:
192,192,114148,1,0,0:0:0:0:
64,192,114318,1,0,0:0:0:0:
448,192,114318,1,8,0:0:0:0:
192,192,114489,1,0,0:0:0:0:
320,192,114574,1,2,0:0:0:0:
448,192,114659,1,2,0:0:0:0:
64,192,114659,1,0,0:0:0:0:
320,192,114830,1,2,0:0:0:0:
64,192,115000,1,8,0:0:0:0:
192,192,115000,1,0,0:0:0:0:
64,192,115171,1,0,0:0:0:0:
448,192,115171,1,2,0:0:0:0:
320,192,115511,1,2,0:0:0:0:
192,192,115511,1,0,0:0:0:0:
320,192,115852,1,2,0:0:0:0:
64,192,115852,1,0,0:0:0:0:
448,192,116023,1,2,0:0:0:0:
64,192,116023,1,0,0:0:0:0:
192,192,116193,1,0,0:0:0:0:
320,192,116278,1,0,0:0:0:0:
448,192,116364,1,0,0:0:0:0:
64,192,116364,1,8,0:0:0:0:
192,192,116705,1,2,0:0:0:0:
448,192,116705,1,4,0:0:0:0:
64,192,116705,1,0,0:0:0:0:
320,192,117046,1,0,0:0:0:0:
64,192,117046,1,2,0:0:0:0:
448,192,117216,1,0,0:0:0:0:
192,192,117301,1,2,0:0:0:0:
320,192,117386,1,2,0:0:0:0:
448,192,117386,1,0,0:0:0:0:
64,192,117557,1,8,0:0:0:0:
192,192,117557,1,0,0:0:0:0:
320,192,117727,1,8,0:0:0:0:
448,192,117727,1,0,0:0:0:0:
64,192,118068,1,2,0:0:0:0:
448,192,118068,128,0,118239:0:0:0:0:
192,192,118239,128,0,118409:0:0:0:0:
320,192,118409,128,0,118580:0:0:0:0:
448,192,118409,1,2,0:0:0:0:
64,192,118580,128,0,118750:0:0:0:0:
192,192,118750,128,0,118921:0:0:0:0:
448,192,118750,1,2,0:0:0:0:
448,192,118921,1,8,0:0:0:0:
320,192,119006,1,0,0:0:0:0:
64,192,119091,1,8,0:0:0:0:
192,192,119091,128,0,119261:0:0:0:0:
320,192,119261,128,0,119432:0:0:0:0:
64,192,119432,1,2,0:0:0:0:
448,192,119432,1,0,0:0:0:0:
320,192,119773,1,0,0:0:0:0:
64,192,119773,1,8,0:0:0:0:
448,192,119943,1,0,0:0:0:0:
192,192,120028,1,2,0:0:0:0:
320,192,120114,1,0,0:0:0:0:
448,192,120114,1,2,0:0:0:0:
192,192,120284,1,8,0:0:0:0:
64,192,120284,1,0,0:0:0:0:
64,192,120455,1,8,0:0:0:0:
448,192,120455,1,0,0:0:0:0:
192,192,120796,1,2,0:0:0:0:
320,192,120796,1,0,0:0:0:0:
64,192,120966,128,0,121307:0:0:0:0:
448,192,121136,1,2,0:0:0:0:
320,192,121307,128,0,121477:0:0:0:0:
64,192,121477,1,8,0:0:0:0:
192,192,121477,128,0,121648:0:0:0:0:
448,192,121648,1,2,0:0:0:0:
320,192,121733,1,0,0:0:0:0:
64,192,121818,1,2,0:0:0:0:
192,192,121818,128,0,121989:0:0:0:0:
320,192,121989,1,0,0:0:0:0:
448,192,122159,1,0,0:0:0:0:
64,192,122159,1,2,0:0:0:0:
320,192,122244,1,0,0:0:0:0:
192,192,122330,1,0,0:0:0:0:
448,192,122415,1,0,0:0:0:0:
320,192,122500,1,8,0:0:0:0:
448,192,122585,1,0,0:0:0:0:
64,192,122671,1,0,0:0:0:0:
192,192,122756,1,2,0:0:0:0:
320,192,122841,1,2,0:0:0:0:
64,192,122926,1,0,0:0:0:0:
192,192,123011,1,2,0:0:0:0:
64,192,123097,1,0,0:0:0:0:
448,192,123182,1,8,0:0:0:0:
192,192,123267,1,0,0:0:0:0:
320,192,123352,1,0,0:0:0:0:
64,192,123438,1,0,0:0:0:0:
448,192,123523,1,2,0:0:0:0:
192,192,123608,1,0,0:0:0:0:
320,192,123693,1,0,0:0:0:0:
192,192,123778,1,0,0:0:0:0:
64,192,123864,1,8,0:0:0:0:
448,192,123949,1,0,0:0:0:0:
320,192,124034,1,0,0:0:0:0:
192,192,124119,1,2,0:0:0:0:
64,192,124205,1,2,0:0:0:0:
448,192,124290,1,0,0:0:0:0:
320,192,124375,1,2,0:0:0:0:
448,192,124460,1,0,0:0:0:0:
64,192,124546,1,2,0:0:0:0:
192,192,124631,1,0,0:0:0:0:
64,192,124716,1,0,0:0:0:0:
320,192,124801,1,0,0:0:0:0:
448,192,124886,1,2,0:0:0:0:
192,192,124972,1,0,0:0:0:0:
320,192,125057,1,0,0:0:0:0:
64,192,125142,1,0,0:0:0:0:
192,192,125227,1,8,0:0:0:0:
320,192,125313,1,0,0:0:0:0:
448,192,125398,1,0,0:0:0:0:
64,192,125483,1,2,0:0:0:0:
192,192,125568,1,2,0:0:0:0:
64,192,125653,1,0,0:0:0:0:
448,192,125739,1,2,0:0:0:0:
320,192,125824,1,0,0:0:0:0:
192,192,125909,1,8,0:0:0:0:
64,192,125994,1,0,0:0:0:0:
448,192,126080,1,0,0:0:0:0:
320,192,126080,1,2,0:0:0:0:
192,192,126250,1,0,0:0:0:0:
320,192,126421,1,0,0:0:0:0:
448,192,126421,1,8,0:0:0:0:
64,192,126591,1,8,0:0:0:0:
192,192,126591,1,0,0:0:0:0:
448,192,126761,1,0,0:0:0:0:
320,192,126847,1,2,0:0:0:0:
192,192,126932,1,0,0:0:0:0:
64,192,126932,1,2,0:0:0:0:
320,192,127102,1,8,0:0:0:0:
448,192,127102,1,0,0:0:0:0:
192,192,127273,1,8,0:0:0:0:
64,192,127273,1,0,0:0:0:0:
448,192,127614,1,0,0:0:0:0:
64,192,127614,1,4,0:0:0:0:
320,192,127614,1,2,0:0:0:0:
448,192,127955,1,2,0:0:0:0:
192,192,127955,1,0,0:0:0:0:
64,192,128125,1,0,0:0:0:0:
320,192,128210,1,2,0:0:0:0:
64,192,128296,1,0,0:0:0:0:
192,192,128296,1,2,0:0:0:0:
320,192,128466,1,0,0:0:0:0:
448,192,128466,1,8,0:0:0:0:
64,192,128636,1,0,0:0:0:0:
448,192,128636,1,8,0:0:0:0:
64,192,128977,128,0,129148:0:0:0:0:
192,192,128977,1,2,0:0:0:0:
320,192,129148,128,0,129318:0:0:0:0:
448,192,129318,1,2,0:0:0:0:
192,192,129318,128,0,129489:0:0:0:0:
448,192,129489,128,0,129659:0:0:0:0:
192,192,129659,1,2,0:0:0:0:
320,192,129659,128,0,129830:0:0:0:0:
64,192,129830,1,8,0:0:0:0:
192,192,129915,1,0,0:0:0:0:
64,192,130000,128,0,130171:0:0:0:0:
448,192,130000,1,8,0:0:0:0:
192,192,130171,128,0,130341:0:0:0:0:
320,192,130341,1,0,0:0:0:0:
448,192,130341,1,2,0:0:0:0:
64,192,130682,1,2,0:0:0:0:
192,192,130682,1,0,0:0:0:0:
448,192,130852,1,0,0:0:0:0:
320,192,130938,1,2,0:0:0:0:
64,192,131023,1,2,0:0:0:0:
192,192,131023,1,0,0:0:0:0:
448,192,131193,1,0,0:0:0:0:
320,192,131193,1,8,0:0:0:0:
64,192,131364,1,0,0:0:0:0:
192,192,131364,1,8,0:0:0:0:
192,192,131705,1,0,0:0:0:0:
320,192,131705,1,2,0:0:0:0:
448,192,131875,128,0,132216:0:0:0:0:
64,192,132046,1,8,0:0:0:0:
192,192,132216,128,0,132386:0:0:0:0:
320,192,132386,128,0,132557:0:0:0:0:
64,192,132386,1,8,0:0:0:0:
448,192,132557,1,2,0:0:0:0:
192,192,132642,1,0,0:0:0:0:
64,192,132727,128,0,132898:0:0:0:0:
448,192,132898,1,2,0:0:0:0:
448,192,133068,1,2,0:0:0:0:
64,192,133068,1,0,0:0:0:0:
192,192,133153,1,0,0:0:0:0:
320,192,133239,1,0,0:0:0:0:
64,192,133324,1,0,0:0:0:0:
448,192,133409,1,8,0:0:0:0:
192,192,133494,1,0,0:0:0:0:
320,192,133580,1,0,0:0:0:0:
64,192,133665,1,2,0:0:0:0:
448,192,133750,1,2,0:0:0:0:
192,192,133835,1,0,0:0:0:0:
320,192,133921,1,2,0:0:0:0:
192,192,134006,1,0,0:0:0:0:
448,192,134091,1,8,0:0:0:0:
64,192,134176,1,0,0:0:0:0:
448,192,134261,1,0,0:0:0:0:
192,192,134347,1,0,0:0:0:0:
320,192,134432,1,2,0:0:0:0:
64,192,134517,1,0,0:0:0:0:
448,192,134602,1,0,0:0:0:0:
192,192,134688,1,0,0:0:0:0:
320,192,134773,1,8,0:0:0:0:
64,192,134858,1,0,0:0:0:0:
192,192,134943,1,0,0:0:0:0:
64,192,135028,1,2,0:0:0:0:
448,192,135114,1,2,0:0:0:0:
320,192,135199,1,0,0:0:0:0:
448,192,135284,1,2,0:0:0:0:
64,192,135369,1,0,0:0:0:0:
192,192,135455,1,8,0:0:0:0:
320,192,135540,1,0,0:0:0:0:
192,192,135625,1,0,0:0:0:0:
448,192,135710,1,0,0:0:0:0:
64,192,135796,1,2,0:0:0:0:
448,192,135881,1,0,0:0:0:0:
192,192,135966,1,0,0:0:0:0:
320,192,136051,1,0,0:0:0:0:
64,192,136136,1,8,0:0:0:0:
448,192,136222,1,0,0:0:0:0:
192,192,136307,1,0,0:0:0:0:
320,192,136392,1,2,0:0:0:0:
64,192,136477,1,2,0:0:0:0:
448,192,136563,1,0,0:0:0:0:
64,192,136648,1,2,0:0:0:0:
320,192,136733,1,0,0:0:0:0:
192,192,136818,1,8,0:0:0:0:
320,192,136903,1,0,0:0:0:0:
64,192,136989,1,2,0:0:0:0:
192,192,137074,1,0,0:0:0:0:
320,192,137159,1,0,0:0:0:0:
448,192,137244,1,0,0:0:0:0:
64,192,137330,1,8,0:0:0:0:
192,192,137330,1,0,0:0:0:0:
320,192,137500,1,0,0:0:0:0:
448,192,137500,1,8,0:0:0:0:
448,192,137841,1,8,0:0:0:0:
64,192,137841,1,0,0:0:0:0:
192,192,138011,1,2,0:0:0:0:
320,192,138097,1,2,0:0:0:0:
192,192,138182,1,0,0:0:0:0:
64,192,138182,1,8,0:0:0:0:
448,192,138523,128,0,139886:0:0:0:0:
320,192,138523,1,4,0:0:0:0:
64,192,138523,1,2,0:0:0:0:
64,192,138864,1,8,0:0:0:0:
192,192,138864,1,0,0:0:0:0:
320,192,139034,1,0,0:0:0:0:
192,192,139119,1,2,0:0:0:0:
64,192,139205,1,2,0:0:0:0:
320,192,139375,1,2,0:0:0:0:
64,192,139546,1,8,0:0:0:0:
192,192,139546,1,0,0:0:0:0:
64,192,139886,128,0,141250:0:0:0:0:
320,192,139886,1,2,0:0:0:0:
192,192,140227,1,0,0:0:0:0:
448,192,140227,1,8,0:0:0:0:
320,192,140398,1,0,0:0:0:0:
192,192,140483,1,2,0:0:0:0:
448,192,140568,1,2,0:0:0:0:
320,192,140739,1,2,0:0:0:0:
448,192,140909,1,8,0:0:0:0:
192,192,140909,1,0,0:0:0:0:
320,192,141250,128,0,143977:0:0:0:0:
192,192,141250,1,2,0:0:0:0:
448,192,141591,1,0,0:0:0:0:
64,192,141591,1,8,0:0:0:0:
192,192,141761,1,0,0:0:0:0:
64,192,141847,1,2,0:0:0:0:
448,192,141932,1,2,0:0:0:0:
192,192,142102,1,2,0:0:0:0:
64,192,142273,1,0,0:0:0:0:
448,192,142273,1,8,0:0:0:0:
192,192,142614,1,2,0:0:0:0:
192,192,142955,1,8,0:0:0:0:
64,192,142955,1,0,0:0:0:0:
448,192,143125,1,0,0:0:0:0:
64,192,143210,1,2,0:0:0:0:
192,192,143296,1,2,0:0:0:0:
64,192,143466,1,2,0:0:0:0:
192,192,143636,1,0,0:0:0:0:
448,192,143636,1,8,0:0:0:0:
64,192,143977,128,0,145341:0:0:0:0:
192,192,143977,1,4,0:0:0:0:
448,192,143977,1,2,0:0:0:0:
448,192,144318,1,8,0:0:0:0:
320,192,144318,1,0,0:0:0:0:
192,192,144489,1,0,0:0:0:0:
320,192,144574,1,2,0:0:0:0:
448,192,144659,1,2,0:0:0:0:
192,192,144830,1,2,0:0:0:0:
448,192,145000,1,8,0:0:0:0:
320,192,145000,1,0,0:0:0:0:
448,192,145341,128,0,146705:0:0:0:0:
192,192,145341,1,2,0:0:0:0:
320,192,145682,1,0,0:0:0:0:
64,192,145682,1,8,0:0:0:0:
192,192,145852,1,0,0:0:0:0:
320,192,145938,1,2,0:0:0:0:
64,192,146023,1,2,0:0:0:0:
192,192,146193,1,2,0:0:0:0:
64,192,146364,1,8,0:0:0:0:
320,192,146364,1,0,0:0:0:0:
64,192,146705,1,2,0:0:0:0:
192,192,146705,128,0,149432:0:0:0:0:
448,192,149432,128,2,149602:0:0:0:0:
320,192,149602,128,0,149773:0:0:0:0:
192,192,149858,128,0,150028:0:0:0:0:
64,192,150028,128,0,151307:0:0:0:0:
320,192,151307,128,0,151648:0:0:0:0:
448,192,151733,128,0,151903:0:0:0:0:
192,192,151903,128,0,152074:0:0:0:0:
64,192,152159,128,2,152415:0:0:0:0:
448,192,152159,1,4,0:0:0:0:
320,192,152500,128,0,152671:0:0:0:0:
192,192,152671,128,0,154205:0:0:0:0:
448,192,154205,128,8,154460:0:0:0:0:
320,192,154460,128,2,154716:0:0:0:0:
192,192,154716,128,2,154886:0:0:0:0:
448,192,154886,128,2,155057:0:0:0:0:
64,192,155057,1,0,0:0:0:0:
192,192,155142,1,0,0:0:0:0:
320,192,155227,1,0,0:0:0:0:
448,192,155398,1,0,0:0:0:0:
320,192,155483,1,0,0:0:0:0:
192,192,155568,1,0,0:0:0:0:
320,192,155739,1,0,0:0:0:0:
192,192,155824,1,0,0:0:0:0:
64,192,155909,128,0,156080:0:0:0:0:
448,192,156080,128,0,156250:0:0:0:0:
192,192,156250,128,2,156421:0:0:0:0:
320,192,156421,128,0,156591:0:0:0:0:
64,192,156591,1,2,0:0:0:0:
192,192,156676,1,0,0:0:0:0:
320,192,156761,1,0,0:0:0:0:
448,192,156847,1,0,0:0:0:0:
64,192,156932,1,8,0:0:0:0:
320,192,157102,1,0,0:0:0:0:
192,192,157188,1,0,0:0:0:0:
320,192,157273,1,0,0:0:0:0:
192,192,157358,1,0,0:0:0:0:
64,192,157443,1,0,0:0:0:0:
320,192,157614,1,4,0:0:0:0:
448,192,157614,1,2,0:0:0:0:
64,192,157727,1,0,0:0:0:0:
192,192,157841,1,0,0:0:0:0:
320,192,157955,1,0,0:0:0:0:
64,192,158040,1,2,0:0:0:0:
192,192,158125,1,2,0:0:0:0:
320,192,158210,1,0,0:0:0:0:
448,192,158296,128,8,158466:0:0:0:0:
320,192,158466,128,0,158636:0:0:0:0:
64,192,158636,128,0,158807:0:0:0:0:
192,192,158807,128,0,158977:0:0:0:0:
448,192,158977,1,2,0:0:0:0:
320,192,159063,128,0,159148:0:0:0:0:
192,192,159148,1,8,0:0:0:0:
320,192,159318,1,2,0:0:0:0:
192,192,159403,1,8,0:0:0:0:
64,192,159489,1,0,0:0:0:0:
320,192,159574,1,2,0:0:0:0:
192,192,159659,1,8,0:0:0:0:
448,192,159744,1,8,0:0:0:0:
320,192,159830,1,8,0:0:0:0:
192,192,159915,1,8,0:0:0:0:
64,192,160000,1,0,0:0:0:0:
448,192,160000,128,0,160171:0:0:0:0:
320,192,160171,128,0,160341:0:0:0:0:
64,192,160341,1,4,0:0:0:0:
192,192,160341,128,2,160568:0:0:0:0:
320,192,160568,128,0,160796:0:0:0:0:
64,192,160796,128,0,161023:0:0:0:0:
320,192,161023,128,8,161236:0:0:0:0:
192,192,161250,128,0,161477:0:0:0:0:
448,192,161477,128,0,161705:0:0:0:0:
64,192,161705,128,0,162557:0:0:0:0:
448,192,162046,1,2,0:0:0:0:
320,192,162046,1,4,0:0:0:0:
192,192,162386,1,0,0:0:0:0:
320,192,162386,1,8,0:0:0:0:
448,192,162557,1,0,0:0:0:0:
320,192,162642,1,0,0:0:0:0:
192,192,162727,1,0,0:0:0:0:
320,192,162813,1,0,0:0:0:0:
192,192,162898,1,0,0:0:0:0:
64,192,162983,1,0,0:0:0:0:
192,192,163068,1,2,0:0:0:0:
320,192,163068,1,4,0:0:0:0:
448,192,163068,128,0,163580:0:0:0:0:
192,192,163324,1,0,0:0:0:0:
64,192,163409,1,0,0:0:0:0:
320,192,163580,1,2,0:0:0:0:
64,192,163750,1,8,0:0:0:0:
192,192,163750,128,0,164261:0:0:0:0:
320,192,164091,1,0,0:0:0:0:
448,192,164261,1,0,0:0:0:0:
64,192,164432,1,0,0:0:0:0:
320,192,164517,1,0,0:0:0:0:
192,192,164602,128,0,164943:0:0:0:0:
448,192,164773,1,2,0:0:0:0:
448,192,165114,128,0,165455:0:0:0:0:
64,192,165114,1,8,0:0:0:0:
320,192,165199,1,0,0:0:0:0:
64,192,165369,1,8,0:0:0:0:
192,192,165455,128,0,165625:0:0:0:0:
320,192,165625,1,8,0:0:0:0:
448,192,165796,128,2,166023:0:0:0:0:
320,192,166023,128,2,166250:0:0:0:0:
64,192,166250,128,2,166477:0:0:0:0:
192,192,166477,128,2,166705:0:0:0:0:
320,192,166705,128,2,166932:0:0:0:0:
448,192,166932,128,2,167159:0:0:0:0:
64,192,167159,5,0,0:0:0:0:
192,192,167244,1,0,0:0:0:0:
320,192,167330,1,0,0:0:0:0:
64,192,167415,1,0,0:0:0:0:
448,192,167500,1,0,0:0:0:0:
320,192,167585,1,0,0:0:0:0:
64,192,167756,1,0,0:0:0:0:
192,192,167841,1,0,0:0:0:0:
448,192,167926,1,0,0:0:0:0:
320,192,168011,1,0,0:0:0:0:
192,192,168097,1,0,0:0:0:0:
320,192,168182,1,2,0:0:0:0:
64,192,168182,1,0,0:0:0:0:
448,192,168182,1,4,0:0:0:0:
448,192,168523,1,2,0:0:0:0:
64,192,168523,128,0,169801:0:0:0:0:
320,192,168693,1,2,0:0:0:0:
448,192,168864,1,8,0:0:0:0:
192,192,168864,1,2,0:0:0:0:
320,192,169034,1,2,0:0:0:0:
448,192,169205,1,2,0:0:0:0:
192,192,169375,1,2,0:0:0:0:
448,192,169546,1,8,0:0:0:0:
320,192,169546,1,2,0:0:0:0:
192,192,169716,1,2,0:0:0:0:
320,192,169801,128,2,169886:0:0:0:0:
192,192,169886,1,2,0:0:0:0:
448,192,169886,128,0,171080:0:0:0:0:
64,192,170057,1,2,0:0:0:0:
192,192,170227,1,2,0:0:0:0:
320,192,170227,1,8,0:0:0:0:
64,192,170398,1,2,0:0:0:0:
320,192,170568,1,2,0:0:0:0:
64,192,170739,1,2,0:0:0:0:
192,192,170909,1,8,0:0:0:0:
64,192,170909,1,2,0:0:0:0:
320,192,171080,128,2,171250:0:0:0:0:
448,192,171250,1,2,0:0:0:0:
64,192,171250,128,0,171761:0:0:0:0:
192,192,171421,1,2,0:0:0:0:
320,192,171591,1,8,0:0:0:0:
448,192,171591,1,2,0:0:0:0:
192,192,171761,1,2,0:0:0:0:
320,192,171847,1,2,0:0:0:0:
448,192,171932,1,2,0:0:0:0:
192,192,172102,1,2,0:0:0:0:
64,192,172188,1,2,0:0:0:0:
320,192,172273,1,8,0:0:0:0:
448,192,172273,1,2,0:0:0:0:
192,192,172443,1,2,0:0:0:0:
320,192,172528,1,2,0:0:0:0:
64,192,172614,1,8,0:0:0:0:
192,192,172614,1,2,0:0:0:0:
320,192,172699,1,2,0:0:0:0:
64,192,172784,1,2,0:0:0:0:
448,192,172869,1,2,0:0:0:0:
320,192,172955,1,8,0:0:0:0:
192,192,172955,1,2,0:0:0:0:
448,192,173040,1,2,0:0:0:0:
64,192,173125,1,2,0:0:0:0:
192,192,173210,1,2,0:0:0:0:
448,192,173296,1,8,0:0:0:0:
320,192,173296,1,2,0:0:0:0:
192,192,173381,1,2,0:0:0:0:
448,192,173466,1,8,0:0:0:0:
64,192,173466,1,2,0:0:0:0:
192,192,173636,1,8,0:0:0:0:
320,192,173636,1,2,0:0:0:0:
448,192,173722,1,2,0:0:0:0:
64,192,173807,1,2,0:0:0:0:
192,192,173892,1,2,0:0:0:0:
320,192,173977,128,0,174489:0:0:0:0:
448,192,173977,1,2,0:0:0:0:
192,192,174148,1,2,0:0:0:0:
448,192,174318,1,8,0:0:0:0:
64,192,174318,1,2,0:0:0:0:
192,192,174489,1,2,0:0:0:0:
64,192,174489,128,0,175341:0:0:0:0:
448,192,174659,1,2,0:0:0:0:
320,192,174830,1,2,0:0:0:0:
448,192,175000,1,8,0:0:0:0:
192,192,175000,1,2,0:0:0:0:
320,192,175171,1,2,0:0:0:0:
448,192,175341,1,2,0:0:0:0:
192,192,175426,1,2,0:0:0:0:
320,192,175511,1,2,0:0:0:0:
192,192,175597,1,2,0:0:0:0:
448,192,175682,1,8,0:0:0:0:
64,192,175682,1,2,0:0:0:0:
320,192,175767,1,2,0:0:0:0:
192,192,175852,1,2,0:0:0:0:
64,192,176023,1,2,0:0:0:0:
192,192,176108,1,2,0:0:0:0:
448,192,176193,1,2,0:0:0:0:
320,192,176278,1,2,0:0:0:0:
192,192,176364,1,8,0:0:0:0:
64,192,176364,1,2,0:0:0:0:
448,192,176449,1,2,0:0:0:0:
320,192,176534,1,2,0:0:0:0:
192,192,176619,1,2,0:0:0:0:
448,192,176705,1,2,0:0:0:0:
64,192,176875,1,2,0:0:0:0:
192,192,176960,1,2,0:0:0:0:
64,192,177046,1,8,0:0:0:0:
320,192,177046,1,2,0:0:0:0:
448,192,177216,1,2,0:0:0:0:
320,192,177301,1,2,0:0:0:0:
192,192,177386,1,2,0:0:0:0:
320,192,177472,1,2,0:0:0:0:
192,192,177557,1,2,0:0:0:0:
64,192,177642,1,2,0:0:0:0:
448,192,177727,1,8,0:0:0:0:
320,192,177727,1,2,0:0:0:0:
192,192,177813,1,2,0:0:0:0:
320,192,177898,1,2,0:0:0:0:
448,192,177983,1,2,0:0:0:0:
192,192,178068,128,2,178750:0:0:0:0:
64,192,178068,1,8,0:0:0:0:
448,192,178239,1,2,0:0:0:0:
320,192,178239,1,8,0:0:0:0:
448,192,178409,1,2,0:0:0:0:
64,192,178409,1,8,0:0:0:0:
320,192,178580,1,2,0:0:0:0:
64,192,178750,1,8,0:0:0:0:
448,192,178750,128,2,179432:0:0:0:0:
320,192,178921,1,2,0:0:0:0:
192,192,178921,1,8,0:0:0:0:
320,192,179091,1,2,0:0:0:0:
64,192,179091,1,8,0:0:0:0:
192,192,179261,1,2,0:0:0:0:
320,192,179347,1,2,0:0:0:0:
192,192,179432,1,2,0:0:0:0:
64,192,179432,128,0,180796:0:0:0:0:
320,192,179602,1,2,0:0:0:0:
448,192,179773,1,8,0:0:0:0:
192,192,179773,1,2,0:0:0:0:
320,192,179943,1,2,0:0:0:0:
192,192,180114,1,2,0:0:0:0:
320,192,180284,1,2,0:0:0:0:
192,192,180369,1,2,0:0:0:0:
448,192,180455,1,10,0:0:0:0:
320,192,180540,1,2,0:0:0:0:
192,192,180625,1,2,0:0:0:0:
320,192,180710,1,2,0:0:0:0:
192,192,180796,128,0,182244:0:0:0:0:
448,192,180796,1,2,0:0:0:0:
320,192,180966,1,2,0:0:0:0:
448,192,181051,1,2,0:0:0:0:
64,192,181136,1,10,0:0:0:0:
320,192,181307,1,2,0:0:0:0:
64,192,181392,1,2,0:0:0:0:
448,192,181477,1,2,0:0:0:0:
320,192,181563,1,2,0:0:0:0:
64,192,181648,1,2,0:0:0:0:
448,192,181818,1,10,0:0:0:0:
64,192,181903,1,2,0:0:0:0:
320,192,181989,1,2,0:0:0:0:
448,192,182074,1,2,0:0:0:0:
64,192,182159,1,2,0:0:0:0:
448,192,182244,128,0,184886:0:0:0:0:
320,192,182244,1,2,0:0:0:0:
64,192,182330,1,2,0:0:0:0:
192,192,182415,1,2,0:0:0:0:
320,192,182500,1,10,0:0:0:0:
64,192,182585,1,2,0:0:0:0:
192,192,182671,1,2,0:0:0:0:
64,192,182756,1,2,0:0:0:0:
320,192,182841,1,2,0:0:0:0:
192,192,182926,1,2,0:0:0:0:
320,192,183011,1,2,0:0:0:0:
64,192,183097,1,2,0:0:0:0:
192,192,183182,1,10,0:0:0:0:
64,192,183267,1,2,0:0:0:0:
320,192,183352,1,2,0:0:0:0:
192,192,183438,1,2,0:0:0:0:
320,192,183523,1,10,0:0:0:0:
64,192,183608,1,2,0:0:0:0:
192,192,183693,1,2,0:0:0:0:
320,192,183778,1,2,0:0:0:0:
64,192,183864,1,10,0:0:0:0:
192,192,183949,1,2,0:0:0:0:
64,192,184034,1,2,0:0:0:0:
320,192,184119,1,2,0:0:0:0:
192,192,184205,1,10,0:0:0:0:
64,192,184290,1,2,0:0:0:0:
320,192,184375,1,10,0:0:0:0:
192,192,184460,1,2,0:0:0:0:
320,192,184546,1,10,0:0:0:0:
64,192,184631,1,2,0:0:0:0:
192,192,184716,1,2,0:0:0:0:
320,192,184801,128,2,184886:0:0:0:0:
192,192,184886,128,2,185483:0:0:0:0:
448,192,185227,1,2,0:0:0:0:
320,192,185227,1,8,0:0:0:0:
64,192,185398,128,2,185483:0:0:0:0:
320,192,185483,128,2,185994:0:0:0:0:
64,192,185909,1,8,0:0:0:0:
192,192,185909,128,2,185994:0:0:0:0:
448,192,185994,128,2,186506:0:0:0:0:
320,192,186421,128,2,186506:0:0:0:0:
192,192,186506,128,2,187017:0:0:0:0:
64,192,186932,128,2,187017:0:0:0:0:
448,192,186932,1,8,0:0:0:0:
320,192,187017,128,2,190000:0:0:0:0:
192,192,187273,1,2,0:0:0:0:
448,192,187273,1,8,0:0:0:0:
448,192,187614,1,0,0:0:0:0:
64,192,187614,1,2,0:0:0:0:
192,192,187955,1,0,0:0:0:0:
192,192,188296,1,0,0:0:0:0:
448,192,188977,1,0,0:0:0:0:
192,192,189318,1,0,0:0:0:0:
192,192,189659,1,0,0:0:0:0:
448,192,189830,1,0,0:0:0:0:
64,192,189915,1,0,0:0:0:0:
192,192,190000,1,0,0:0:0:0:
448,192,190085,1,0,0:0:0:0:
192,192,190341,1,0,0:0:0:0:
448,192,190341,1,2,0:0:0:0:
64,192,190511,1,8,0:0:0:0:
320,192,190597,1,2,0:0:0:0:
192,192,190682,1,0,0:0:0:0:
320,192,190852,1,2,0:0:0:0:
64,192,190852,1,0,0:0:0:0:
448,192,191023,1,8,0:0:0:0:
192,192,191108,1,2,0:0:0:0:
320,192,191193,1,2,0:0:0:0:
64,192,191364,1,2,0:0:0:0:
448,192,191364,1,0,0:0:0:0:
320,192,191534,1,0,0:0:0:0:
192,192,191619,1,0,0:0:0:0:
64,192,191705,1,0,0:0:0:0:
448,192,191705,1,2,0:0:0:0:
320,192,191875,1,8,0:0:0:0:
192,192,191875,1,0,0:0:0:0:
64,192,192046,1,0,0:0:0:0:
448,192,192046,1,8,0:0:0:0:
320,192,192216,1,2,0:0:0:0:
320,192,192386,1,2,0:0:0:0:
192,192,192557,1,2,0:0:0:0:
64,192,192557,1,0,0:0:0:0:
448,192,192727,1,0,0:0:0:0:
192,192,192898,1,8,0:0:0:0:
320,192,192898,1,0,0:0:0:0:
64,192,193068,1,0,0:0:0:0:
192,192,193239,1,2,0:0:0:0:
320,192,193324,1,2,0:0:0:0:
64,192,193409,1,2,0:0:0:0:
448,192,193494,1,2,0:0:0:0:
192,192,193580,1,0,0:0:0:0:
320,192,193580,1,8,0:0:0:0:
192,192,193750,1,0,0:0:0:0:
64,192,193921,1,0,0:0:0:0:
448,192,193921,1,2,0:0:0:0:
320,192,194091,1,2,0:0:0:0:
192,192,194091,1,0,0:0:0:0:
448,192,194261,1,2,0:0:0:0:
64,192,194261,1,0,0:0:0:0:
192,192,194432,1,0,0:0:0:0:
320,192,194432,1,2,0:0:0:0:
320,192,194773,1,8,0:0:0:0:
192,192,194773,1,0,0:0:0:0:
448,192,194943,1,8,0:0:0:0:
64,192,194943,1,0,0:0:0:0:
192,192,195284,1,2,0:0:0:0:
448,192,195284,1,4,0:0:0:0:
64,192,195284,1,0,0:0:0:0:
320,192,195455,1,0,0:0:0:0:
320,192,195625,1,0,0:0:0:0:
64,192,195625,1,2,0:0:0:0:
448,192,195796,1,0,0:0:0:0:
192,192,195881,1,2,0:0:0:0:
320,192,195966,1,2,0:0:0:0:
448,192,195966,1,0,0:0:0:0:
64,192,196136,1,8,0:0:0:0:
192,192,196136,1,0,0:0:0:0:
320,192,196307,1,8,0:0:0:0:
448,192,196307,1,0,0:0:0:0:
64,192,196648,1,2,0:0:0:0:
448,192,196648,128,0,196818:0:0:0:0:
192,192,196818,128,0,196989:0:0:0:0:
320,192,196989,128,0,197159:0:0:0:0:
448,192,196989,1,2,0:0:0:0:
64,192,197159,128,0,197330:0:0:0:0:
192,192,197330,128,0,197500:0:0:0:0:
448,192,197330,1,2,0:0:0:0:
448,192,197500,1,8,0:0:0:0:
320,192,197585,1,0,0:0:0:0:
64,192,197671,1,8,0:0:0:0:
192,192,197671,128,0,197841:0:0:0:0:
320,192,197841,128,0,198011:0:0:0:0:
64,192,198011,1,2,0:0:0:0:
448,192,198011,1,0,0:0:0:0:
192,192,198182,1,0,0:0:0:0:
448,192,198352,1,0,0:0:0:0:
192,192,198352,1,8,0:0:0:0:
448,192,198523,1,0,0:0:0:0:
320,192,198608,1,2,0:0:0:0:
192,192,198693,1,0,0:0:0:0:
64,192,198693,1,2,0:0:0:0:
64,192,198864,1,8,0:0:0:0:
448,192,198864,1,0,0:0:0:0:
320,192,199034,1,8,0:0:0:0:
192,192,199034,1,0,0:0:0:0:
192,192,199375,1,2,0:0:0:0:
320,192,199375,1,0,0:0:0:0:
64,192,199546,128,0,199886:0:0:0:0:
448,192,199716,1,2,0:0:0:0:
320,192,199886,128,0,200057:0:0:0:0:
64,192,200057,1,8,0:0:0:0:
192,192,200057,128,0,200227:0:0:0:0:
448,192,200227,1,2,0:0:0:0:
320,192,200313,1,0,0:0:0:0:
448,192,200398,1,2,0:0:0:0:
192,192,200398,128,0,200568:0:0:0:0:
320,192,200568,1,0,0:0:0:0:
448,192,200739,1,0,0:0:0:0:
64,192,200739,1,2,0:0:0:0:
320,192,200824,1,0,0:0:0:0:
192,192,200909,1,0,0:0:0:0:
448,192,200994,1,0,0:0:0:0:
320,192,201080,1,8,0:0:0:0:
448,192,201165,1,0,0:0:0:0:
64,192,201250,1,0,0:0:0:0:
192,192,201335,1,2,0:0:0:0:
320,192,201421,1,2,0:0:0:0:
64,192,201506,1,0,0:0:0:0:
192,192,201591,1,2,0:0:0:0:
64,192,201676,1,0,0:0:0:0:
448,192,201761,1,8,0:0:0:0:
192,192,201847,1,0,0:0:0:0:
320,192,201932,1,0,0:0:0:0:
64,192,202017,1,0,0:0:0:0:
448,192,202102,1,2,0:0:0:0:
192,192,202188,1,0,0:0:0:0:
320,192,202273,1,0,0:0:0:0:
192,192,202358,1,0,0:0:0:0:
64,192,202443,1,8,0:0:0:0:
448,192,202528,1,0,0:0:0:0:
320,192,202614,1,0,0:0:0:0:
192,192,202699,1,2,0:0:0:0:
64,192,202784,1,2,0:0:0:0:
448,192,202869,1,0,0:0:0:0:
320,192,202955,1,2,0:0:0:0:
448,192,203040,1,0,0:0:0:0:
64,192,203125,1,2,0:0:0:0:
192,192,203210,1,0,0:0:0:0:
64,192,203296,1,0,0:0:0:0:
320,192,203381,1,0,0:0:0:0:
448,192,203466,1,2,0:0:0:0:
192,192,203551,1,0,0:0:0:0:
320,192,203636,1,0,0:0:0:0:
64,192,203722,1,0,0:0:0:0:
192,192,203807,1,8,0:0:0:0:
320,192,203892,1,0,0:0:0:0:
448,192,203977,1,0,0:0:0:0:
64,192,204063,1,2,0:0:0:0:
192,192,204148,1,2,0:0:0:0:
64,192,204233,1,0,0:0:0:0:
448,192,204318,1,2,0:0:0:0:
320,192,204403,1,0,0:0:0:0:
192,192,204489,1,8,0:0:0:0:
64,192,204574,1,0,0:0:0:0:
448,192,204659,1,0,0:0:0:0:
320,192,204659,1,2,0:0:0:0:
192,192,204830,1,0,0:0:0:0:
320,192,205000,1,0,0:0:0:0:
448,192,205000,1,8,0:0:0:0:
64,192,205171,1,8,0:0:0:0:
192,192,205171,1,0,0:0:0:0:
448,192,205341,1,0,0:0:0:0:
320,192,205511,1,0,0:0:0:0:
64,192,205511,1,2,0:0:0:0:
192,192,205682,1,0,0:0:0:0:
320,192,205852,1,0,0:0:0:0:
448,192,206193,1,0,0:0:0:0:
64,192,206193,1,4,0:0:0:0:
192,192,206193,1,2,0:0:0:0:
448,192,206534,1,2,0:0:0:0:
192,192,206534,1,0,0:0:0:0:
64,192,206705,1,0,0:0:0:0:
320,192,206790,1,2,0:0:0:0:
64,192,206875,1,0,0:0:0:0:
192,192,206875,1,2,0:0:0:0:
320,192,207046,1,0,0:0:0:0:
448,192,207046,1,8,0:0:0:0:
64,192,207216,1,0,0:0:0:0:
448,192,207216,1,8,0:0:0:0:
64,192,207557,128,0,207727:0:0:0:0:
192,192,207557,1,2,0:0:0:0:
320,192,207727,128,0,207898:0:0:0:0:
448,192,207898,1,2,0:0:0:0:
192,192,207898,128,0,208068:0:0:0:0:
448,192,208068,128,0,208239:0:0:0:0:
192,192,208239,1,2,0:0:0:0:
320,192,208239,128,0,208409:0:0:0:0:
64,192,208409,1,8,0:0:0:0:
192,192,208494,1,0,0:0:0:0:
64,192,208580,128,0,208750:0:0:0:0:
448,192,208580,1,8,0:0:0:0:
192,192,208750,128,0,208921:0:0:0:0:
320,192,208921,1,0,0:0:0:0:
448,192,208921,1,2,0:0:0:0:
64,192,209261,1,2,0:0:0:0:
192,192,209261,1,0,0:0:0:0:
448,192,209432,1,0,0:0:0:0:
320,192,209517,1,2,0:0:0:0:
64,192,209602,1,2,0:0:0:0:
192,192,209602,1,0,0:0:0:0:
448,192,209773,1,0,0:0:0:0:
320,192,209773,1,8,0:0:0:0:
64,192,209943,1,0,0:0:0:0:
192,192,209943,1,8,0:0:0:0:
192,192,210284,1,0,0:0:0:0:
320,192,210284,1,2,0:0:0:0:
448,192,210455,128,0,210796:0:0:0:0:
64,192,210625,1,8,0:0:0:0:
192,192,210796,128,0,210966:0:0:0:0:
320,192,210966,128,0,211136:0:0:0:0:
64,192,210966,1,8,0:0:0:0:
448,192,211136,1,2,0:0:0:0:
192,192,211222,1,0,0:0:0:0:
64,192,211307,128,0,211477:0:0:0:0:
448,192,211477,1,2,0:0:0:0:
448,192,211648,1,2,0:0:0:0:
64,192,211648,1,0,0:0:0:0:
192,192,211733,1,0,0:0:0:0:
320,192,211818,1,0,0:0:0:0:
64,192,211903,1,0,0:0:0:0:
448,192,211989,1,8,0:0:0:0:
192,192,212074,1,0,0:0:0:0:
320,192,212159,1,0,0:0:0:0:
64,192,212244,1,2,0:0:0:0:
448,192,212330,1,2,0:0:0:0:
192,192,212415,1,0,0:0:0:0:
320,192,212500,1,2,0:0:0:0:
192,192,212585,1,0,0:0:0:0:
448,192,212671,1,8,0:0:0:0:
64,192,212756,1,0,0:0:0:0:
448,192,212841,1,0,0:0:0:0:
192,192,212926,1,0,0:0:0:0:
320,192,213011,1,2,0:0:0:0:
64,192,213097,1,0,0:0:0:0:
448,192,213182,1,0,0:0:0:0:
192,192,213267,1,0,0:0:0:0:
320,192,213352,1,8,0:0:0:0:
64,192,213438,1,0,0:0:0:0:
192,192,213523,1,0,0:0:0:0:
64,192,213608,1,2,0:0:0:0:
448,192,213693,1,2,0:0:0:0:
320,192,213778,1,0,0:0:0:0:
448,192,213864,1,2,0:0:0:0:
64,192,213949,1,0,0:0:0:0:
192,192,214034,1,8,0:0:0:0:
320,192,214119,1,0,0:0:0:0:
192,192,214205,1,0,0:0:0:0:
448,192,214290,1,0,0:0:0:0:
64,192,214375,1,2,0:0:0:0:
448,192,214460,1,0,0:0:0:0:
192,192,214546,1,0,0:0:0:0:
320,192,214631,1,0,0:0:0:0:
64,192,214716,1,8,0:0:0:0:
448,192,214801,1,0,0:0:0:0:
192,192,214886,1,0,0:0:0:0:
320,192,214972,1,2,0:0:0:0:
64,192,215057,1,2,0:0:0:0:
448,192,215142,1,0,0:0:0:0:
64,192,215227,1,2,0:0:0:0:
320,192,215313,1,0,0:0:0:0:
192,192,215398,1,8,0:0:0:0:
320,192,215483,1,0,0:0:0:0:
64,192,215568,1,2,0:0:0:0:
192,192,215653,1,0,0:0:0:0:
320,192,215739,1,0,0:0:0:0:
448,192,215824,1,0,0:0:0:0:
64,192,215909,1,8,0:0:0:0:
192,192,215909,1,0,0:0:0:0:
320,192,216080,1,0,0:0:0:0:
448,192,216080,1,8,0:0:0:0:
448,192,216421,1,8,0:0:0:0:
64,192,216421,1,0,0:0:0:0:
192,192,216591,1,2,0:0:0:0:
320,192,216676,1,2,0:0:0:0:
192,192,216761,1,0,0:0:0:0:
64,192,216761,1,8,0:0:0:0:
448,192,217102,128,0,218466:0:0:0:0:
320,192,217102,1,4,0:0:0:0:
64,192,217102,1,2,0:0:0:0:
64,192,217443,1,8,0:0:0:0:
192,192,217443,1,0,0:0:0:0:
320,192,217614,1,0,0:0:0:0:
192,192,217699,1,2,0:0:0:0:
64,192,217784,1,2,0:0:0:0:
320,192,217955,1,2,0:0:0:0:
64,192,218125,1,8,0:0:0:0:
192,192,218125,1,0,0:0:0:0:
64,192,218466,128,0,219830:0:0:0:0:
320,192,218466,1,2,0:0:0:0:
192,192,218807,1,0,0:0:0:0:
448,192,218807,1,8,0:0:0:0:
320,192,218977,1,0,0:0:0:0:
192,192,219063,1,2,0:0:0:0:
448,192,219148,1,2,0:0:0:0:
320,192,219318,1,2,0:0:0:0:
448,192,219489,1,8,0:0:0:0:
192,192,219489,1,0,0:0:0:0:
320,192,219830,128,0,222557:0:0:0:0:
192,192,219830,1,2,0:0:0:0:
448,192,220171,1,0,0:0:0:0:
64,192,220171,1,8,0:0:0:0:
192,192,220341,1,0,0:0:0:0:
64,192,220426,1,2,0:0:0:0:
448,192,220511,1,2,0:0:0:0:
192,192,220682,1,2,0:0:0:0:
64,192,220852,1,0,0:0:0:0:
448,192,220852,1,8,0:0:0:0:
192,192,221193,1,2,0:0:0:0:
192,192,221534,1,8,0:0:0:0:
64,192,221534,1,0,0:0:0:0:
448,192,221705,1,0,0:0:0:0:
64,192,221790,1,2,0:0:0:0:
192,192,221875,1,2,0:0:0:0:
64,192,222046,1,2,0:0:0:0:
192,192,222216,1,0,0:0:0:0:
448,192,222216,1,8,0:0:0:0:
64,192,222557,128,0,223921:0:0:0:0:
192,192,222557,1,4,0:0:0:0:
448,192,222557,1,2,0:0:0:0:
448,192,222898,1,8,0:0:0:0:
320,192,222898,1,0,0:0:0:0:
192,192,223068,1,0,0:0:0:0:
320,192,223153,1,2,0:0:0:0:
448,192,223239,1,2,0:0:0:0:
192,192,223409,1,2,0:0:0:0:
448,192,223580,1,8,0:0:0:0:
320,192,223580,1,0,0:0:0:0:
448,192,223921,128,0,225284:0:0:0:0:
192,192,223921,1,2,0:0:0:0:
320,192,224261,1,0,0:0:0:0:
64,192,224261,1,8,0:0:0:0:
192,192,224432,1,0,0:0:0:0:
320,192,224517,1,2,0:0:0:0:
64,192,224602,1,2,0:0:0:0:
192,192,224773,1,2,0:0:0:0:
64,192,224943,1,8,0:0:0:0:
320,192,224943,1,0,0:0:0:0:
64,192,225284,1,2,0:0:0:0:
192,192,225284,1,0,0:0:0:0:
320,192,225369,1,0,0:0:0:0:
192,192,225455,128,0,225625:0:0:0:0:
448,192,225625,1,8,0:0:0:0:
320,192,225625,128,0,225796:0:0:0:0:
64,192,225796,128,0,225966:0:0:0:0:
448,192,225966,128,0,226136:0:0:0:0:
192,192,225966,1,2,0:0:0:0:
320,192,226136,128,2,226307:0:0:0:0:
64,192,226307,1,0,0:0:0:0:
192,192,226307,1,8,0:0:0:0:
448,192,226477,1,0,0:0:0:0:
320,192,226648,1,2,0:0:0:0:
64,192,226648,1,0,0:0:0:0:
192,192,226818,1,0,0:0:0:0:
320,192,226989,1,8,0:0:0:0:
448,192,226989,1,0,0:0:0:0:
192,192,227159,1,0,0:0:0:0:
320,192,227244,1,2,0:0:0:0:
448,192,227330,1,2,0:0:0:0:
64,192,227330,1,0,0:0:0:0:
320,192,227500,1,2,0:0:0:0:
64,192,227671,1,8,0:0:0:0:
192,192,227671,1,0,0:0:0:0:
448,192,227841,1,0,0:0:0:0:
320,192,228011,1,2,0:0:0:0:
192,192,228011,1,0,0:0:0:0:
64,192,228097,1,0,0:0:0:0:
192,192,228182,128,0,228352:0:0:0:0:
320,192,228352,1,8,0:0:0:0:
448,192,228352,128,0,228523:0:0:0:0:
192,192,228523,128,0,228693:0:0:0:0:
64,192,228693,128,0,228864:0:0:0:0:
448,192,228693,1,2,0:0:0:0:
192,192,228864,128,2,229034:0:0:0:0:
448,192,229034,1,0,0:0:0:0:
320,192,229034,1,8,0:0:0:0:
320,192,229205,128,0,229375:0:0:0:0:
64,192,229375,1,8,0:0:0:0:
192,192,229375,128,0,229546:0:0:0:0:
448,192,229546,128,0,229716:0:0:0:0:
320,192,229716,128,0,229886:0:0:0:0:
192,192,229716,1,2,0:0:0:0:
64,192,229886,128,0,230568:0:0:0:0:
192,192,230057,1,0,0:0:0:0:
448,192,230057,1,8,0:0:0:0:
448,192,230227,1,8,0:0:0:0:
320,192,230398,1,8,0:0:0:0:
192,192,230398,1,4,0:0:0:0:
192,192,230739,1,2,0:0:0:0:
448,192,230739,1,0,0:0:0:0:
64,192,230824,1,0,0:0:0:0:
320,192,230909,128,0,231080:0:0:0:0:
448,192,231080,1,8,0:0:0:0:
192,192,231080,128,0,231250:0:0:0:0:
448,192,231250,128,0,231421:0:0:0:0:
64,192,231421,128,0,231591:0:0:0:0:
192,192,231421,1,2,0:0:0:0:
320,192,231591,128,0,231761:0:0:0:0:
64,192,231761,1,0,0:0:0:0:
448,192,231761,1,8,0:0:0:0:
192,192,231932,1,0,0:0:0:0:
448,192,232102,1,2,0:0:0:0:
320,192,232102,1,0,0:0:0:0:
192,192,232273,1,0,0:0:0:0:
64,192,232443,1,8,0:0:0:0:
448,192,232443,1,0,0:0:0:0:
320,192,232614,1,0,0:0:0:0:
192,192,232699,1,2,0:0:0:0:
448,192,232784,1,2,0:0:0:0:
64,192,232784,1,0,0:0:0:0:
320,192,232869,1,0,0:0:0:0:
192,192,232955,1,0,0:0:0:0:
448,192,233125,1,8,0:0:0:0:
64,192,233125,1,0,0:0:0:0:
64,192,233466,1,2,0:0:0:0:
192,192,233466,1,0,0:0:0:0:
320,192,233551,1,0,0:0:0:0:
448,192,233636,128,0,233807:0:0:0:0:
64,192,233807,1,8,0:0:0:0:
192,192,233807,128,0,233977:0:0:0:0:
320,192,233977,128,0,234148:0:0:0:0:
192,192,234148,128,0,234318:0:0:0:0:
448,192,234148,1,2,0:0:0:0:
64,192,234318,128,0,234489:0:0:0:0:
448,192,234489,1,0,0:0:0:0:
320,192,234489,1,8,0:0:0:0:
192,192,234659,128,0,234830:0:0:0:0:
64,192,234830,1,8,0:0:0:0:
448,192,234830,128,0,235000:0:0:0:0:
320,192,235000,128,0,235171:0:0:0:0:
64,192,235171,128,2,235341:0:0:0:0:
192,192,235341,128,2,236193:0:0:0:0:
448,192,235682,1,0,0:0:0:0:
320,192,235852,1,2,0:0:0:0:
64,192,236023,1,0,0:0:0:0:
320,192,236193,1,2,0:0:0:0:
448,192,236193,1,0,0:0:0:0:
192,192,236534,1,0,0:0:0:0:
64,192,236534,1,2,0:0:0:0:
448,192,236875,1,0,0:0:0:0:
320,192,236875,1,2,0:0:0:0:
192,192,237216,1,0,0:0:0:0:
64,192,237216,1,2,0:0:0:0:
320,192,237727,1,2,0:0:0:0:
192,192,237727,1,0,0:0:0:0:
64,192,237898,1,0,0:0:0:0:
448,192,237898,1,2,0:0:0:0:
320,192,238239,1,0,0:0:0:0:
192,192,238239,1,2,0:0:0:0:
64,192,238409,1,2,0:0:0:0:
192,192,238494,1,2,0:0:0:0:
320,192,238580,1,8,0:0:0:0:
448,192,238580,1,4,0:0:0:0:
64,192,238580,1,0,0:0:0:0:
