osu file format v14

[General]
AudioFilename: audio.mp3
AudioLeadIn: 0
PreviewTime: 570
Countdown: 0
SampleSet: Soft
StackLeniency: 0.7
Mode: 0
LetterboxInBreaks: 0
WidescreenStoryboard: 0

[Editor]
DistanceSpacing: 1
BeatDivisor: 12
GridSize: 32
TimelineZoom: 1

[Metadata]
Title:Kyou wa Oyasuminasai
TitleUnicode:きょう わ おやすみなさい
Artist:MOSAIC.WAV
ArtistUnicode:MOSAIC.WAV
Creator:iPhong
Version:4th Night: Advanced Night
Source:がっこうぐらし!
Tags:Gakkou Gurashi anime music box
BeatmapID:1903493
BeatmapSetID:911648

[Difficulty]
HPDrainRate:4.5
CircleSize:3.5
OverallDifficulty:6
ApproachRate:7
SliderMultiplier:2
SliderTickRate:1

[Events]
//Background and Video events
0,0,"BG.jpg",0,0
//Break Periods
//Storyboard Layer 0 (Background)
//Storyboard Layer 1 (Fail)
//Storyboard Layer 2 (Pass)
//Storyboard Layer 3 (Foreground)
//Storyboard Sound Samples

[TimingPoints]
570,923.076923076923,4,2,1,40,1,0
570,-100,4,2,1,40,0,0
6108,-50,4,2,1,40,0,0
7954,-100,4,2,1,40,0,0
11646,-50,4,2,1,40,0,0
15339,-100,4,2,1,40,0,0
18570,-100,4,2,1,5,0,0
19031,-100,4,2,1,40,0,0
22723,-100,4,2,1,40,0,0
30108,-100,4,2,1,40,0,0
35646,-50,4,2,1,40,0,0
37493,-100,4,2,1,40,0,0
41185,-50,4,2,1,40,0,0
44877,-100,4,2,1,40,0,0
48108,-100,4,2,1,5,0,0
48569,-100,4,2,1,40,0,0
55954,-50,4,2,1,40,0,0

[Colours]
Combo1 : 255,128,0
Combo2 : 255,0,66

[HitObjects]
437,304,570,6,0,P|397:260|346:257,1,100,2|0,0:0|0:0,0:0:0:0:
92,359,1493,2,0,P|140:367|184:345,1,100
264,286,2416,5,2,0:0:0:0:
148,137,2878,1,0,0:0:0:0:
148,236,3339,1,0,0:0:0:0:
246,84,3800,1,2,0:0:0:0:
295,212,4262,6,0,P|343:245|389:241,1,100,2|0,0:0|0:0,0:0:0:0:
485,169,5185,2,0,P|498:126|479:71,1,100
352,48,6108,1,2,0:0:0:0:
145,351,7954,6,0,P|179:293|245:288,1,100,2|0,0:0|0:0,0:0:0:0:
305,266,8877,1,2,0:0:0:0:
393,218,9339,2,0,P|425:166|400:122,1,100
352,53,10262,5,2,0:0:0:0:
254,176,10723,1,0,0:0:0:0:
350,190,11185,1,2,0:0:0:0:
226,57,11646,1,2,0:0:0:0:
395,131,14877,5,0,0:0:0:0:
452,212,15339,2,0,P|475:264|415:305,1,100,2|0,0:0|0:0,0:0:0:0:
379,361,16262,1,2,0:0:0:0:
297,302,16723,5,0,0:0:0:0:
307,201,17185,1,2,0:0:0:0:
406,158,17646,6,0,P|421:112|390:73,1,100
304,26,18570,1,2,0:0:0:0:
250,105,19031,1,2,0:0:0:0:
65,349,21800,5,0,0:0:0:0:
128,272,22262,1,2,0:0:0:0:
209,332,22723,2,0,P|262:352|306:328,1,100,2|0,0:0|0:0,0:0:0:0:
363,258,23646,5,0,0:0:0:0:
301,181,24108,1,2,0:0:0:0:
360,100,24570,2,0,P|417:72|445:95,1,100,2|0,0:0|0:0,0:0:0:0:
500,169,25493,5,0,0:0:0:0:
429,239,25954,1,2,0:0:0:0:
352,177,26416,2,0,P|282:158|240:229,1,100,2|0,0:0|0:0,0:0:0:0:
180,226,27339,1,2,0:0:0:0:
75,80,30108,6,0,P|115:124|166:127,1,100,2|0,0:0|0:0,0:0:0:0:
420,25,31031,2,0,P|372:17|328:39,1,100
248,98,31953,5,2,0:0:0:0:
364,247,32416,1,0,0:0:0:0:
364,148,32877,1,0,0:0:0:0:
266,300,33338,1,2,0:0:0:0:
217,172,33800,6,0,P|169:139|123:143,1,100,2|0,0:0|0:0,0:0:0:0:
27,215,34723,2,0,P|14:258|33:313,1,100
160,336,35646,1,0,0:0:0:0:
367,33,37493,6,0,P|333:91|267:96,1,100,2|0,0:0|0:0,0:0:0:0:
207,118,38416,1,2,0:0:0:0:
119,166,38878,2,0,P|87:218|112:262,1,100
160,331,39801,5,2,0:0:0:0:
265,207,40262,1,0,0:0:0:0:
162,194,40724,1,2,0:0:0:0:
286,327,41185,1,2,0:0:0:0:
117,253,44416,5,0,0:0:0:0:
60,172,44877,2,0,P|37:120|97:79,1,100,2|0,0:0|0:0,0:0:0:0:
133,23,45801,1,2,0:0:0:0:
215,82,46262,5,0,0:0:0:0:
205,183,46724,1,2,0:0:0:0:
106,226,47185,6,0,P|91:272|122:311,1,100
208,358,48109,1,2,0:0:0:0:
262,279,48570,1,2,0:0:0:0:
447,35,51338,5,0,0:0:0:0:
384,112,51800,1,2,0:0:0:0:
303,52,52261,2,0,P|250:32|206:56,1,100,2|0,0:0|0:0,0:0:0:0:
149,126,53184,5,0,0:0:0:0:
211,203,53646,1,2,0:0:0:0:
152,284,54108,2,0,P|95:312|67:289,1,100,2|0,0:0|0:0,0:0:0:0:
12,215,55031,5,0,0:0:0:0:
83,145,55492,1,2,0:0:0:0:
160,207,55954,2,0,L|192:229,3,33.3333333333333,2|0|0|0,0:0|0:0|0:0|0:0,0:0:0:0:
