osu file format v14

[General]
AudioFilename: audio.mp3
AudioLeadIn: 0
PreviewTime: 570
Countdown: 0
SampleSet: Soft
StackLeniency: 0.7
Mode: 0
LetterboxInBreaks: 0
WidescreenStoryboard: 0

[Editor]
DistanceSpacing: 1
BeatDivisor: 2
GridSize: 8
TimelineZoom: 1

[Metadata]
Title:Kyou wa Oyasuminasai
TitleUnicode:きょう わ おやすみなさい
Artist:MOSAIC.WAV
ArtistUnicode:MOSAIC.WAV
Creator:iPhong
Version:3rd Night: Normal Night
Source:がっこうぐらし!
Tags:Gakkou Gurashi anime music box
BeatmapID:1903492
BeatmapSetID:911648

[Difficulty]
HPDrainRate:4
CircleSize:3
OverallDifficulty:5
ApproachRate:6
SliderMultiplier:1.4
SliderTickRate:1

[Events]
//Background and Video events
0,0,"BG.jpg",0,0
//Break Periods
//Storyboard Layer 0 (Background)
//Storyboard Layer 1 (Fail)
//Storyboard Layer 2 (Pass)
//Storyboard Layer 3 (Foreground)
//Storyboard Sound Samples

[TimingPoints]
570,923.076923076923,4,2,1,40,1,0
570,-100,4,2,1,40,0,0

[Colours]
Combo1 : 255,128,0
Combo2 : 255,0,66

[HitObjects]
417,97,570,6,0,P|378:122|338:111,1,70,2|0,0:0|0:0,0:0:0:0:
267,80,1493,1,0,0:0:0:0:
198,150,1954,1,0,0:0:0:0:
102,125,2416,6,0,P|58:149|46:170,1,70
40,267,3339,1,2,0:0:0:0:
128,318,3800,1,2,0:0:0:0:
210,257,4262,6,0,P|257:209|240:145,1,140,2|0,0:0|0:0,0:0:0:0:
168,23,6108,1,2,0:0:0:0:
99,229,7954,6,0,P|95:187|114:159,1,70,2|0,0:0|0:0,0:0:0:0:
185,102,8877,1,0,0:0:0:0:
278,64,9339,1,0,0:0:0:0:
357,125,9800,6,0,P|389:162|400:200,1,70
424,273,10723,1,2,0:0:0:0:
330,315,11185,1,2,0:0:0:0:
236,273,11646,1,2,0:0:0:0:
71,111,14877,5,2,0:0:0:0:
149,48,15338,2,0,P|193:30|224:43,1,70,2|0,0:0|0:0,0:0:0:0:
304,76,16261,1,2,0:0:0:0:
344,162,16723,1,2,0:0:0:0:
283,240,17185,6,0,P|226:272|178:242,1,70,2|0,0:0|0:0,0:0:0:0:
50,199,18570,2,0,P|107:167|155:197,1,70,0|8,0:0|0:0,0:0:0:0:
57,340,21800,5,2,0:0:0:0:
134,282,22262,1,2,0:0:0:0:
222,319,22723,2,0,P|268:336|313:316,1,70,2|0,0:0|0:0,0:0:0:0:
378,295,23646,5,2,0:0:0:0:
413,205,24108,1,2,0:0:0:0:
352,129,24570,2,0,P|319:106|274:114,1,70
202,153,25493,5,2,0:0:0:0:
107,187,25954,1,2,0:0:0:0:
30,121,26416,2,0,P|21:79|115:46,1,140,0|4,0:0|0:0,0:0:0:0:
396,49,30108,6,0,P|424:88|420:114,1,70,2|0,0:0|0:0,0:0:0:0:
379,202,31031,1,2,0:0:0:0:
288,168,31493,1,2,0:0:0:0:
213,229,31954,6,0,P|177:254|145:245,1,70
76,192,32877,1,2,0:0:0:0:
53,96,33339,1,2,0:0:0:0:
124,28,33800,6,0,P|173:66|266:49,1,140,2|0,0:0|0:0,0:0:0:0:
414,6,35646,1,2,0:0:0:0:
274,309,37493,6,0,P|225:316|203:301,1,70,2|0,0:0|0:0,0:0:0:0:
125,246,38416,1,2,0:0:0:0:
210,187,38877,1,0,0:0:0:0:
295,246,39339,6,0,P|342:264|375:255,1,70
457,221,40262,1,2,0:0:0:0:
459,125,40723,1,2,0:0:0:0:
376,76,41185,1,2,0:0:0:0:
71,273,44416,5,2,0:0:0:0:
149,336,44877,2,0,P|193:354|224:341,1,70,2|0,0:0|0:0,0:0:0:0:
304,308,45800,1,2,0:0:0:0:
344,222,46262,1,2,0:0:0:0:
283,144,46723,2,0,P|243:114|177:126,1,70,2|0,0:0|0:0,0:0:0:0:
67,200,48108,2,0,P|107:230|173:218,1,70,0|8,0:0|0:0,0:0:0:0:
256,192,51339,12,0,55954,0:0:0:0:
