osu file format v14

[General]
AudioFilename: audio.mp3
AudioLeadIn: 0
PreviewTime: -1
Countdown: 1
SampleSet: Normal
StackLeniency: 0.7
Mode: 0
LetterboxInBreaks: 0
WidescreenStoryboard: 0

[Editor]
Bookmarks: 32884,62654,63115,63577,64038,64500,64961,65423,65884,66346,66808,67269,67731,68192,68654
DistanceSpacing: 0.19
BeatDivisor: 4
GridSize: 4
TimelineZoom: 1

[Metadata]
Title:Beautiful Heartbeat (Deorro Remix)
TitleUnicode:Beautiful Heartbeat (Deorro Remix)
Artist:MORTEN
ArtistUnicode:MORTEN
Creator:- Apollo -
Version:Love
Source:
Tags:
BeatmapID:941990
BeatmapSetID:437500

[Difficulty]
HPDrainRate:6
CircleSize:4
OverallDifficulty:8
ApproachRate:9
SliderMultiplier:1.4
SliderTickRate:1

[Events]
//Background and Video events
0,0,"__your_lie_in_april___by_littlehauntedstory-d8wcp3d.jpg",0,0
//Break Periods
//Storyboard Layer 0 (Background)
//Storyboard Layer 1 (Fail)
//Storyboard Layer 2 (Pass)
//Storyboard Layer 3 (Foreground)
//Storyboard Sound Samples

[TimingPoints]
3766,461.538461538462,4,1,0,100,1,0

[HitObjects]
184,128,32843,6,0,P|144:172|144:188,1,70
240,240,33305,2,0,P|280:196|280:180,1,70
184,128,33766,2,0,P|144:172|144:188,1,70
240,240,34228,2,0,P|280:196|280:180,1,70
256,56,34689,5,0,0:0:0:0:
396,120,35612,1,0,0:0:0:0:
184,212,36535,1,0,0:0:0:0:
324,276,37458,1,0,0:0:0:0:
256,56,38382,1,0,0:0:0:0:
396,120,39305,1,0,0:0:0:0:
432,212,39766,1,0,0:0:0:0:
484,308,40228,1,0,0:0:0:0:
372,240,40689,5,0,0:0:0:0:
372,240,40804,1,0,0:0:0:0:
372,240,40920,1,0,0:0:0:0:
148,164,41151,1,0,0:0:0:0:
332,236,42074,1,0,0:0:0:0:
188,40,42997,1,0,0:0:0:0:
372,112,43920,1,0,0:0:0:0:
148,164,44843,1,0,0:0:0:0:
332,236,45766,1,0,0:0:0:0:
256,120,46689,5,0,0:0:0:0:
256,196,47151,1,0,0:0:0:0:
256,280,47612,1,0,0:0:0:0:
164,156,48534,1,0,0:0:0:0:
240,212,48765,1,0,0:0:0:0:
224,96,48996,1,0,0:0:0:0:
160,104,49227,6,0,P|120:140|128:180,1,70
164,232,49689,1,0,0:0:0:0:
240,156,50150,1,0,0:0:0:0:
272,272,50612,1,0,0:0:0:0:
256,192,51073,12,0,51765,0:0:0:0:
208,164,52919,5,0,0:0:0:0:
208,232,53149,1,0,0:0:0:0:
280,168,53380,1,0,0:0:0:0:
312,252,54304,1,0,0:0:0:0:
420,168,54996,1,0,0:0:0:0:
113,150,55919,5,0,0:0:0:0:
139,228,56150,1,0,0:0:0:0:
210,134,56612,5,0,0:0:0:0:
235,217,56842,1,0,0:0:0:0:
293,129,57073,1,0,0:0:0:0:
383,249,57535,1,0,0:0:0:0:
366,143,57766,1,0,0:0:0:0:
276,237,57996,1,0,0:0:0:0:
106,253,58919,6,0,P|74:214|93:172,1,70
406,253,59381,2,0,P|438:214|419:172,1,70
106,253,59842,6,0,P|74:214|93:172,1,70
406,253,60304,2,0,P|438:214|419:172,1,70
253,191,61919,5,0,0:0:0:0:
175,133,62150,1,0,0:0:0:0:
175,133,62266,1,0,0:0:0:0:
103,237,62612,5,0,0:0:0:0:
247,278,63073,1,0,0:0:0:0:
126,182,63535,2,0,L|128:103,1,70
323,123,63996,2,0,L|355:212,1,70
380,87,64458,5,0,0:0:0:0:
146,91,64919,1,0,0:0:0:0:
375,181,65381,2,0,P|391:213|367:239,1,70
135,186,65842,2,0,P|111:223|127:253,1,70
217,284,66304,5,0,0:0:0:0:
270,75,66766,1,0,0:0:0:0:
126,268,67458,1,0,0:0:0:0:
215,175,67689,1,0,0:0:0:0:
304,82,67919,1,0,0:0:0:0:
396,93,68150,6,0,P|430:121|421:152,1,70
364,147,68612,2,0,P|342:176|357:216,1,70
247,178,69073,6,0,P|281:206|272:237,1,70
215,232,69535,2,0,P|193:261|208:301,1,70
