osu file format v14

[General]
AudioFilename: audio.mp3
AudioLeadIn: 0
PreviewTime: 67032
Countdown: 0
SampleSet: Soft
StackLeniency: 0.7
Mode: 3
LetterboxInBreaks: 0
SpecialStyle: 0
WidescreenStoryboard: 0

[Editor]
DistanceSpacing: 0.7
BeatDivisor: 4
GridSize: 4
TimelineZoom: 2.5

[Metadata]
Title:Color of Drops
TitleUnicode:Color of Drops
Artist:MORE MORE JUMP! x Megurine Luka
ArtistUnicode:MORE MORE JUMP!× 巡音ルカ
Creator:Sun
Version:EASY
Source:プロジェクトセカイ カラフルステージ! feat. 初音ミク
Tags:DenYi japanese pop j-pop jpop vocaloid video game project sekai hatsune miku miku: colorful stage! プロセカ proseka 40mP 花里 みのり はなさと みのり Hanasato Minori Ogura Yui 小倉 唯 桐谷 遥 きりたに はるか Kiritani Haruka 吉岡茉祐 Yoshioka Mayu 桃井 愛莉 ももい あいり Momoi Airi 降幡 愛 Hurihata Ai 日野森 雫 ひのもり しずく Hinomori Shizuku 本泉 莉奈 Honizumi Rina ver version short cut BRMM-10458
BeatmapID:3447347
BeatmapSetID:1686759

[Difficulty]
HPDrainRate:6.5
CircleSize:4
OverallDifficulty:6.5
ApproachRate:5
SliderMultiplier:1.4
SliderTickRate:1

[Events]
//Background and Video events
Video,-4275,"video.mp4"
0,0,"Easy.jpg",0,0
//Break Periods
//Storyboard Layer 0 (Background)
//Storyboard Layer 1 (Fail)
//Storyboard Layer 2 (Pass)
//Storyboard Layer 3 (Foreground)
//Storyboard Layer 4 (Overlay)
//Storyboard Sound Samples
Sample,20058,0,"Tom Sound3.wav",70
Sample,22624,0,"Tom Sound1.wav",70
Sample,51045,0,"Tom Sound3.wav",70
Sample,89927,0,"LR_Snare Drum .wav",40
Sample,90716,0,"LR_Snare Drum 2.wav",50
Sample,91505,0,"LR_Snare Drum 3.wav",40
Sample,94269,0,"Tom Sound2.wav",70
Sample,99795,0,"Tom Sound3.wav",70
Sample,100979,0,"Tom Sound3.wav",70

[TimingPoints]
1506,394.736842105263,4,2,1,70,1,0
67821,-100,4,2,1,70,0,1
86769,-100,4,2,1,70,0,0

[HitObjects]
192,192,716,5,0,0:0:0:0:
320,192,1111,1,0,0:0:0:0:
448,192,1506,1,0,0:0:0:0:
192,192,1900,1,0,0:0:0:0:
320,192,2295,128,0,2887:0:0:0:0:
64,192,2887,1,0,0:0:0:0:
448,192,3479,1,0,0:0:0:0:
192,192,3874,128,0,4466:0:0:0:0:
320,192,4466,1,0,0:0:0:0:
192,192,5058,1,0,0:0:0:0:
448,192,5453,128,0,6045:0:0:0:0:
64,192,6045,1,0,0:0:0:0:
192,192,6637,1,0,0:0:0:0:
320,192,7032,1,0,0:0:0:0:
192,192,7427,1,0,0:0:0:0:
64,192,7821,1,0,0:0:0:0:
320,192,8216,1,0,0:0:0:0:
192,192,8611,128,0,9203:0:0:0:0:
448,192,9203,1,0,0:0:0:0:
64,192,9795,1,0,0:0:0:0:
320,192,10190,128,0,10782:0:0:0:0:
192,192,10782,128,0,11769:0:0:0:0:
448,192,11769,128,0,12558:0:0:0:0:
64,192,12558,1,10,0:0:0:0:
64,192,12755,1,10,0:0:0:0:
192,192,13348,1,0,0:0:0:0:
320,192,13742,1,0,0:0:0:0:
448,192,14137,1,6,0:0:0:0:
320,192,14532,1,8,0:0:0:0:
192,192,14927,128,2,15716:0:0:0:0:
448,192,15321,1,8,0:0:0:0:
320,192,15716,1,2,0:0:0:0:
192,192,16111,1,8,0:0:0:0:
448,192,16505,128,2,17295:0:0:0:0:
64,192,16900,1,8,0:0:0:0:
192,192,17295,1,2,0:0:0:0:
320,192,17690,1,8,0:0:0:0:
64,192,18084,128,2,18874:0:0:0:0:
448,192,18479,1,8,0:0:0:0:
320,192,18874,1,2,0:0:0:0:
192,192,19269,1,8,0:0:0:0:
64,192,19663,128,0,20058:0:0:0:70:Tom Sound2.wav
320,192,20058,128,10,20453:0:0:0:0:
448,192,20453,128,6,21045:0:0:0:0:
192,192,21045,1,2,0:0:0:0:
320,192,21242,128,12,21834:0:0:0:0:
64,192,21834,1,2,0:0:0:0:
192,192,22032,128,2,22624:0:0:0:0:
448,192,22624,1,2,0:0:0:0:
64,192,22821,128,12,23413:0:0:0:0:
320,192,23413,1,2,0:0:0:0:
448,192,23611,128,2,24795:0:0:0:0:
64,192,24005,1,2,0:0:0:0:
192,192,24400,1,2,0:0:0:0:
320,192,24795,1,2,0:0:0:0:
192,192,24992,1,8,0:0:0:0:
64,192,25190,1,10,0:0:0:0:
192,192,26769,128,0,27558:0:0:0:0:
320,192,27558,128,0,28348:0:0:0:0:
64,192,28348,128,0,29137:0:0:0:0:
448,192,29137,128,0,29927:0:0:0:0:
320,192,29927,128,0,30716:0:0:0:0:
192,192,30716,128,0,31505:0:0:0:0:
64,192,31505,128,0,32295:0:0:0:0:
448,192,32295,128,0,32690:0:0:0:0:
320,192,32690,128,0,33084:0:0:0:0:
192,192,33084,128,0,33874:0:0:0:0:
448,192,33874,128,0,34663:0:0:0:0:
320,192,34663,128,0,35453:0:0:0:0:
64,192,35453,128,0,36242:0:0:0:0:
192,192,36242,128,0,37821:0:0:0:0:
320,192,38808,1,8,0:0:0:0:
320,192,39005,1,8,0:0:0:0:
64,192,39400,1,2,0:0:0:0:
448,192,39795,1,2,0:0:0:0:
192,192,40190,1,2,0:0:0:0:
320,192,40584,1,2,0:0:0:0:
64,192,40979,1,2,0:0:0:0:
192,192,41374,1,2,0:0:0:0:
320,192,41769,1,2,0:0:0:0:
64,192,41966,1,8,0:0:0:0:
448,192,42163,1,2,0:0:0:0:
192,192,42558,1,2,0:0:0:0:
320,192,42953,1,2,0:0:0:0:
64,192,43348,1,2,0:0:0:0:
448,192,43742,1,2,0:0:0:0:
192,192,44137,1,2,0:0:0:0:
320,192,44532,1,2,0:0:0:0:
64,192,44927,1,2,0:0:0:0:
448,192,45321,1,10,0:0:0:0:
64,192,45716,1,2,0:0:0:0:
320,192,46111,1,2,0:0:0:0:
192,192,46505,1,2,0:0:0:0:
448,192,46900,1,2,0:0:0:0:
320,192,47295,1,2,0:0:0:0:
192,192,47690,1,2,0:0:0:0:
64,192,48084,1,2,0:0:0:0:
448,192,48282,1,8,0:0:0:0:
192,192,48479,1,2,0:0:0:0:
320,192,48874,1,2,0:0:0:0:
448,192,49269,1,2,0:0:0:0:
64,192,49663,1,2,0:0:0:0:
320,192,49861,1,8,0:0:0:0:
192,192,50058,1,8,0:0:0:0:
448,192,50255,1,6,0:0:0:0:
64,192,51045,1,2,0:0:0:0:
192,192,51242,1,8,0:0:0:0:
320,192,51440,1,0,0:0:0:70:Tom Sound2.wav
448,192,51637,128,0,52032:0:0:0:70:Tom Sound3.wav
192,192,52032,1,8,0:0:0:0:
64,192,52427,128,6,52821:0:0:0:0:
448,192,52821,1,8,0:0:0:0:
320,192,53019,1,10,0:0:0:0:
64,192,53216,1,8,0:0:0:0:
192,192,53413,128,2,53808:0:0:0:0:
320,192,53808,1,0,0:0:0:70:Tom Sound2.wav
448,192,54203,1,2,0:0:0:0:
320,192,54400,1,8,0:0:0:0:
192,192,54598,1,8,0:0:0:0:
64,192,54795,128,0,55190:0:0:0:70:Tom Sound3.wav
320,192,55190,1,8,0:0:0:0:
448,192,55584,128,6,55979:0:0:0:0:
64,192,55979,1,0,0:0:0:70:Tom Sound1.wav
192,192,56177,1,2,0:0:0:0:
448,192,56374,1,2,0:0:0:0:
320,192,56571,128,8,56966:0:0:0:0:
192,192,56966,1,2,0:0:0:0:
448,192,57163,1,0,0:0:0:70:Tom Sound2.wav
64,192,57361,128,2,57953:0:0:0:0:
448,192,58348,1,2,0:0:0:0:
320,192,58545,1,0,0:0:0:0:
192,192,58742,1,2,0:0:0:0:
64,192,58940,128,0,59334:0:0:0:0:
320,192,59334,1,0,0:0:0:0:
192,192,59532,1,2,0:0:0:0:
448,192,59729,128,0,60124:0:0:0:0:
64,192,60124,1,0,0:0:0:0:
192,192,60321,1,2,0:0:0:0:
320,192,60519,128,0,60913:0:0:0:0:
64,192,61111,128,2,61505:0:0:0:0:
448,192,61505,128,2,62098:0:0:0:0:
192,192,62098,1,2,0:0:0:0:
320,192,62295,128,8,63282:0:0:0:0:
64,192,62887,1,8,0:0:0:0:
192,192,63282,1,8,0:0:0:0:
448,192,63677,1,0,0:0:0:0:
320,192,63874,1,8,0:0:0:0:
192,192,64071,1,2,0:0:0:0:
64,192,64269,128,8,64663:0:0:0:0:
448,192,64663,128,0,65650:0:0:0:0:
64,192,65650,1,0,0:0:0:0:
192,192,65848,1,0,0:0:0:0:
320,192,66045,1,0,0:0:0:0:
192,192,67032,128,0,67427:0:0:0:0:
320,192,67427,128,0,67821:0:0:0:0:
448,192,67821,128,6,68216:0:0:0:0:
64,192,68611,1,2,0:0:0:0:
192,192,68808,1,2,0:0:0:0:
320,192,69005,1,8,0:0:0:0:
448,192,69203,128,0,69795:0:0:0:0:
192,192,69992,1,0,0:0:0:0:
64,192,70190,1,2,0:0:0:0:
448,192,70387,1,2,0:0:0:0:
320,192,70584,1,8,0:0:0:0:
192,192,70782,128,0,71374:0:0:0:0:
64,192,71374,1,8,0:0:0:0:
320,192,71571,128,0,71966:0:0:0:0:
192,192,71966,1,2,0:0:0:0:
448,192,72163,1,8,0:0:0:0:
64,192,72361,128,0,72953:0:0:0:0:
320,192,73348,128,2,73742:0:0:0:0:
192,192,73742,128,8,74137:0:0:0:0:
448,192,74137,128,2,74532:0:0:0:0:
64,192,74532,1,8,0:0:0:0:
320,192,74729,128,0,75124:0:0:0:0:
192,192,75124,128,2,75519:0:0:0:0:
448,192,75519,1,0,0:0:0:0:
320,192,75716,1,2,0:0:0:0:
64,192,75913,1,0,0:0:0:0:
192,192,76111,1,8,0:0:0:0:
320,192,76308,128,0,76703:0:0:0:0:
192,192,76900,1,8,0:0:0:0:
448,192,77098,1,0,0:0:0:0:
64,192,77295,128,2,77690:0:0:0:0:
448,192,77690,1,8,0:0:0:0:
192,192,77887,128,2,78282:0:0:0:0:
320,192,78282,128,2,78677:0:0:0:0:
448,192,78677,128,2,79071:0:0:0:0:
64,192,79071,1,10,0:0:0:0:
64,192,79269,1,10,0:0:0:0:
320,192,79663,128,0,80058:0:0:0:0:
192,192,80058,128,0,80453:0:0:0:0:
64,192,80453,128,6,80848:0:0:0:0:
448,192,81242,1,2,0:0:0:0:
320,192,81440,1,0,0:0:0:0:
192,192,81637,1,8,0:0:0:0:
64,192,81834,128,0,82427:0:0:0:0:
320,192,82624,1,0,0:0:0:0:
448,192,82821,1,2,0:0:0:0:
64,192,83019,1,0,0:0:0:0:
192,192,83216,1,8,0:0:0:0:
320,192,83413,128,0,83808:0:0:0:0:
64,192,83808,1,0,0:0:0:0:
448,192,84005,1,8,0:0:0:0:
192,192,84203,1,0,0:0:0:0:
320,192,84400,128,2,84795:0:0:0:0:
64,192,84795,1,8,0:0:0:0:
448,192,84992,128,0,85584:0:0:0:0:
192,192,85584,1,12,0:0:0:0:
64,192,85979,1,10,0:0:0:0:
448,192,86177,1,8,0:0:0:0:
192,192,86374,1,10,0:0:0:0:
320,192,86571,1,8,0:0:0:0:
64,192,86769,128,12,87361:0:0:0:0:
320,192,87361,1,2,0:0:0:0:
192,192,87558,128,12,88150:0:0:0:0:
448,192,88150,1,2,0:0:0:0:
320,192,88348,128,2,88940:0:0:0:0:
64,192,88940,1,2,0:0:0:0:
448,192,89137,128,12,89729:0:0:0:0:
192,192,89729,1,2,0:0:0:0:
64,192,89927,128,2,90519:0:0:0:0:
448,192,90519,1,0,0:0:0:50:LR_Snare Drum .wav
192,192,90716,128,2,91505:0:0:0:0:
320,192,91505,1,10,0:0:0:0:
64,192,93084,128,2,94269:0:0:0:0:
448,192,93479,1,0,0:0:0:70:Tom Sound1.wav
320,192,93874,1,8,0:0:0:0:
192,192,94269,1,2,0:0:0:0:
448,192,94466,128,6,94861:0:0:0:0:
64,192,94861,1,8,0:0:0:0:
64,192,95058,1,8,0:0:0:0:
192,192,95453,1,0,0:0:0:0:
320,192,95848,1,0,0:0:0:0:
448,192,96242,1,0,0:0:0:0:
192,192,96637,1,0,0:0:0:0:
64,192,97032,128,0,97624:0:0:0:0:
448,192,97624,1,0,0:0:0:0:
192,192,98216,1,0,0:0:0:0:
448,192,98611,128,0,99203:0:0:0:0:
64,192,99203,1,6,0:0:0:0:
448,192,99795,1,2,0:0:0:0:
320,192,100190,128,0,100979:0:0:0:70:Tom Sound1.wav
64,192,100979,128,6,108874:0:0:0:0:
