osu file format v14

[General]
AudioFilename: audio.mp3
AudioLeadIn: 0
PreviewTime: 50387
Countdown: 0
SampleSet: Soft
StackLeniency: 0.7
Mode: 3
LetterboxInBreaks: 0
SpecialStyle: 0
WidescreenStoryboard: 1

[Editor]
DistanceSpacing: 0.5
BeatDivisor: 4
GridSize: 4
TimelineZoom: 2.3

[Metadata]
Title:MORE! JUMP! MORE!
TitleUnicode:モア!ジャンプ!モア!
Artist:MORE MORE JUMP! x Hatsune Miku
ArtistUnicode:MORE MORE JUMP!× 初音ミク
Creator:Yuiazu-
Version:Nathalia's HARD
Source:プロジェクトセカイ カラフルステージ! feat. 初音ミク
Tags:Project Sekai Colorful Stage Al-Reina cryochan Nathalia- Raisky757 Vocaloid Video Game プロセカ proseka 花里みのり Hanasato Minori 小倉 唯 Ogura Yui 桐谷遥 Kiritani Haruka 吉岡 茉祐 Yoshioka Mayu 桃井愛莉 Momoi Airi 降幡 愛 Furihata Ai 日野森雫 Hinomori Shizuku 本泉 莉奈 Honnizumi Rina NayutalieN Nayutan Seijin ナユタン星人 Japanese Pop Rock Cut Short Version BRMM-10403
BeatmapID:3435553
BeatmapSetID:1681655

[Difficulty]
HPDrainRate:7.5
CircleSize:4
OverallDifficulty:7.5
ApproachRate:5
SliderMultiplier:1.4
SliderTickRate:1

[Events]
//Background and Video events
0,0,"bg.jpg",0,0
//Break Periods
//Storyboard Layer 0 (Background)
//Storyboard Layer 1 (Fail)
//Storyboard Layer 2 (Pass)
//Storyboard Layer 3 (Foreground)
//Storyboard Layer 4 (Overlay)
//Storyboard Sound Samples
Sample,17157,0,"Clap.wav",60
Sample,17305,0,"Clap.wav",60
Sample,45374,0,"HHClose.wav",45
Sample,46860,0,"tom2.wav",60
Sample,47157,0,"tom3.wav",60
Sample,55325,0,"Clap.wav",60
Sample,57850,0,"HHOpen.wav",50
Sample,64830,0,"Clap.wav",60
Sample,74335,0,"Clap.wav",60
Sample,101216,0,"HHOpen.wav",50
Sample,101513,0,"HHOpen.wav",50
Sample,101810,0,"HHOpen.wav",50
Sample,102107,0,"HHOpen.wav",50
Sample,102404,0,"HHOpen.wav",50
Sample,102701,0,"HHOpen.wav",50
Sample,102998,0,"HHOpen.wav",50
Sample,103592,0,"HHOpen.wav",50
Sample,103889,0,"HHOpen.wav",50
Sample,104186,0,"HHOpen.wav",50
Sample,104483,0,"HHOpen.wav",50
Sample,104780,0,"HHOpen.wav",50
Sample,105077,0,"Clap.wav",60
Sample,105226,0,"Clap.wav",60
Sample,105969,0,"HHOpen.wav",50
Sample,106266,0,"HHOpen.wav",50
Sample,106563,0,"HHOpen.wav",50
Sample,107157,0,"HHOpen.wav",50
Sample,107454,0,"HHOpen.wav",50
Sample,107751,0,"HHOpen.wav",50
Sample,108345,0,"HHOpen.wav",50
Sample,108939,0,"HHOpen.wav",50
Sample,110721,0,"Ride.wav",55
Sample,111018,0,"Ride.wav",55
Sample,111315,0,"Ride.wav",55
Sample,111612,0,"Ride.wav",55
Sample,111909,0,"Ride.wav",55
Sample,112206,0,"Ride.wav",55
Sample,112503,0,"Ride.wav",55
Sample,112800,0,"Ride.wav",55
Sample,113097,0,"Ride.wav",55
Sample,113394,0,"Ride.wav",55
Sample,113691,0,"Ride.wav",55
Sample,113988,0,"Ride.wav",55
Sample,114285,0,"Ride.wav",55
Sample,114731,0,"Clap.wav",60
Sample,115176,0,"HHOpen.wav",50
Sample,115473,0,"HHOpen.wav",50
Sample,115770,0,"HHOpen.wav",50
Sample,116068,0,"HHOpen.wav",50
Sample,116365,0,"HHOpen.wav",50
Sample,116662,0,"HHOpen.wav",50
Sample,116959,0,"HHOpen.wav",50
Sample,117256,0,"HHOpen.wav",50
Sample,117553,0,"HHOpen.wav",50
Sample,117850,0,"HHOpen.wav",50
Sample,118147,0,"HHOpen.wav",50
Sample,118444,0,"HHOpen.wav",50

[TimingPoints]
969,297.029702970297,4,2,1,60,1,0
50869,-100,4,2,1,60,0,1
79384,-100,4,2,1,60,0,0
100770,-100,4,2,1,60,0,1
120969,-100,4,2,1,60,0,0

[HitObjects]
320,192,969,5,2,0:0:0:0:
448,192,969,1,0,0:0:0:60:HHOpen.wav
320,192,1117,1,0,0:0:0:0:
448,192,1117,1,0,0:0:0:0:
64,192,2157,1,2,0:0:0:0:
192,192,2157,1,0,0:0:0:60:HHOpen.wav
64,192,2305,1,0,0:0:0:0:
192,192,2305,1,0,0:0:0:0:
64,192,3048,1,8,0:0:0:0:
448,192,3048,1,0,0:0:0:60:tom3.wav
192,192,3345,1,2,0:0:0:0:
320,192,3345,1,0,0:0:0:60:HHOpen.wav
192,192,3493,1,0,0:0:0:0:
320,192,3493,1,0,0:0:0:0:
320,192,4533,1,2,0:0:0:0:
448,192,4533,1,0,0:0:0:60:HHOpen.wav
320,192,4681,1,0,0:0:0:0:
448,192,4681,1,0,0:0:0:0:
64,192,5127,1,8,0:0:0:0:
192,192,5127,1,0,0:0:0:0:
192,192,5275,1,2,0:0:0:0:
320,192,5424,1,8,0:0:0:0:
448,192,5424,1,0,0:0:0:0:
320,192,5572,1,2,0:0:0:0:
64,192,5721,1,2,0:0:0:0:
192,192,5721,128,4,6018:0:0:0:0:
448,192,5721,1,0,0:0:0:0:
320,192,6018,1,2,0:0:0:0:
448,192,6018,128,0,6315:0:0:0:0:
64,192,6315,128,2,6612:0:0:0:0:
192,192,6315,1,0,0:0:0:0:
320,192,6612,128,2,6909:0:0:0:0:
448,192,6612,1,0,0:0:0:0:
64,192,6909,128,2,7503:0:0:0:0:
192,192,6909,1,0,0:0:0:60:Crash 2.wav
320,192,7206,1,2,0:0:0:0:
448,192,7206,1,0,0:0:0:0:
192,192,7503,1,2,0:0:0:0:
448,192,7503,128,0,8097:0:0:0:0:
64,192,7800,1,2,0:0:0:0:
320,192,7800,1,0,0:0:0:0:
64,192,8097,1,8,0:0:0:0:
192,192,8097,1,4,0:0:0:0:
320,192,8097,1,0,0:0:0:0:
320,192,8394,1,8,0:0:0:0:
448,192,8394,1,2,0:0:0:0:
192,192,8543,1,8,0:0:0:0:
64,192,8691,1,8,0:0:0:0:
448,192,8691,1,2,0:0:0:0:
320,192,8840,1,8,0:0:0:0:
64,192,8988,1,8,0:0:0:0:
192,192,8988,1,2,0:0:0:0:
320,192,9137,1,8,0:0:0:0:
64,192,9285,1,2,0:0:0:0:
448,192,9285,1,4,0:0:0:0:
192,192,9582,1,2,0:0:0:0:
320,192,9582,1,0,0:0:0:60:Crash 2.wav
64,192,9879,1,2,0:0:0:0:
192,192,9879,1,4,0:0:0:0:
448,192,10176,1,10,0:0:0:0:
320,192,10251,1,8,0:0:0:0:
192,192,10325,1,8,0:0:0:0:
64,192,10399,1,8,0:0:0:0:
320,192,10473,1,8,0:0:0:0:
448,192,10473,128,0,10770:0:0:0:40:Crash 2.wav
64,192,10770,128,2,11068:0:0:0:0:
192,192,10770,1,0,0:0:0:40:Crash 2.wav
320,192,11068,1,8,0:0:0:0:
448,192,11068,1,0,0:0:0:0:
192,192,11216,1,2,0:0:0:0:
64,192,11365,1,8,0:0:0:0:
448,192,11365,1,0,0:0:0:0:
320,192,11513,128,2,11810:0:0:0:0:
448,192,11513,1,8,0:0:0:0:
64,192,11810,1,2,0:0:0:0:
192,192,11810,1,8,0:0:0:0:
64,192,11959,1,8,0:0:0:0:
448,192,11959,1,0,0:0:0:0:
192,192,12107,1,2,0:0:0:0:
320,192,12107,1,0,0:0:0:0:
64,192,12256,128,8,12553:0:0:0:0:
448,192,12256,1,0,0:0:0:0:
320,192,12553,1,2,0:0:0:0:
448,192,12553,128,0,12850:0:0:0:60:tom2.wav
64,192,12850,1,2,0:0:0:0:
192,192,12850,128,4,13147:0:0:0:0:
320,192,12850,1,0,0:0:0:0:
320,192,13147,128,8,13444:0:0:0:0:
448,192,13147,1,0,0:0:0:0:
64,192,13444,128,2,13741:0:0:0:0:
192,192,13444,1,0,0:0:0:0:
320,192,13741,1,8,0:0:0:0:
448,192,13741,1,0,0:0:0:0:
192,192,13889,1,0,0:0:0:50:HHOpen.wav
64,192,14038,1,2,0:0:0:0:
448,192,14038,1,0,0:0:0:0:
320,192,14186,1,0,0:0:0:50:HHOpen.wav
64,192,14335,1,8,0:0:0:0:
192,192,14335,1,0,0:0:0:0:
448,192,14483,1,0,0:0:0:50:HHOpen.wav
64,192,14632,1,2,0:0:0:0:
320,192,14632,1,0,0:0:0:0:
192,192,14780,1,0,0:0:0:50:HHOpen.wav
320,192,14929,1,8,0:0:0:0:
448,192,14929,1,0,0:0:0:0:
192,192,15077,1,0,0:0:0:50:HHOpen.wav
64,192,15226,1,2,0:0:0:0:
448,192,15226,128,0,15523:0:0:0:0:
64,192,15523,1,8,0:0:0:0:
192,192,15523,128,0,15820:0:0:0:0:
320,192,15820,128,2,16117:0:0:0:0:
448,192,15820,1,0,0:0:0:0:
64,192,16117,1,8,0:0:0:0:
192,192,16117,1,0,0:0:0:0:
320,192,16266,1,0,0:0:0:50:HHOpen.wav
64,192,16414,1,2,0:0:0:0:
448,192,16414,1,0,0:0:0:0:
192,192,16563,1,0,0:0:0:50:HHOpen.wav
320,192,16711,1,8,0:0:0:0:
448,192,16711,1,0,0:0:0:0:
192,192,16860,1,0,0:0:0:50:HHOpen.wav
64,192,17008,1,2,0:0:0:0:
448,192,17008,1,0,0:0:0:0:
320,192,17157,1,0,0:0:0:50:HHOpen.wav
64,192,17305,1,8,0:0:0:0:
192,192,17379,1,8,0:0:0:0:
320,192,17454,1,8,0:0:0:0:
448,192,17528,1,8,0:0:0:0:
64,192,17602,1,4,0:0:0:0:
192,192,17602,128,2,17751:0:0:0:0:
320,192,17751,128,0,17899:0:0:0:50:HHOpen.wav
64,192,17899,1,8,0:0:0:0:
448,192,17899,128,0,18048:0:0:0:0:
192,192,18048,128,0,18196:0:0:0:50:HHOpen.wav
320,192,18196,1,2,0:0:0:0:
448,192,18196,1,0,0:0:0:0:
64,192,18345,128,0,18493:0:0:0:50:HHOpen.wav
192,192,18493,1,8,0:0:0:0:
448,192,18493,1,0,0:0:0:0:
320,192,18642,128,0,18790:0:0:0:50:HHOpen.wav
64,192,18790,1,2,0:0:0:0:
192,192,18790,1,0,0:0:0:0:
448,192,18939,128,0,19087:0:0:0:50:HHOpen.wav
192,192,19087,1,8,0:0:0:0:
320,192,19087,1,0,0:0:0:0:
64,192,19236,128,0,19533:0:0:0:50:HHOpen.wav
320,192,19384,1,2,0:0:0:0:
448,192,19384,1,0,0:0:0:0:
192,192,19533,128,0,19681:0:0:0:50:HHOpen.wav
320,192,19681,1,8,0:0:0:0:
448,192,19681,128,0,19830:0:0:0:0:
64,192,19830,128,0,19978:0:0:0:50:HHOpen.wav
320,192,19978,1,8,0:0:0:0:
448,192,19978,1,0,0:0:0:60:tom3.wav
64,192,20127,1,8,0:0:0:0:
192,192,20127,1,0,0:0:0:60:tom3.wav
64,192,20572,1,8,0:0:0:0:
192,192,20572,1,0,0:0:0:60:tom3.wav
320,192,20721,1,8,0:0:0:0:
448,192,20721,1,0,0:0:0:60:tom3.wav
192,192,21167,128,2,21315:0:0:0:0:
320,192,21167,128,0,21315:0:0:0:50:HHOpen.wav
64,192,21464,128,2,21612:0:0:0:0:
192,192,21464,128,0,21612:0:0:0:50:HHOpen.wav
320,192,21761,128,2,21909:0:0:0:0:
448,192,21761,128,0,21909:0:0:0:50:HHOpen.wav
64,192,22058,1,8,0:0:0:0:
192,192,22058,1,0,0:0:0:0:
64,192,22355,1,2,0:0:0:0:
320,192,22355,1,0,0:0:0:60:Crash 2.wav
448,192,22355,1,0,0:0:0:0:
192,192,22503,1,0,0:0:0:0:
320,192,22652,1,2,0:0:0:0:
448,192,22652,1,0,0:0:0:0:
64,192,22800,1,0,0:0:0:0:
192,192,22949,1,2,0:0:0:0:
448,192,22949,1,0,0:0:0:0:
320,192,23097,1,0,0:0:0:0:
64,192,23246,1,2,0:0:0:0:
192,192,23246,1,0,0:0:0:0:
320,192,23394,1,0,0:0:0:0:
64,192,23543,1,2,0:0:0:0:
448,192,23543,1,0,0:0:0:0:
192,192,23691,1,0,0:0:0:0:
320,192,23840,1,2,0:0:0:0:
448,192,23840,1,0,0:0:0:0:
64,192,23988,1,0,0:0:0:0:
192,192,24137,1,2,0:0:0:0:
320,192,24137,1,0,0:0:0:0:
448,192,24285,1,0,0:0:0:0:
64,192,24434,1,2,0:0:0:0:
320,192,24434,1,0,0:0:0:0:
192,192,24582,1,0,0:0:0:0:
320,192,24731,1,2,0:0:0:0:
448,192,24731,1,0,0:0:0:0:
192,192,24879,1,0,0:0:0:0:
64,192,25028,1,2,0:0:0:0:
448,192,25028,1,0,0:0:0:0:
320,192,25176,1,0,0:0:0:0:
64,192,25325,1,2,0:0:0:0:
192,192,25325,1,0,0:0:0:0:
448,192,25473,1,0,0:0:0:0:
192,192,25622,1,2,0:0:0:0:
320,192,25622,1,0,0:0:0:0:
64,192,25770,1,0,0:0:0:0:
192,192,25919,1,2,0:0:0:0:
448,192,25919,128,0,26068:0:0:0:0:
320,192,26068,1,0,0:0:0:0:
64,192,26216,1,2,0:0:0:0:
192,192,26216,128,0,26365:0:0:0:0:
320,192,26365,1,0,0:0:0:0:
64,192,26513,1,2,0:0:0:0:
448,192,26513,128,0,26662:0:0:0:0:
192,192,26662,1,0,0:0:0:0:
64,192,26810,128,8,26959:0:0:0:0:
320,192,26810,1,0,0:0:0:0:
448,192,26810,1,0,0:0:0:0:
192,192,26959,1,0,0:0:0:0:
64,192,27107,1,2,0:0:0:0:
320,192,27107,1,4,0:0:0:0:
448,192,27107,1,0,0:0:0:0:
192,192,27256,1,0,0:0:0:0:
64,192,27404,1,2,0:0:0:0:
448,192,27404,1,0,0:0:0:0:
320,192,27553,1,0,0:0:0:0:
64,192,27701,1,2,0:0:0:0:
192,192,27701,1,0,0:0:0:0:
448,192,27850,1,0,0:0:0:0:
192,192,27998,1,2,0:0:0:0:
320,192,27998,1,0,0:0:0:0:
64,192,28147,1,0,0:0:0:0:
192,192,28295,1,2,0:0:0:0:
448,192,28295,1,0,0:0:0:0:
320,192,28444,1,0,0:0:0:0:
64,192,28592,1,2,0:0:0:0:
192,192,28592,1,0,0:0:0:0:
320,192,28741,1,0,0:0:0:0:
64,192,28889,1,2,0:0:0:0:
448,192,28889,1,0,0:0:0:0:
192,192,29038,1,0,0:0:0:0:
320,192,29186,1,2,0:0:0:0:
448,192,29186,1,0,0:0:0:0:
64,192,29335,1,0,0:0:0:0:
192,192,29483,1,2,0:0:0:0:
320,192,29483,1,0,0:0:0:0:
448,192,29632,1,0,0:0:0:0:
64,192,29780,1,2,0:0:0:0:
320,192,29780,1,0,0:0:0:0:
192,192,29929,1,0,0:0:0:0:
320,192,30077,1,2,0:0:0:0:
448,192,30077,1,0,0:0:0:0:
192,192,30226,1,0,0:0:0:0:
64,192,30374,1,2,0:0:0:0:
448,192,30374,1,0,0:0:0:0:
192,192,30523,1,8,0:0:0:0:
320,192,30523,128,0,30820:0:0:0:0:
64,192,30820,1,8,0:0:0:0:
448,192,30820,1,2,0:0:0:0:
192,192,30969,1,8,0:0:0:0:
320,192,30969,1,0,0:0:0:0:
64,192,31117,1,8,0:0:0:0:
448,192,31117,1,2,0:0:0:0:
64,192,31266,1,8,0:0:0:0:
192,192,31266,1,0,0:0:0:0:
320,192,31414,1,2,0:0:0:0:
448,192,31414,1,0,0:0:0:0:
64,192,31563,1,8,0:0:0:0:
192,192,31637,1,8,0:0:0:0:
320,192,31711,1,10,0:0:0:0:
448,192,31785,1,8,0:0:0:0:
64,192,31860,1,2,0:0:0:0:
192,192,31860,1,4,0:0:0:0:
320,192,32008,1,0,0:0:0:0:
64,192,32157,1,8,0:0:0:0:
448,192,32157,1,0,0:0:0:0:
192,192,32305,1,0,0:0:0:45:HHClose.wav
320,192,32454,1,2,0:0:0:0:
448,192,32454,1,0,0:0:0:0:
64,192,32602,1,0,0:0:0:45:HHClose.wav
192,192,32751,1,8,0:0:0:0:
320,192,32751,1,0,0:0:0:0:
448,192,32899,1,0,0:0:0:45:HHClose.wav
64,192,33048,128,2,33196:0:0:0:0:
320,192,33048,1,0,0:0:0:0:
192,192,33196,1,0,0:0:0:45:HHClose.wav
320,192,33345,128,8,33493:0:0:0:0:
448,192,33345,1,0,0:0:0:0:
192,192,33493,1,0,0:0:0:45:HHClose.wav
64,192,33642,1,2,0:0:0:0:
448,192,33642,128,0,33790:0:0:0:0:
320,192,33790,1,0,0:0:0:45:HHClose.wav
64,192,33939,1,8,0:0:0:0:
192,192,33939,128,0,34087:0:0:0:0:
448,192,34087,1,0,0:0:0:45:HHClose.wav
192,192,34236,1,2,0:0:0:0:
320,192,34236,128,0,34384:0:0:0:0:
64,192,34384,1,0,0:0:0:45:HHClose.wav
192,192,34533,1,8,0:0:0:0:
448,192,34533,1,0,0:0:0:0:
320,192,34681,1,0,0:0:0:45:HHClose.wav
64,192,34830,1,2,0:0:0:0:
192,192,34830,1,0,0:0:0:0:
320,192,34978,1,0,0:0:0:45:HHClose.wav
64,192,35127,1,8,0:0:0:0:
448,192,35127,1,0,0:0:0:0:
192,192,35275,1,0,0:0:0:45:HHClose.wav
320,192,35424,1,2,0:0:0:0:
448,192,35424,128,0,35572:0:0:0:0:
64,192,35572,1,0,0:0:0:45:HHClose.wav
192,192,35721,128,8,35869:0:0:0:0:
320,192,35721,1,0,0:0:0:45:HHClose.wav
448,192,35869,1,0,0:0:0:45:HHClose.wav
64,192,36018,1,2,0:0:0:0:
320,192,36018,128,0,36167:0:0:0:0:
192,192,36167,1,0,0:0:0:45:HHClose.wav
64,192,36315,128,8,36464:0:0:0:0:
320,192,36315,1,0,0:0:0:0:
448,192,36315,1,0,0:0:0:0:
192,192,36464,1,0,0:0:0:45:HHClose.wav
64,192,36612,1,2,0:0:0:0:
320,192,36612,1,4,0:0:0:0:
448,192,36612,1,0,0:0:0:0:
192,192,36761,1,0,0:0:0:45:HHClose.wav
64,192,36909,1,8,0:0:0:0:
448,192,36909,1,0,0:0:0:0:
320,192,37058,1,0,0:0:0:45:HHClose.wav
64,192,37206,1,2,0:0:0:0:
192,192,37206,1,0,0:0:0:0:
448,192,37355,1,0,0:0:0:45:HHClose.wav
192,192,37503,1,8,0:0:0:0:
320,192,37503,1,0,0:0:0:0:
64,192,37652,1,0,0:0:0:45:HHClose.wav
192,192,37800,128,2,37949:0:0:0:0:
448,192,37800,1,0,0:0:0:0:
320,192,37949,1,0,0:0:0:45:HHClose.wav
64,192,38097,128,8,38246:0:0:0:0:
192,192,38097,1,0,0:0:0:0:
320,192,38246,1,0,0:0:0:45:HHClose.wav
64,192,38394,1,2,0:0:0:0:
448,192,38394,128,0,38543:0:0:0:0:
192,192,38543,1,0,0:0:0:50:HHOpen.wav
320,192,38691,128,8,38840:0:0:0:0:
448,192,38691,1,0,0:0:0:0:
192,192,38840,1,0,0:0:0:50:HHOpen.wav
64,192,38988,1,2,0:0:0:0:
320,192,38988,1,0,0:0:0:30:Crash 2.wav
448,192,38988,128,0,39285:0:0:0:0:
64,192,39285,1,8,0:0:0:0:
192,192,39285,1,0,0:0:0:30:Crash 2.wav
320,192,39434,1,0,0:0:0:0:
64,192,39582,1,2,0:0:0:0:
192,192,39582,128,0,39879:0:0:0:30:Crash 2.wav
448,192,39582,1,0,0:0:0:0:
320,192,39879,1,2,0:0:0:0:
448,192,39879,1,0,0:0:0:30:Crash 2.wav
64,192,40028,128,8,40325:0:0:0:0:
192,192,40028,1,4,0:0:0:0:
448,192,40028,1,0,0:0:0:0:
320,192,40325,1,2,0:0:0:0:
448,192,40325,1,0,0:0:0:0:
64,192,40473,1,8,0:0:0:0:
192,192,40473,1,0,0:0:0:0:
320,192,40622,1,0,0:0:0:0:
192,192,40770,1,8,0:0:0:0:
448,192,40770,128,2,41068:0:0:0:0:
64,192,41068,1,8,0:0:0:0:
192,192,41142,1,8,0:0:0:0:
320,192,41216,1,8,0:0:0:0:
448,192,41290,1,8,0:0:0:0:
64,192,41365,128,2,41662:0:0:0:0:
192,192,41365,1,4,0:0:0:0:
320,192,41662,1,0,0:0:0:45:HHClose.wav
448,192,41662,1,0,0:0:0:0:
192,192,41810,1,2,0:0:0:0:
64,192,41959,1,2,0:0:0:0:
448,192,41959,128,0,42256:0:0:0:0:
64,192,42256,1,8,0:0:0:0:
192,192,42256,1,0,0:0:0:0:
320,192,42553,128,2,42850:0:0:0:0:
448,192,42553,1,0,0:0:0:0:
64,192,42850,1,0,0:0:0:45:HHClose.wav
192,192,42850,1,0,0:0:0:0:
320,192,42998,1,2,0:0:0:0:
64,192,43147,128,2,43444:0:0:0:0:
448,192,43147,1,0,0:0:0:0:
320,192,43444,1,8,0:0:0:0:
448,192,43444,1,0,0:0:0:0:
192,192,43741,128,2,43964:0:0:0:0:
320,192,43741,1,0,0:0:0:0:
448,192,43964,128,0,44186:0:0:0:0:
64,192,44186,128,2,44335:0:0:0:0:
320,192,44335,128,2,44558:0:0:0:0:
448,192,44335,1,0,0:0:0:0:
192,192,44558,1,0,0:0:0:0:
64,192,44632,1,8,0:0:0:0:
448,192,44632,1,0,0:0:0:0:
320,192,44780,128,0,44929:0:0:0:0:
64,192,44929,128,2,45152:0:0:0:0:
192,192,44929,1,0,0:0:0:0:
448,192,45152,128,0,45374:0:0:0:0:
320,192,45374,128,2,45523:0:0:0:0:
64,192,45523,1,8,0:0:0:0:
192,192,45523,1,0,0:0:0:0:
320,192,45671,1,2,0:0:0:0:
64,192,45820,1,8,0:0:0:0:
448,192,45820,1,0,0:0:0:0:
192,192,45968,1,2,0:0:0:0:
64,192,46117,1,2,0:0:0:0:
320,192,46117,128,4,46414:0:0:0:0:
448,192,46117,1,0,0:0:0:0:
64,192,46414,1,2,0:0:0:0:
192,192,46414,1,0,0:0:0:60:tom3.wav
192,192,46563,1,0,0:0:0:60:tom3.wav
320,192,46711,1,2,0:0:0:0:
448,192,46711,1,0,0:0:0:60:tom2.wav
448,192,46860,1,2,0:0:0:0:
64,192,47008,1,2,0:0:0:0:
192,192,47008,1,0,0:0:0:60:tom3.wav
64,192,47157,1,2,0:0:0:0:
320,192,47305,1,2,0:0:0:0:
448,192,47305,1,0,0:0:0:60:tom3.wav
64,192,47454,1,8,0:0:0:0:
192,192,47454,1,2,0:0:0:0:
320,192,47602,1,2,0:0:0:0:
64,192,47751,1,8,0:0:0:0:
448,192,47751,1,2,0:0:0:0:
192,192,47899,1,2,0:0:0:0:
320,192,48048,1,8,0:0:0:0:
448,192,48048,1,2,0:0:0:0:
192,192,48196,1,2,0:0:0:0:
64,192,48345,1,2,0:0:0:0:
448,192,48345,1,8,0:0:0:0:
192,192,48493,128,2,48790:0:0:0:0:
320,192,48493,1,8,0:0:0:0:
320,192,48790,1,2,0:0:0:0:
448,192,48790,128,8,49087:0:0:0:0:
64,192,49087,1,8,0:0:0:0:
192,192,49087,1,0,0:0:0:0:
320,192,49236,1,2,0:0:0:0:
64,192,49384,1,8,0:0:0:0:
448,192,49384,1,0,0:0:0:0:
192,192,49533,1,2,0:0:0:0:
64,192,49681,1,2,0:0:0:0:
320,192,49681,1,0,0:0:0:50:HHOpen.wav
448,192,49681,1,0,0:0:0:0:
64,192,49978,1,2,0:0:0:0:
320,192,49978,1,0,0:0:0:50:HHOpen.wav
448,192,49978,1,0,0:0:0:0:
64,192,50275,1,2,0:0:0:0:
320,192,50275,1,0,0:0:0:50:HHOpen.wav
448,192,50275,1,0,0:0:0:0:
192,192,50424,1,0,0:0:0:0:
320,192,50572,1,0,0:0:0:0:
64,192,50721,1,0,0:0:0:0:
192,192,50869,128,8,51167:0:0:0:0:
320,192,50869,1,2,0:0:0:0:
448,192,50869,1,4,0:0:0:0:
64,192,51167,1,10,0:0:0:0:
448,192,51167,1,0,0:0:0:50:Crash 2.wav
192,192,51315,1,0,0:0:0:50:HHOpen.wav
64,192,51464,1,8,0:0:0:0:
320,192,51464,128,0,51612:0:0:0:0:
448,192,51612,1,0,0:0:0:50:HHOpen.wav
64,192,51761,1,2,0:0:0:0:
192,192,51761,128,8,51909:0:0:0:0:
448,192,51909,1,0,0:0:0:50:HHOpen.wav
192,192,52058,1,2,0:0:0:0:
320,192,52058,1,0,0:0:0:0:
64,192,52206,1,0,0:0:0:50:HHOpen.wav
192,192,52355,1,8,0:0:0:0:
448,192,52355,1,0,0:0:0:0:
320,192,52503,1,0,0:0:0:50:HHOpen.wav
64,192,52652,1,2,0:0:0:0:
192,192,52652,1,0,0:0:0:0:
320,192,52800,1,0,0:0:0:50:HHOpen.wav
64,192,52949,1,8,0:0:0:0:
448,192,52949,1,0,0:0:0:0:
192,192,53097,1,0,0:0:0:50:HHOpen.wav
64,192,53246,1,2,0:0:0:0:
320,192,53246,128,4,53543:0:0:0:0:
448,192,53246,1,0,0:0:0:0:
64,192,53543,1,10,0:0:0:0:
192,192,53543,1,0,0:0:0:50:Crash 2.wav
320,192,53691,1,0,0:0:0:50:HHOpen.wav
192,192,53840,128,8,53988:0:0:0:0:
448,192,53840,1,0,0:0:0:0:
64,192,53988,1,0,0:0:0:50:HHOpen.wav
320,192,54137,128,2,54285:0:0:0:0:
448,192,54137,1,8,0:0:0:0:
64,192,54285,1,0,0:0:0:50:HHOpen.wav
192,192,54434,1,2,0:0:0:0:
320,192,54434,1,0,0:0:0:0:
448,192,54582,1,0,0:0:0:50:HHOpen.wav
64,192,54731,1,8,0:0:0:0:
320,192,54731,1,0,0:0:0:0:
192,192,54879,1,0,0:0:0:50:HHOpen.wav
320,192,55028,1,2,0:0:0:0:
448,192,55028,1,0,0:0:0:0:
64,192,55176,1,0,0:0:0:50:HHOpen.wav
192,192,55176,1,0,0:0:0:60:Clap.wav
448,192,55325,1,8,0:0:0:0:
320,192,55399,1,8,0:0:0:0:
192,192,55473,1,8,0:0:0:0:
64,192,55548,1,8,0:0:0:0:
320,192,55622,1,2,0:0:0:0:
448,192,55622,128,4,55919:0:0:0:0:
64,192,55919,1,8,0:0:0:0:
192,192,55919,1,0,0:0:0:50:Crash 2.wav
320,192,56068,1,0,0:0:0:50:HHOpen.wav
64,192,56216,1,2,0:0:0:0:
448,192,56216,1,0,0:0:0:0:
192,192,56365,1,0,0:0:0:50:HHOpen.wav
320,192,56513,1,8,0:0:0:0:
448,192,56513,1,0,0:0:0:0:
192,192,56662,1,0,0:0:0:50:HHOpen.wav
64,192,56810,128,2,57107:0:0:0:0:
320,192,56810,1,4,0:0:0:0:
448,192,56810,1,0,0:0:0:0:
192,192,57107,1,8,0:0:0:0:
448,192,57107,1,0,0:0:0:0:
320,192,57256,1,0,0:0:0:50:HHOpen.wav
64,192,57404,1,2,0:0:0:0:
192,192,57404,1,0,0:0:0:0:
448,192,57553,1,0,0:0:0:50:HHOpen.wav
64,192,57701,1,8,0:0:0:0:
192,192,57775,1,8,0:0:0:0:
320,192,57850,1,8,0:0:0:0:
448,192,57924,1,8,0:0:0:0:
64,192,57998,1,2,0:0:0:0:
192,192,57998,1,0,0:0:0:60:tom3.wav
320,192,58147,1,8,0:0:0:0:
448,192,58147,1,0,0:0:0:0:
64,192,58295,1,2,0:0:0:0:
448,192,58295,1,0,0:0:0:60:tom3.wav
192,192,58444,1,8,0:0:0:0:
320,192,58444,1,0,0:0:0:0:
64,192,58592,1,2,0:0:0:0:
448,192,58592,1,0,0:0:0:60:tom3.wav
64,192,58889,1,2,0:0:0:0:
448,192,58889,1,0,0:0:0:60:tom3.wav
192,192,59038,1,8,0:0:0:0:
320,192,59038,1,0,0:0:0:0:
64,192,59186,1,2,0:0:0:0:
448,192,59186,1,0,0:0:0:60:tom3.wav
320,192,59335,1,8,0:0:0:0:
448,192,59335,1,0,0:0:0:0:
64,192,59483,1,2,0:0:0:0:
192,192,59483,1,0,0:0:0:60:tom3.wav
448,192,59780,1,10,0:0:0:0:
320,192,59855,1,8,0:0:0:0:
192,192,59929,1,8,0:0:0:0:
64,192,60003,1,8,0:0:0:0:
448,192,60077,1,10,0:0:0:0:
320,192,60152,1,8,0:0:0:0:
192,192,60226,1,8,0:0:0:0:
64,192,60300,1,8,0:0:0:0:
320,192,60374,1,2,0:0:0:0:
448,192,60374,128,4,60671:0:0:0:0:
64,192,60671,1,10,0:0:0:0:
192,192,60671,1,0,0:0:0:50:Crash 2.wav
320,192,60820,1,0,0:0:0:50:HHOpen.wav
64,192,60968,128,8,61117:0:0:0:0:
448,192,60968,1,0,0:0:0:0:
192,192,61117,1,0,0:0:0:50:HHOpen.wav
320,192,61266,128,2,61414:0:0:0:0:
448,192,61266,1,8,0:0:0:0:
64,192,61414,1,0,0:0:0:50:HHOpen.wav
192,192,61563,1,2,0:0:0:0:
320,192,61563,1,0,0:0:0:0:
448,192,61711,1,0,0:0:0:50:HHOpen.wav
64,192,61860,1,8,0:0:0:0:
320,192,61860,1,0,0:0:0:0:
192,192,62008,1,0,0:0:0:50:HHOpen.wav
320,192,62157,1,2,0:0:0:0:
448,192,62157,1,0,0:0:0:0:
192,192,62305,1,0,0:0:0:50:HHOpen.wav
64,192,62454,1,8,0:0:0:0:
448,192,62454,1,0,0:0:0:0:
320,192,62602,1,0,0:0:0:50:HHOpen.wav
64,192,62751,1,2,0:0:0:0:
192,192,62751,128,4,63048:0:0:0:0:
448,192,62751,1,0,0:0:0:0:
320,192,63048,1,10,0:0:0:0:
448,192,63048,1,0,0:0:0:50:Crash 2.wav
192,192,63196,1,0,0:0:0:50:HHOpen.wav
64,192,63345,1,8,0:0:0:0:
448,192,63345,128,0,63493:0:0:0:0:
320,192,63493,1,0,0:0:0:50:HHOpen.wav
64,192,63642,1,2,0:0:0:0:
192,192,63642,128,8,63790:0:0:0:0:
448,192,63790,1,0,0:0:0:50:HHOpen.wav
192,192,63939,1,2,0:0:0:0:
320,192,63939,1,0,0:0:0:0:
64,192,64087,1,0,0:0:0:50:HHOpen.wav
192,192,64236,1,8,0:0:0:0:
448,192,64236,1,0,0:0:0:0:
320,192,64384,1,0,0:0:0:50:HHOpen.wav
64,192,64533,1,2,0:0:0:0:
192,192,64533,1,0,0:0:0:0:
320,192,64681,1,0,0:0:0:50:HHOpen.wav
448,192,64681,1,0,0:0:0:60:Clap.wav
64,192,64830,1,8,0:0:0:0:
192,192,64904,1,8,0:0:0:0:
320,192,64978,1,8,0:0:0:0:
448,192,65053,1,8,0:0:0:0:
64,192,65127,1,2,0:0:0:0:
192,192,65127,128,0,65424:0:0:0:60:Crash 2.wav
320,192,65424,1,8,0:0:0:0:
448,192,65424,1,0,0:0:0:0:
192,192,65572,1,0,0:0:0:50:HHOpen.wav
64,192,65721,1,2,0:0:0:0:
448,192,65721,1,0,0:0:0:0:
320,192,65869,1,0,0:0:0:50:HHOpen.wav
64,192,66018,1,8,0:0:0:0:
192,192,66018,1,0,0:0:0:0:
320,192,66167,1,0,0:0:0:50:HHOpen.wav
64,192,66315,1,2,0:0:0:0:
192,192,66315,1,4,0:0:0:0:
448,192,66315,128,0,66612:0:0:0:0:
64,192,66612,1,8,0:0:0:0:
320,192,66612,1,0,0:0:0:0:
192,192,66761,1,0,0:0:0:50:HHOpen.wav
320,192,66909,1,2,0:0:0:0:
448,192,66909,1,0,0:0:0:0:
192,192,67058,1,0,0:0:0:50:HHOpen.wav
64,192,67206,1,8,0:0:0:0:
448,192,67206,1,0,0:0:0:0:
320,192,67355,1,0,0:0:0:50:HHOpen.wav
64,192,67503,1,2,0:0:0:0:
192,192,67503,128,0,67800:0:0:0:60:Crash 2.wav
320,192,67800,1,8,0:0:0:0:
448,192,67800,1,0,0:0:0:0:
192,192,67949,1,0,0:0:0:50:HHOpen.wav
64,192,68097,1,2,0:0:0:0:
448,192,68097,128,4,68394:0:0:0:0:
64,192,68394,1,8,0:0:0:0:
192,192,68394,1,0,0:0:0:0:
320,192,68543,1,0,0:0:0:50:HHOpen.wav
64,192,68691,128,2,68988:0:0:0:0:
448,192,68691,1,0,0:0:0:50:Crash 2.wav
320,192,68988,1,2,0:0:0:0:
448,192,68988,128,0,69285:0:0:0:50:Crash 2.wav
64,192,69285,1,10,0:0:0:0:
192,192,69360,1,8,0:0:0:0:
320,192,69434,1,8,0:0:0:0:
448,192,69508,1,8,0:0:0:0:
64,192,69582,1,10,0:0:0:0:
192,192,69657,1,8,0:0:0:0:
320,192,69731,1,8,0:0:0:0:
448,192,69805,1,8,0:0:0:0:
64,192,69879,128,2,70028:0:0:0:0:
192,192,69879,1,4,0:0:0:0:
320,192,70028,1,0,0:0:0:0:
64,192,70176,1,8,0:0:0:0:
448,192,70176,128,0,70325:0:0:0:0:
192,192,70325,1,0,0:0:0:55:Ride.wav
320,192,70473,128,2,70622:0:0:0:0:
448,192,70473,1,0,0:0:0:0:
64,192,70622,1,0,0:0:0:55:Ride.wav
192,192,70770,1,8,0:0:0:0:
320,192,70770,1,0,0:0:0:0:
448,192,70919,1,0,0:0:0:55:Ride.wav
64,192,71068,1,2,0:0:0:0:
320,192,71068,1,0,0:0:0:0:
192,192,71216,1,0,0:0:0:55:Ride.wav
320,192,71365,1,8,0:0:0:0:
448,192,71365,1,0,0:0:0:0:
192,192,71513,1,0,0:0:0:55:Ride.wav
64,192,71662,1,2,0:0:0:0:
448,192,71662,1,0,0:0:0:0:
320,192,71810,1,0,0:0:0:55:Ride.wav
64,192,71959,1,8,0:0:0:0:
192,192,71959,1,0,0:0:0:0:
448,192,72107,1,0,0:0:0:55:Ride.wav
192,192,72256,1,2,0:0:0:0:
320,192,72256,128,0,72404:0:0:0:0:
64,192,72404,1,0,0:0:0:55:Ride.wav
192,192,72553,128,8,72701:0:0:0:0:
448,192,72553,1,0,0:0:0:0:
320,192,72701,1,0,0:0:0:55:Ride.wav
64,192,72850,128,2,72998:0:0:0:0:
192,192,72850,1,0,0:0:0:0:
448,192,72998,1,0,0:0:0:55:Ride.wav
192,192,73147,1,8,0:0:0:0:
320,192,73147,1,0,0:0:0:0:
64,192,73295,1,0,0:0:0:55:Ride.wav
192,192,73444,1,2,0:0:0:0:
448,192,73444,1,0,0:0:0:0:
320,192,73592,1,0,0:0:0:55:Ride.wav
64,192,73741,1,8,0:0:0:0:
192,192,73741,1,0,0:0:0:0:
320,192,73889,1,0,0:0:0:55:Ride.wav
64,192,74038,1,2,0:0:0:0:
448,192,74038,1,0,0:0:0:0:
192,192,74186,1,0,0:0:0:60:Clap.wav
320,192,74186,1,0,0:0:0:0:
448,192,74335,1,8,0:0:0:0:
320,192,74409,1,8,0:0:0:0:
192,192,74483,1,8,0:0:0:0:
64,192,74558,1,8,0:0:0:0:
320,192,74632,1,2,0:0:0:0:
448,192,74632,128,4,74780:0:0:0:0:
192,192,74780,1,0,0:0:0:50:HHOpen.wav
64,192,74929,128,8,75077:0:0:0:0:
448,192,74929,1,0,0:0:0:0:
320,192,75077,1,0,0:0:0:50:HHOpen.wav
64,192,75226,1,2,0:0:0:0:
192,192,75226,128,0,75374:0:0:0:0:
448,192,75374,1,0,0:0:0:50:HHOpen.wav
192,192,75523,1,8,0:0:0:0:
320,192,75523,1,0,0:0:0:0:
64,192,75671,1,0,0:0:0:50:HHOpen.wav
192,192,75820,1,2,0:0:0:0:
448,192,75820,1,0,0:0:0:0:
320,192,75969,1,0,0:0:0:50:HHOpen.wav
64,192,76117,1,8,0:0:0:0:
192,192,76117,1,0,0:0:0:0:
320,192,76266,1,0,0:0:0:50:HHOpen.wav
64,192,76414,1,2,0:0:0:0:
448,192,76414,1,0,0:0:0:0:
192,192,76563,1,0,0:0:0:50:HHOpen.wav
320,192,76711,1,8,0:0:0:0:
448,192,76711,1,0,0:0:0:0:
192,192,76860,1,0,0:0:0:50:HHOpen.wav
64,192,77008,1,2,0:0:0:0:
448,192,77008,128,0,77157:0:0:0:0:
320,192,77157,1,0,0:0:0:50:HHOpen.wav
64,192,77305,1,8,0:0:0:0:
192,192,77305,128,0,77454:0:0:0:0:
448,192,77454,1,0,0:0:0:50:HHOpen.wav
192,192,77602,1,2,0:0:0:0:
320,192,77602,128,0,77751:0:0:0:0:
64,192,77751,1,0,0:0:0:50:HHOpen.wav
192,192,77899,1,8,0:0:0:0:
448,192,77899,1,0,0:0:0:0:
320,192,78048,1,0,0:0:0:50:HHOpen.wav
64,192,78196,1,2,0:0:0:0:
192,192,78196,1,0,0:0:0:0:
320,192,78345,1,8,0:0:0:0:
448,192,78345,1,0,0:0:0:60:tom3.wav
64,192,78493,1,8,0:0:0:0:
448,192,78493,1,0,0:0:0:60:tom3.wav
64,192,78642,1,8,0:0:0:0:
192,192,78642,1,0,0:0:0:60:tom3.wav
320,192,78790,1,2,0:0:0:0:
448,192,78790,128,4,79087:0:0:0:0:
64,192,79087,128,2,79384:0:0:0:0:
192,192,79087,1,0,0:0:0:0:
192,192,79384,1,2,0:0:0:0:
320,192,79384,128,0,79681:0:0:0:60:Crash 2.wav
448,192,79384,1,0,0:0:0:0:
64,192,79681,1,8,0:0:0:0:
192,192,79681,128,0,79978:0:0:0:0:
320,192,79978,1,2,0:0:0:0:
448,192,79978,128,0,80275:0:0:0:0:
64,192,80275,1,8,0:0:0:0:
192,192,80275,1,0,0:0:0:0:
320,192,80424,1,0,0:0:0:55:Ride.wav
64,192,80572,1,2,0:0:0:0:
448,192,80572,1,0,0:0:0:0:
192,192,80721,1,0,0:0:0:55:Ride.wav
320,192,80869,1,8,0:0:0:0:
448,192,80869,1,0,0:0:0:0:
64,192,81018,1,0,0:0:0:55:Ride.wav
192,192,81167,1,2,0:0:0:0:
448,192,81167,1,0,0:0:0:0:
320,192,81315,1,0,0:0:0:55:Ride.wav
64,192,81464,1,8,0:0:0:0:
192,192,81464,1,0,0:0:0:0:
320,192,81612,1,0,0:0:0:55:Ride.wav
64,192,81761,128,2,82058:0:0:0:0:
448,192,81761,1,0,0:0:0:0:
320,192,82058,128,8,82355:0:0:0:0:
448,192,82058,1,0,0:0:0:0:
64,192,82355,1,2,0:0:0:0:
192,192,82355,128,0,82652:0:0:0:0:
320,192,82652,1,8,0:0:0:0:
448,192,82652,1,0,0:0:0:0:
192,192,82800,1,0,0:0:0:55:Ride.wav
64,192,82949,1,2,0:0:0:0:
448,192,82949,1,0,0:0:0:0:
320,192,83097,1,0,0:0:0:55:Ride.wav
64,192,83246,1,8,0:0:0:0:
192,192,83246,1,0,0:0:0:0:
448,192,83394,1,0,0:0:0:55:Ride.wav
64,192,83543,1,2,0:0:0:0:
320,192,83543,1,0,0:0:0:0:
192,192,83691,1,0,0:0:0:55:Ride.wav
448,192,83840,1,8,0:0:0:0:
320,192,83914,1,8,0:0:0:0:
192,192,83988,1,8,0:0:0:0:
64,192,84063,1,8,0:0:0:0:
320,192,84137,128,2,84285:0:0:0:0:
448,192,84137,1,4,0:0:0:0:
192,192,84285,128,0,84434:0:0:0:50:HHOpen.wav
64,192,84434,128,8,84582:0:0:0:0:
448,192,84434,1,0,0:0:0:0:
320,192,84582,128,0,84731:0:0:0:50:HHOpen.wav
64,192,84731,1,2,0:0:0:0:
192,192,84731,1,0,0:0:0:0:
448,192,84879,128,0,85028:0:0:0:50:HHOpen.wav
64,192,85028,1,8,0:0:0:0:
320,192,85028,1,0,0:0:0:0:
192,192,85176,128,0,85325:0:0:0:50:HHOpen.wav
320,192,85325,1,2,0:0:0:0:
448,192,85325,1,0,0:0:0:0:
64,192,85473,128,0,85622:0:0:0:50:HHOpen.wav
192,192,85622,1,8,0:0:0:0:
320,192,85622,1,0,0:0:0:0:
448,192,85770,128,0,86068:0:0:0:50:HHOpen.wav
64,192,85919,1,2,0:0:0:0:
192,192,85919,1,0,0:0:0:0:
320,192,86068,128,0,86216:0:0:0:50:HHOpen.wav
64,192,86216,128,8,86365:0:0:0:0:
192,192,86216,1,0,0:0:0:0:
448,192,86365,128,0,86513:0:0:0:50:HHOpen.wav
64,192,86513,1,2,0:0:0:0:
192,192,86513,1,0,0:0:0:0:
320,192,86662,1,0,0:0:0:50:HHOpen.wav
64,192,86810,1,8,0:0:0:0:
448,192,86810,1,0,0:0:0:0:
192,192,86959,1,0,0:0:0:50:HHOpen.wav
320,192,87107,1,2,0:0:0:0:
448,192,87107,1,0,0:0:0:0:
64,192,87256,1,0,0:0:0:50:HHOpen.wav
192,192,87404,1,8,0:0:0:0:
448,192,87404,1,0,0:0:0:0:
320,192,87553,1,0,0:0:0:50:HHOpen.wav
64,192,87701,1,2,0:0:0:0:
192,192,87701,1,0,0:0:0:0:
320,192,87850,1,8,0:0:0:0:
448,192,87850,1,0,0:0:0:60:tom3.wav
64,192,87998,1,8,0:0:0:0:
448,192,87998,1,0,0:0:0:60:tom3.wav
192,192,88147,1,8,0:0:0:0:
320,192,88147,1,0,0:0:0:60:tom3.wav
64,192,88295,1,2,0:0:0:0:
320,192,88295,1,4,0:0:0:0:
448,192,88295,128,0,88592:0:0:0:0:
64,192,88592,1,8,0:0:0:0:
192,192,88667,1,8,0:0:0:0:
320,192,88741,1,8,0:0:0:0:
448,192,88815,1,8,0:0:0:0:
64,192,88889,1,2,0:0:0:0:
192,192,88889,1,0,0:0:0:60:HHOpen.wav
64,192,89038,1,0,0:0:0:0:
192,192,89038,1,0,0:0:0:0:
320,192,89483,1,2,0:0:0:0:
448,192,89483,1,0,0:0:0:60:HHOpen.wav
320,192,89632,1,0,0:0:0:0:
448,192,89632,1,0,0:0:0:0:
64,192,90077,1,8,0:0:0:0:
448,192,90077,1,0,0:0:0:0:
320,192,90226,1,0,0:0:0:60:tom1.wav
64,192,90374,1,8,0:0:0:0:
192,192,90374,1,0,0:0:0:0:
320,192,90523,1,0,0:0:0:60:tom2.wav
64,192,90671,1,8,0:0:0:0:
192,192,90671,1,4,0:0:0:0:
448,192,90671,1,0,0:0:0:0:
320,192,90820,1,0,0:0:0:0:
64,192,90969,1,0,0:0:0:0:
448,192,91117,1,0,0:0:0:0:
64,192,91266,128,2,91563:0:0:0:0:
192,192,91266,1,0,0:0:0:60:Crash 2.wav
448,192,91563,128,0,92157:0:0:0:0:
192,192,92157,1,0,0:0:0:0:
320,192,92305,128,0,92602:0:0:0:0:
64,192,92602,1,0,0:0:0:0:
192,192,92751,1,0,0:0:0:0:
448,192,92899,1,0,0:0:0:0:
64,192,93048,1,0,0:0:0:0:
320,192,93196,1,0,0:0:0:0:
192,192,93345,128,0,93642:0:0:0:0:
448,192,93642,128,0,93939:0:0:0:0:
64,192,93939,128,0,94533:0:0:0:0:
320,192,94533,1,0,0:0:0:0:
192,192,94681,128,0,94978:0:0:0:0:
448,192,94978,1,0,0:0:0:0:
320,192,95127,1,0,0:0:0:0:
64,192,95275,1,0,0:0:0:0:
320,192,95424,128,0,95869:0:0:0:0:
192,192,95869,1,0,0:0:0:0:
64,192,96018,1,0,0:0:0:65:Crash 2.wav
320,192,96018,1,0,0:0:0:0:
448,192,96018,128,0,96315:0:0:0:0:
64,192,96315,128,8,96612:0:0:0:0:
192,192,96315,1,0,0:0:0:0:
320,192,96612,128,8,96909:0:0:0:0:
448,192,96612,1,0,0:0:0:0:
64,192,96909,1,8,0:0:0:0:
192,192,96909,128,0,97206:0:0:0:0:
320,192,97206,1,8,0:0:0:0:
448,192,97206,128,0,97503:0:0:0:0:
64,192,97503,128,8,97800:0:0:0:0:
192,192,97503,1,0,0:0:0:0:
192,192,97800,1,8,0:0:0:0:
448,192,97800,1,0,0:0:0:0:
192,192,97949,1,2,0:0:0:0:
64,192,98097,1,8,0:0:0:0:
448,192,98097,1,0,0:0:0:0:
448,192,98246,1,2,0:0:0:0:
64,192,98394,1,8,0:0:0:0:
192,192,98394,1,0,0:0:0:0:
320,192,98543,1,10,0:0:0:0:
64,192,98691,1,8,0:0:0:0:
448,192,98691,1,0,0:0:0:0:
192,192,98840,1,10,0:0:0:0:
320,192,98988,1,8,0:0:0:0:
448,192,98988,1,0,0:0:0:0:
64,192,99137,1,2,0:0:0:0:
192,192,99285,1,8,0:0:0:0:
320,192,99285,1,0,0:0:0:0:
448,192,99434,1,10,0:0:0:0:
64,192,99582,1,8,0:0:0:0:
320,192,99582,1,0,0:0:0:0:
192,192,99731,1,10,0:0:0:0:
320,192,99879,1,8,0:0:0:0:
448,192,99879,1,0,0:0:0:0:
64,192,100028,1,2,0:0:0:0:
448,192,100176,1,8,0:0:0:0:
320,192,100251,1,8,0:0:0:0:
192,192,100325,1,10,0:0:0:0:
64,192,100399,1,8,0:0:0:0:
448,192,100473,1,8,0:0:0:0:
320,192,100548,1,8,0:0:0:0:
192,192,100622,1,10,0:0:0:0:
64,192,100696,1,8,0:0:0:0:
320,192,100770,1,4,0:0:0:0:
448,192,100770,128,0,101068:0:0:0:0:
64,192,101068,1,8,0:0:0:0:
192,192,101068,1,0,0:0:0:60:Crash 2.wav
320,192,101216,1,2,0:0:0:0:
64,192,101365,128,8,101513:0:0:0:0:
448,192,101365,1,0,0:0:0:0:
192,192,101513,1,2,0:0:0:0:
320,192,101662,128,8,101810:0:0:0:0:
448,192,101662,1,0,0:0:0:0:
64,192,101810,1,2,0:0:0:0:
192,192,101959,1,0,0:0:0:0:
448,192,101959,1,0,0:0:0:0:
320,192,102107,1,2,0:0:0:0:
64,192,102256,1,8,0:0:0:0:
192,192,102256,1,0,0:0:0:0:
320,192,102404,1,2,0:0:0:0:
64,192,102553,1,0,0:0:0:0:
448,192,102553,1,0,0:0:0:0:
192,192,102701,1,2,0:0:0:0:
320,192,102850,1,8,0:0:0:0:
448,192,102850,1,0,0:0:0:0:
192,192,102998,1,2,0:0:0:0:
64,192,103147,1,4,0:0:0:0:
320,192,103147,128,0,103444:0:0:0:0:
448,192,103147,1,0,0:0:0:0:
64,192,103444,1,8,0:0:0:0:
192,192,103444,1,0,0:0:0:60:Crash 2.wav
320,192,103592,1,2,0:0:0:0:
64,192,103741,128,8,103889:0:0:0:0:
448,192,103741,1,0,0:0:0:0:
192,192,103889,1,2,0:0:0:0:
320,192,104038,128,8,104186:0:0:0:0:
448,192,104038,1,0,0:0:0:0:
64,192,104186,1,2,0:0:0:0:
192,192,104335,1,0,0:0:0:0:
320,192,104335,1,0,0:0:0:0:
448,192,104483,1,2,0:0:0:0:
64,192,104632,1,8,0:0:0:0:
320,192,104632,1,0,0:0:0:0:
192,192,104780,1,2,0:0:0:0:
320,192,104929,1,0,0:0:0:0:
448,192,104929,1,0,0:0:0:0:
64,192,105077,1,2,0:0:0:0:
192,192,105077,1,0,0:0:0:50:HHOpen.wav
448,192,105226,1,8,0:0:0:0:
320,192,105300,1,8,0:0:0:0:
192,192,105374,1,10,0:0:0:0:
64,192,105449,1,8,0:0:0:0:
320,192,105523,1,4,0:0:0:0:
448,192,105523,128,0,105820:0:0:0:0:
192,192,105820,1,8,0:0:0:0:
320,192,105820,1,0,0:0:0:0:
64,192,105969,1,2,0:0:0:0:
320,192,106117,1,0,0:0:0:0:
448,192,106117,1,0,0:0:0:0:
192,192,106266,1,2,0:0:0:0:
64,192,106414,1,8,0:0:0:0:
448,192,106414,1,0,0:0:0:0:
320,192,106563,1,2,0:0:0:0:
64,192,106711,1,0,0:0:0:60:Crash 2.wav
192,192,106711,1,0,0:0:0:0:
448,192,106711,128,0,107008:0:0:0:0:
64,192,107008,1,8,0:0:0:0:
320,192,107008,1,0,0:0:0:0:
192,192,107157,1,2,0:0:0:0:
320,192,107305,1,0,0:0:0:0:
448,192,107305,1,0,0:0:0:0:
192,192,107454,1,2,0:0:0:0:
64,192,107602,1,8,0:0:0:0:
448,192,107602,1,0,0:0:0:0:
320,192,107751,1,2,0:0:0:0:
64,192,107899,1,4,0:0:0:0:
192,192,107899,128,0,108196:0:0:0:0:
320,192,108196,1,8,0:0:0:0:
448,192,108196,1,0,0:0:0:0:
192,192,108345,1,2,0:0:0:0:
64,192,108493,1,0,0:0:0:60:Crash 2.wav
448,192,108493,128,0,108790:0:0:0:0:
64,192,108790,1,8,0:0:0:0:
192,192,108790,1,0,0:0:0:0:
320,192,108939,1,2,0:0:0:0:
64,192,109087,128,4,109384:0:0:0:0:
448,192,109087,1,0,0:0:0:0:
320,192,109384,1,0,0:0:0:60:Crash 2.wav
448,192,109384,128,0,109681:0:0:0:0:
64,192,109681,1,8,0:0:0:0:
192,192,109756,1,8,0:0:0:0:
320,192,109830,1,10,0:0:0:0:
448,192,109904,1,8,0:0:0:0:
64,192,109978,1,8,0:0:0:0:
192,192,110053,1,8,0:0:0:0:
320,192,110127,1,10,0:0:0:0:
448,192,110201,1,8,0:0:0:0:
64,192,110275,128,4,110424:0:0:0:0:
192,192,110275,1,0,0:0:0:0:
320,192,110424,1,2,0:0:0:0:
64,192,110572,1,8,0:0:0:0:
448,192,110572,128,0,110721:0:0:0:0:
192,192,110721,1,2,0:0:0:0:
320,192,110869,128,0,111018:0:0:0:60:Clap.wav
448,192,110869,1,0,0:0:0:0:
64,192,111018,1,2,0:0:0:0:
192,192,111167,1,8,0:0:0:0:
320,192,111167,1,0,0:0:0:0:
448,192,111315,1,2,0:0:0:0:
64,192,111464,1,0,0:0:0:60:Clap.wav
320,192,111464,1,0,0:0:0:0:
192,192,111612,1,2,0:0:0:0:
320,192,111761,1,8,0:0:0:0:
448,192,111761,1,0,0:0:0:0:
192,192,111909,1,2,0:0:0:0:
64,192,112058,1,0,0:0:0:60:Clap.wav
448,192,112058,1,0,0:0:0:0:
320,192,112206,1,2,0:0:0:0:
64,192,112355,1,8,0:0:0:0:
192,192,112355,1,0,0:0:0:0:
448,192,112503,1,2,0:0:0:0:
192,192,112652,1,0,0:0:0:60:Clap.wav
320,192,112652,128,0,112800:0:0:0:0:
64,192,112800,1,2,0:0:0:0:
192,192,112949,128,8,113097:0:0:0:0:
448,192,112949,1,0,0:0:0:0:
320,192,113097,1,2,0:0:0:0:
64,192,113246,128,0,113394:0:0:0:60:Clap.wav
192,192,113246,1,0,0:0:0:0:
448,192,113394,1,2,0:0:0:0:
192,192,113543,1,8,0:0:0:0:
320,192,113543,1,0,0:0:0:0:
64,192,113691,1,2,0:0:0:0:
192,192,113840,1,0,0:0:0:60:Clap.wav
448,192,113840,1,0,0:0:0:0:
320,192,113988,1,2,0:0:0:0:
64,192,114137,1,8,0:0:0:0:
192,192,114137,1,0,0:0:0:0:
320,192,114285,1,2,0:0:0:0:
64,192,114434,1,0,0:0:0:55:Ride.wav
448,192,114434,1,0,0:0:0:0:
192,192,114582,1,2,0:0:0:0:
320,192,114582,1,0,0:0:0:60:Clap.wav
448,192,114731,1,8,0:0:0:0:
320,192,114805,1,8,0:0:0:0:
192,192,114879,1,10,0:0:0:0:
64,192,114954,1,8,0:0:0:0:
320,192,115028,1,4,0:0:0:0:
448,192,115028,128,0,115176:0:0:0:0:
192,192,115176,1,2,0:0:0:0:
64,192,115325,128,8,115473:0:0:0:0:
448,192,115325,1,0,0:0:0:0:
320,192,115473,1,2,0:0:0:0:
64,192,115622,1,0,0:0:0:60:Clap.wav
192,192,115622,128,0,115770:0:0:0:0:
448,192,115770,1,2,0:0:0:0:
192,192,115919,1,8,0:0:0:0:
320,192,115919,1,0,0:0:0:0:
64,192,116068,1,2,0:0:0:0:
192,192,116216,1,0,0:0:0:60:Clap.wav
448,192,116216,1,0,0:0:0:0:
320,192,116365,1,2,0:0:0:0:
64,192,116513,1,8,0:0:0:0:
192,192,116513,1,0,0:0:0:0:
320,192,116662,1,2,0:0:0:0:
64,192,116810,1,0,0:0:0:60:Clap.wav
448,192,116810,1,0,0:0:0:0:
192,192,116959,1,2,0:0:0:0:
320,192,117107,1,8,0:0:0:0:
448,192,117107,1,0,0:0:0:0:
192,192,117256,1,2,0:0:0:0:
64,192,117404,1,0,0:0:0:60:Clap.wav
448,192,117404,128,0,117553:0:0:0:0:
320,192,117553,1,2,0:0:0:0:
64,192,117701,1,8,0:0:0:0:
192,192,117701,128,0,117850:0:0:0:0:
448,192,117850,1,2,0:0:0:0:
192,192,117998,1,0,0:0:0:60:Clap.wav
320,192,117998,128,0,118147:0:0:0:0:
64,192,118147,1,2,0:0:0:0:
192,192,118295,1,8,0:0:0:0:
448,192,118295,1,0,0:0:0:0:
320,192,118444,1,2,0:0:0:0:
64,192,118592,1,0,0:0:0:0:
192,192,118592,1,0,0:0:0:0:
320,192,118741,1,8,0:0:0:0:
448,192,118741,1,0,0:0:0:60:tom3.wav
64,192,118889,1,8,0:0:0:0:
448,192,118889,1,0,0:0:0:60:tom3.wav
192,192,119038,1,8,0:0:0:0:
320,192,119038,1,0,0:0:0:60:tom3.wav
64,192,119186,1,8,0:0:0:0:
448,192,119186,1,0,0:0:0:60:tom3.wav
64,192,119335,1,8,0:0:0:0:
192,192,119335,1,0,0:0:0:60:tom3.wav
320,192,119483,1,8,0:0:0:0:
448,192,119483,1,0,0:0:0:60:tom3.wav
64,192,119632,1,8,0:0:0:0:
448,192,119632,1,0,0:0:0:60:tom3.wav
192,192,119780,1,0,0:0:0:0:
320,192,119929,1,2,0:0:0:0:
448,192,119929,1,8,0:0:0:0:
192,192,120003,1,8,0:0:0:0:
64,192,120077,1,8,0:0:0:0:
448,192,120152,1,8,0:0:0:0:
320,192,120226,1,10,0:0:0:0:
192,192,120300,1,8,0:0:0:0:
64,192,120374,1,8,0:0:0:0:
448,192,120449,1,8,0:0:0:0:
320,192,120523,1,10,0:0:0:0:
192,192,120597,1,8,0:0:0:0:
64,192,120671,1,8,0:0:0:0:
448,192,120746,1,8,0:0:0:0:
320,192,120820,1,10,0:0:0:0:
192,192,120894,1,8,0:0:0:0:
64,192,120969,128,4,121266:0:0:0:0:
448,192,120969,128,0,121266:0:0:0:0:
