osu file format v14

[General]
AudioFilename: audio.mp3
AudioLeadIn: 0
PreviewTime: 176159
Countdown: 0
SampleSet: Normal
StackLeniency: 0.7
Mode: 1
LetterboxInBreaks: 0
WidescreenStoryboard: 0

[Editor]
DistanceSpacing: 0.5
BeatDivisor: 4
GridSize: 32
TimelineZoom: 4.599998

[Metadata]
Title:Somepony That I Used to Know
TitleUnicode:Somepony That I Used to Know
Artist:MORDETWI
ArtistUnicode:MORDETWI
Creator:maxie
Version:Equestrian Rhapsody
Source:
Tags:english novelty parody pop Makaryo gotye somebody (feat. Kimbra) mordecai regular show twilight sparkle mlp my little pony: pony friendship is magic ft. featuring mlp:fim fim Making Mirrors
BeatmapID:4182559
BeatmapSetID:2010148

[Difficulty]
HPDrainRate:5
CircleSize:5
OverallDifficulty:5
ApproachRate:5
SliderMultiplier:1.4
SliderTickRate:1

[Events]
//Background and Video events
Video,0,"output.mp4"
0,0,"maxresdefault (6).jpg",0,0
//Break Periods
//Storyboard Layer 0 (Background)
//Storyboard Layer 1 (Fail)
//Storyboard Layer 2 (Pass)
//Storyboard Layer 3 (Foreground)
//Storyboard Layer 4 (Overlay)
//Storyboard Sound Samples

[TimingPoints]
608,465.116279069767,4,1,0,30,1,0
4211,-100,4,1,0,50,0,0
4328,465.116279069767,4,1,0,50,1,0
89793,-100,4,1,0,30,0,0
89909,-100,4,1,0,30,0,0
93514,-100,4,1,0,80,0,0
93630,-100,4,1,0,80,0,1
138165,-100,4,1,0,50,0,1
138281,-100,4,1,0,50,0,0
182816,-100,4,1,0,80,0,0
182932,-100,4,1,0,80,0,1
227467,-100,4,1,0,50,0,1
227583,-100,4,1,0,50,0,0

[HitObjects]
170,210,608,5,0,0:0:0:0:
170,210,1073,1,8,0:0:0:0:
237,159,1305,1,0,0:0:0:0:
170,210,1538,1,0,0:0:0:0:
232,188,2003,1,8,0:0:0:0:
232,230,2235,1,8,0:0:0:0:
232,188,2468,1,0,0:0:0:0:
232,230,2933,1,8,0:0:0:0:
232,230,3166,1,0,0:0:0:0:
232,230,3398,1,0,0:0:0:0:
232,230,3863,1,8,0:0:0:0:
232,230,4096,1,0,0:0:0:0:
232,230,4328,1,8,0:0:0:0:
232,230,4793,1,8,0:0:0:0:
232,230,5258,1,0,0:0:0:0:
232,230,5723,1,0,0:0:0:0:
232,230,6188,1,8,0:0:0:0:
232,230,6421,1,8,0:0:0:0:
232,230,6653,1,8,0:0:0:0:
232,230,6886,1,0,0:0:0:0:
232,230,7118,1,8,0:0:0:0:
232,230,8048,1,8,0:0:0:0:
232,230,8514,1,8,0:0:0:0:
232,230,8979,1,0,0:0:0:0:
232,230,9444,1,0,0:0:0:0:
232,230,9909,1,8,0:0:0:0:
232,235,10374,1,8,0:0:0:0:
232,237,10839,1,0,0:0:0:0:
232,237,11769,1,8,0:0:0:0:
232,237,12234,1,8,0:0:0:0:
232,237,12700,1,0,0:0:0:0:
127,73,13165,1,8,0:0:0:0:
232,237,13630,1,8,0:0:0:0:
232,237,13862,1,8,0:0:0:0:
232,237,14095,1,0,0:0:0:0:
232,237,14327,1,0,0:0:0:0:
232,237,14560,1,8,0:0:0:0:
230,243,15490,1,0,0:0:0:0:
230,243,15955,1,0,0:0:0:0:
240,279,16886,1,8,0:0:0:0:
240,279,17351,1,0,0:0:0:0:
240,279,17816,1,0,0:0:0:0:
85,108,18630,1,8,0:0:0:0:
85,108,18746,1,8,0:0:0:0:
206,139,19211,1,0,0:0:0:0:
206,139,19676,1,8,0:0:0:0:
206,139,19909,1,8,0:0:0:0:
206,139,20141,1,0,0:0:0:0:
206,139,20374,1,8,0:0:0:0:
206,139,20607,1,0,0:0:0:0:
206,139,20839,1,0,0:0:0:0:
206,139,21072,1,8,0:0:0:0:
206,139,21537,1,8,0:0:0:0:
206,139,22002,1,0,0:0:0:0:
231,181,22234,1,0,0:0:0:0:
206,139,22467,1,8,0:0:0:0:
206,139,22700,1,0,0:0:0:0:
206,144,22932,1,8,0:0:0:0:
206,145,23165,1,0,0:0:0:0:
202,146,23397,1,8,0:0:0:0:
232,218,23630,1,8,0:0:0:0:
225,214,23862,1,0,0:0:0:0:
225,214,24327,1,8,0:0:0:0:
225,214,24560,1,8,0:0:0:0:
225,214,24793,1,0,0:0:0:0:
211,213,25258,1,8,0:0:0:0:
211,213,25490,1,0,0:0:0:0:
211,213,25723,1,8,0:0:0:0:
211,213,26188,1,8,0:0:0:0:
211,213,26653,1,0,0:0:0:0:
87,157,26886,1,8,0:0:0:0:
166,212,27118,1,0,0:0:0:0:
166,212,27351,1,0,0:0:0:0:
166,212,27583,1,8,0:0:0:0:
192,157,27816,1,0,0:0:0:0:
192,157,28048,1,0,0:0:0:0:
192,157,28281,1,0,0:0:0:0:
192,157,28514,1,8,0:0:0:0:
183,168,28979,1,8,0:0:0:0:
183,168,29444,1,0,0:0:0:0:
183,168,29909,1,0,0:0:0:0:
183,168,30141,1,8,0:0:0:0:
183,168,30374,1,8,0:0:0:0:
181,197,30839,1,8,0:0:0:0:
181,197,31072,1,0,0:0:0:0:
181,197,31304,1,0,0:0:0:0:
170,153,31769,1,8,0:0:0:0:
170,153,32002,1,8,0:0:0:0:
170,153,32234,1,0,0:0:0:0:
170,153,32700,1,8,0:0:0:0:
170,153,32932,1,0,0:0:0:0:
170,153,33165,1,0,0:0:0:0:
170,153,33630,1,8,0:0:0:0:
170,153,34095,1,8,0:0:0:0:
157,151,34327,1,0,0:0:0:0:
170,153,34560,1,8,0:0:0:0:
170,153,34793,1,0,0:0:0:0:
170,153,35025,1,8,0:0:0:0:
170,153,35258,1,8,0:0:0:0:
170,153,35490,1,0,0:0:0:0:
160,151,35723,1,0,0:0:0:0:
160,151,35955,1,8,0:0:0:0:
160,151,36421,1,0,0:0:0:0:
160,151,36886,1,0,0:0:0:0:
160,151,37351,1,8,0:0:0:0:
160,151,37583,1,0,0:0:0:0:
158,150,37816,1,8,0:0:0:0:
200,171,38048,1,8,0:0:0:0:
200,171,38281,1,0,0:0:0:0:
200,171,38514,1,0,0:0:0:0:
200,171,38746,1,8,0:0:0:0:
200,171,39095,1,0,0:0:0:0:
200,171,39211,1,8,0:0:0:0:
200,171,39444,1,8,0:0:0:0:
200,171,39676,1,0,0:0:0:0:
200,171,40141,1,0,0:0:0:0:
200,171,40374,1,0,0:0:0:0:
191,175,40607,1,0,0:0:0:0:
200,171,41072,1,8,0:0:0:0:
200,171,41537,1,8,0:0:0:0:
138,166,41769,1,0,0:0:0:0:
138,166,42002,1,8,0:0:0:0:
138,166,42234,1,8,0:0:0:0:
138,166,42467,1,0,0:0:0:0:
138,166,42700,1,0,0:0:0:0:
138,166,42932,1,8,0:0:0:0:
138,166,43165,1,0,0:0:0:0:
138,166,43397,1,8,0:0:0:0:
138,166,43862,1,8,0:0:0:0:
138,166,44327,1,0,0:0:0:0:
138,166,44793,1,8,0:0:0:0:
138,166,45025,1,0,0:0:0:0:
138,166,45258,1,8,0:0:0:0:
138,166,45490,1,0,0:0:0:0:
107,159,45723,1,8,0:0:0:0:
168,167,46188,1,0,0:0:0:0:
147,171,46421,1,0,0:0:0:0:
168,167,46653,1,8,0:0:0:0:
147,171,47118,1,8,0:0:0:0:
147,171,47583,1,8,0:0:0:0:
136,169,47816,1,0,0:0:0:0:
135,170,48048,1,0,0:0:0:0:
135,170,48514,1,8,0:0:0:0:
130,169,48746,1,0,0:0:0:0:
12,129,48979,1,8,0:0:0:0:
208,256,49444,1,8,0:0:0:0:
235,175,49676,1,0,0:0:0:0:
208,256,50141,1,8,0:0:0:0:
182,146,50374,1,8,0:0:0:0:
160,161,50839,1,0,0:0:0:0:
300,198,51304,1,0,0:0:0:0:
300,198,51769,1,8,0:0:0:0:
290,193,52234,1,8,0:0:0:0:
290,193,52467,1,8,0:0:0:0:
290,193,52700,1,0,0:0:0:0:
290,193,53165,1,8,0:0:0:0:
281,189,53397,1,0,0:0:0:0:
274,193,53862,1,0,0:0:0:0:
281,189,54095,1,8,0:0:0:0:
267,212,54560,1,8,0:0:0:0:
267,212,55025,1,8,0:0:0:0:
216,185,55258,1,8,0:0:0:0:
267,212,55490,1,0,0:0:0:0:
267,212,55955,1,0,0:0:0:0:
200,129,56188,1,8,0:0:0:0:
200,129,56421,1,0,0:0:0:0:
225,129,56886,1,8,0:0:0:0:
212,117,57118,1,0,0:0:0:0:
72,173,57583,1,8,0:0:0:0:
225,129,57816,1,8,0:0:0:0:
136,268,58281,1,0,0:0:0:0:
136,268,58746,1,0,0:0:0:0:
156,173,59211,1,8,0:0:0:0:
156,173,59676,1,8,0:0:0:0:
156,173,59909,1,8,0:0:0:0:
156,173,60141,1,0,0:0:0:0:
148,224,60607,1,8,0:0:0:0:
148,224,60839,1,0,0:0:0:0:
148,224,61072,1,8,0:0:0:0:
148,224,61304,1,8,0:0:0:0:
148,224,61537,1,0,0:0:0:0:
142,216,62002,1,8,0:0:0:0:
187,182,62467,1,8,0:0:0:0:
181,218,62700,1,0,0:0:0:0:
181,218,63165,1,0,0:0:0:0:
181,218,63397,1,0,0:0:0:0:
186,231,63630,1,8,0:0:0:0:
407,347,63746,1,8,0:0:0:0:
185,230,63862,1,8,0:0:0:0:
202,256,64095,1,0,0:0:0:0:
202,256,64327,1,8,0:0:0:0:
202,256,64560,1,8,0:0:0:0:
202,256,64793,1,0,0:0:0:0:
202,256,65025,1,0,0:0:0:0:
202,256,65258,1,8,0:0:0:0:
202,256,65490,1,8,0:0:0:0:
202,256,65723,1,0,0:0:0:0:
171,152,66188,1,8,0:0:0:0:
215,190,66653,1,8,0:0:0:0:
203,195,67118,1,0,0:0:0:0:
203,195,67351,1,8,0:0:0:0:
203,195,67583,1,0,0:0:0:0:
203,195,67816,1,0,0:0:0:0:
166,183,68048,1,8,0:0:0:0:
166,183,68281,1,8,0:0:0:0:
166,183,68514,1,0,0:0:0:0:
166,183,68979,1,8,0:0:0:0:
166,183,69211,1,8,0:0:0:0:
166,183,69444,1,0,0:0:0:0:
141,110,69909,1,8,0:0:0:0:
141,110,70141,1,0,0:0:0:0:
141,110,70374,1,0,0:0:0:0:
141,110,70839,1,0,0:0:0:0:
141,110,71072,1,8,0:0:0:0:
379,316,71188,1,8,0:0:0:0:
141,110,71304,1,8,0:0:0:0:
439,331,71537,1,0,0:0:0:0:
439,331,71769,1,8,0:0:0:0:
439,331,72002,1,8,0:0:0:0:
439,331,72234,1,0,0:0:0:0:
439,331,72467,1,8,0:0:0:0:
439,331,72700,1,0,0:0:0:0:
439,331,72932,1,8,0:0:0:0:
439,331,73165,1,8,0:0:0:0:
164,154,73630,1,8,0:0:0:0:
187,186,73862,1,0,0:0:0:0:
172,174,74095,1,8,0:0:0:0:
176,186,74444,1,0,0:0:0:0:
187,186,74793,1,0,0:0:0:0:
187,186,75025,1,8,0:0:0:0:
150,220,75490,1,8,0:0:0:0:
150,220,75955,1,0,0:0:0:0:
150,220,76188,1,0,0:0:0:0:
150,220,76421,1,8,0:0:0:0:
150,220,76886,1,0,0:0:0:0:
150,220,77351,1,8,0:0:0:0:
150,220,77816,1,0,0:0:0:0:
150,220,78048,1,0,0:0:0:0:
150,220,78281,1,8,0:0:0:0:
279,220,78514,1,8,0:0:0:0:
279,220,78630,1,8,0:0:0:0:
149,224,78746,1,8,0:0:0:0:
273,230,78979,1,0,0:0:0:0:
273,230,79211,1,8,0:0:0:0:
273,230,79444,1,0,0:0:0:0:
273,230,79676,1,0,0:0:0:0:
273,230,79909,1,0,0:0:0:0:
273,230,80141,1,8,0:0:0:0:
273,230,80374,1,0,0:0:0:0:
273,230,80607,1,8,0:0:0:0:
273,230,80839,1,0,0:0:0:0:
273,230,81072,1,8,0:0:0:0:
273,230,81537,1,0,0:0:0:0:
184,192,82002,1,8,0:0:0:0:
184,192,82234,1,8,0:0:0:0:
149,172,82351,1,8,0:0:0:0:
184,192,82467,1,8,0:0:0:0:
154,178,82932,1,8,0:0:0:0:
154,178,83165,1,0,0:0:0:0:
139,95,83281,1,0,0:0:0:0:
154,178,83397,1,0,0:0:0:0:
154,178,83630,1,8,0:0:0:0:
154,178,83862,1,0,0:0:0:0:
154,178,84095,1,0,0:0:0:0:
149,175,84327,1,8,0:0:0:0:
150,174,84793,1,8,0:0:0:0:
146,171,85025,1,0,0:0:0:0:
150,174,85723,1,8,0:0:0:0:
146,196,85839,1,8,0:0:0:0:
146,196,85955,1,8,0:0:0:0:
144,170,86188,1,8,0:0:0:0:
222,156,86421,1,0,0:0:0:0:
222,156,86653,1,8,0:0:0:0:
222,156,86886,1,0,0:0:0:0:
222,156,87118,1,0,0:0:0:0:
222,156,87351,1,0,0:0:0:0:
222,156,87583,1,8,0:0:0:0:
222,156,87816,1,8,0:0:0:0:
222,156,88048,1,0,0:0:0:0:
201,207,88281,1,0,0:0:0:0:
161,98,88514,1,8,0:0:0:0:
135,115,88979,1,0,0:0:0:0:
135,115,89327,1,0,0:0:0:0:
135,115,89676,1,0,0:0:0:0:
135,115,89909,1,8,0:0:0:0:
160,205,90374,1,0,0:0:0:0:
148,199,90607,1,0,0:0:0:0:
148,198,90839,1,8,0:0:0:0:
164,194,91304,1,8,0:0:0:0:
164,194,91537,1,0,0:0:0:0:
164,194,91769,1,8,0:0:0:0:
164,194,92234,1,0,0:0:0:0:
164,194,92467,1,0,0:0:0:0:
164,194,92700,1,8,0:0:0:0:
164,194,93165,1,8,0:0:0:0:
157,198,93397,1,0,0:0:0:0:
164,194,93630,1,12,0:0:0:0:
181,225,94095,1,0,0:0:0:0:
156,188,94327,1,0,0:0:0:0:
150,41,94560,1,8,0:0:0:0:
139,188,94793,1,0,0:0:0:0:
197,218,95025,1,8,0:0:0:0:
197,218,95258,1,0,0:0:0:0:
197,218,95490,1,8,0:0:0:0:
197,218,96188,1,0,0:0:0:0:
197,218,96421,1,8,0:0:0:0:
146,241,96886,1,0,0:0:0:0:
160,214,97118,1,8,0:0:0:0:
123,238,97351,1,0,0:0:0:0:
123,227,97583,1,8,0:0:0:0:
116,238,97816,1,0,0:0:0:0:
116,238,98048,1,0,0:0:0:0:
116,238,98281,1,8,0:0:0:0:
116,238,98514,1,8,0:0:0:0:
116,238,98746,1,0,0:0:0:0:
116,238,98979,1,0,0:0:0:0:
116,238,99211,1,8,0:0:0:0:
117,232,99327,1,8,0:0:0:0:
113,233,99444,1,8,0:0:0:0:
116,238,99676,1,8,0:0:0:0:
116,238,99909,1,8,0:0:0:0:
116,238,100141,1,0,0:0:0:0:
113,233,100374,1,0,0:0:0:0:
116,238,100839,1,0,0:0:0:0:
116,238,101072,1,8,0:0:0:0:
185,216,101769,1,8,0:0:0:0:
369,148,101886,1,8,0:0:0:0:
185,216,102002,1,8,0:0:0:0:
185,216,102234,1,0,0:0:0:0:
185,216,102467,1,8,0:0:0:0:
185,216,102700,1,0,0:0:0:0:
115,200,102816,1,0,0:0:0:0:
177,228,102932,1,0,0:0:0:0:
123,222,103165,1,0,0:0:0:0:
165,209,103514,1,0,0:0:0:0:
165,209,103862,1,8,0:0:0:0:
108,121,104327,1,0,0:0:0:0:
117,125,104560,1,8,0:0:0:0:
117,125,104793,1,8,0:0:0:0:
142,204,105025,1,0,0:0:0:0:
142,204,105258,1,8,0:0:0:0:
142,204,105490,1,8,0:0:0:0:
142,204,105723,1,0,0:0:0:0:
142,204,106072,1,0,0:0:0:0:
142,204,106421,1,8,0:0:0:0:
165,236,106537,1,8,0:0:0:0:
142,204,106653,1,8,0:0:0:0:
176,249,106886,1,0,0:0:0:0:
142,204,107118,1,8,0:0:0:0:
142,204,107583,1,0,0:0:0:0:
141,197,108048,1,0,0:0:0:0:
141,197,108281,1,8,0:0:0:0:
138,198,108514,1,0,0:0:0:0:
67,282,108746,1,8,0:0:0:0:
148,111,108979,1,0,0:0:0:0:
148,111,109211,1,0,0:0:0:0:
148,111,109444,1,8,0:0:0:0:
148,111,109676,1,8,0:0:0:0:
148,111,109909,1,0,0:0:0:0:
148,111,110141,1,0,0:0:0:0:
148,111,110374,1,8,0:0:0:0:
148,111,111072,1,0,0:0:0:0:
148,111,111304,1,8,0:0:0:0:
136,243,111421,1,8,0:0:0:0:
134,239,111537,1,8,0:0:0:0:
108,104,111769,1,0,0:0:0:0:
108,104,112002,1,8,0:0:0:0:
108,104,112467,1,8,0:0:0:0:
221,158,112700,1,0,0:0:0:0:
221,158,112932,1,0,0:0:0:0:
221,158,113165,1,8,0:0:0:0:
221,158,113397,1,8,0:0:0:0:
221,158,113514,1,8,0:0:0:0:
221,158,113630,1,8,0:0:0:0:
221,158,113862,1,0,0:0:0:0:
221,158,114095,1,8,0:0:0:0:
221,158,114327,1,8,0:0:0:0:
216,160,114560,1,8,0:0:0:0:
211,157,114793,1,0,0:0:0:0:
195,156,115025,1,8,0:0:0:0:
193,155,115374,1,0,0:0:0:0:
187,158,115723,1,8,0:0:0:0:
182,157,115955,1,8,0:0:0:0:
217,215,116188,1,8,0:0:0:0:
217,215,116421,1,0,0:0:0:0:
217,215,116769,1,0,0:0:0:0:
114,139,116886,1,8,0:0:0:0:
217,215,117118,1,0,0:0:0:0:
217,215,117351,1,0,0:0:0:0:
217,215,117583,1,0,0:0:0:0:
217,215,117816,1,8,0:0:0:0:
217,215,118397,1,0,0:0:0:0:
217,215,118746,1,8,0:0:0:0:
209,213,118862,1,8,0:0:0:0:
208,213,118979,1,8,0:0:0:0:
217,215,119211,1,0,0:0:0:0:
217,215,119444,1,8,0:0:0:0:
217,215,119676,1,0,0:0:0:0:
150,218,119909,1,8,0:0:0:0:
150,218,120141,1,0,0:0:0:0:
150,218,120374,1,0,0:0:0:0:
150,218,120607,1,8,0:0:0:0:
150,218,120839,1,0,0:0:0:0:
150,218,121072,1,8,0:0:0:0:
150,218,121304,1,8,0:0:0:0:
150,218,121537,1,0,0:0:0:0:
150,218,122002,1,0,0:0:0:0:
150,218,122467,1,8,0:0:0:0:
150,218,122932,1,0,0:0:0:0:
150,218,123165,1,0,0:0:0:0:
150,218,123397,1,8,0:0:0:0:
150,218,123862,1,8,0:0:0:0:
150,218,124327,1,0,0:0:0:0:
150,218,124793,1,0,0:0:0:0:
150,218,125258,1,8,0:0:0:0:
150,218,125490,1,8,0:0:0:0:
150,218,125723,1,0,0:0:0:0:
150,218,125955,1,0,0:0:0:0:
150,218,126188,1,8,0:0:0:0:
150,218,126653,1,0,0:0:0:0:
150,218,126886,1,8,0:0:0:0:
134,200,127118,1,0,0:0:0:0:
139,198,127351,1,8,0:0:0:0:
134,200,127583,1,0,0:0:0:0:
134,200,127816,1,0,0:0:0:0:
134,200,128048,1,8,0:0:0:0:
134,200,128281,1,8,0:0:0:0:
134,200,128514,1,0,0:0:0:0:
134,200,128746,1,0,0:0:0:0:
134,200,128979,1,8,0:0:0:0:
134,200,129444,1,8,0:0:0:0:
134,200,129909,1,0,0:0:0:0:
134,200,130374,1,0,0:0:0:0:
134,200,130607,1,0,0:0:0:0:
134,200,130839,1,8,0:0:0:0:
134,200,131304,1,8,0:0:0:0:
134,200,131769,1,0,0:0:0:0:
134,200,132234,1,0,0:0:0:0:
134,200,132700,1,8,0:0:0:0:
134,200,132932,1,0,0:0:0:0:
134,200,133165,1,8,0:0:0:0:
134,200,133397,1,0,0:0:0:0:
134,200,133630,1,8,0:0:0:0:
134,200,134095,1,0,0:0:0:0:
134,194,134327,1,8,0:0:0:0:
134,200,134560,1,8,0:0:0:0:
134,200,134793,1,8,0:0:0:0:
134,200,135025,1,0,0:0:0:0:
134,194,135258,1,0,0:0:0:0:
134,200,135490,1,8,0:0:0:0:
134,200,135723,1,0,0:0:0:0:
134,200,135955,1,8,0:0:0:0:
134,194,136188,1,0,0:0:0:0:
134,200,136421,1,8,0:0:0:0:
123,211,136653,1,0,0:0:0:0:
134,200,136886,1,0,0:0:0:0:
134,200,137351,1,0,0:0:0:0:
183,73,137700,1,8,0:0:0:0:
183,73,137816,1,8,0:0:0:0:
333,329,138281,1,0,0:0:0:0:
159,247,138746,1,8,0:0:0:0:
159,247,138979,1,8,0:0:0:0:
159,247,139211,1,0,0:0:0:0:
159,247,139676,1,8,0:0:0:0:
159,247,139909,1,8,0:0:0:0:
159,247,140141,1,0,0:0:0:0:
81,214,140607,1,8,0:0:0:0:
81,214,140839,1,0,0:0:0:0:
81,214,141072,1,8,0:0:0:0:
81,214,141769,1,8,0:0:0:0:
81,214,142002,1,0,0:0:0:0:
81,240,142700,1,0,0:0:0:0:
206,40,143397,1,8,0:0:0:0:
114,156,143630,1,0,0:0:0:0:
122,156,143862,1,8,0:0:0:0:
38,159,144327,1,8,0:0:0:0:
38,159,144560,1,8,0:0:0:0:
38,159,144793,1,0,0:0:0:0:
177,182,145490,1,0,0:0:0:0:
177,182,145723,1,8,0:0:0:0:
177,182,146188,1,8,0:0:0:0:
177,182,146421,1,8,0:0:0:0:
177,182,146653,1,0,0:0:0:0:
177,182,146886,1,8,0:0:0:0:
177,182,147118,1,8,0:0:0:0:
172,193,147351,1,0,0:0:0:0:
177,182,147583,1,8,0:0:0:0:
172,193,148048,1,8,0:0:0:0:
172,193,148281,1,0,0:0:0:0:
172,193,148514,1,8,0:0:0:0:
164,186,149211,1,8,0:0:0:0:
161,183,149444,1,0,0:0:0:0:
289,188,149909,1,8,0:0:0:0:
289,188,150141,1,0,0:0:0:0:
152,105,150374,1,8,0:0:0:0:
152,105,150607,1,8,0:0:0:0:
152,105,150839,1,0,0:0:0:0:
152,105,151072,1,8,0:0:0:0:
152,105,151304,1,0,0:0:0:0:
152,105,151769,1,8,0:0:0:0:
152,105,152002,1,8,0:0:0:0:
152,105,152234,1,0,0:0:0:0:
152,105,152467,1,0,0:0:0:0:
152,105,152700,1,8,0:0:0:0:
152,105,152932,1,8,0:0:0:0:
152,105,153165,1,0,0:0:0:0:
163,98,153630,1,8,0:0:0:0:
152,218,153862,1,0,0:0:0:0:
161,101,154095,1,0,0:0:0:0:
320,144,154327,1,8,0:0:0:0:
163,98,154560,1,8,0:0:0:0:
161,101,154793,1,0,0:0:0:0:
161,101,155025,1,8,0:0:0:0:
130,104,155258,1,8,0:0:0:0:
127,115,155490,1,8,0:0:0:0:
114,112,155723,1,0,0:0:0:0:
111,121,155955,1,8,0:0:0:0:
111,121,156421,1,0,0:0:0:0:
147,86,156653,1,8,0:0:0:0:
111,121,156886,1,0,0:0:0:0:
188,62,157118,1,8,0:0:0:0:
158,118,157351,1,8,0:0:0:0:
158,118,157583,1,0,0:0:0:0:
158,118,157816,1,8,0:0:0:0:
144,198,158281,1,8,0:0:0:0:
144,198,158746,1,0,0:0:0:0:
144,198,159211,1,8,0:0:0:0:
144,198,159444,1,0,0:0:0:0:
144,198,159676,1,8,0:0:0:0:
144,198,160141,1,8,0:0:0:0:
144,198,160607,1,8,0:0:0:0:
205,114,160839,1,8,0:0:0:0:
110,174,161072,1,0,0:0:0:0:
205,210,161304,1,8,0:0:0:0:
110,174,161537,1,0,0:0:0:0:
104,179,162002,1,8,0:0:0:0:
104,179,162234,1,0,0:0:0:0:
104,179,162467,1,8,0:0:0:0:
98,178,162700,1,8,0:0:0:0:
104,179,162932,1,0,0:0:0:0:
95,176,163165,1,0,0:0:0:0:
56,160,163397,1,8,0:0:0:0:
116,175,163630,1,8,0:0:0:0:
129,131,164095,1,8,0:0:0:0:
56,160,164327,1,8,0:0:0:0:
103,170,164793,1,8,0:0:0:0:
103,170,165025,1,0,0:0:0:0:
103,170,165258,1,0,0:0:0:0:
103,170,165723,1,8,0:0:0:0:
103,170,166188,1,8,0:0:0:0:
149,235,166421,1,0,0:0:0:0:
103,170,166653,1,8,0:0:0:0:
103,170,166886,1,0,0:0:0:0:
103,170,167118,1,0,0:0:0:0:
145,192,167583,1,8,0:0:0:0:
222,167,167816,1,0,0:0:0:0:
145,192,168048,1,8,0:0:0:0:
222,167,168514,1,0,0:0:0:0:
143,239,168746,1,8,0:0:0:0:
222,167,168979,1,0,0:0:0:0:
211,201,169211,1,8,0:0:0:0:
202,189,169444,1,8,0:0:0:0:
288,291,169676,1,0,0:0:0:0:
192,193,169909,1,8,0:0:0:0:
185,186,170374,1,8,0:0:0:0:
181,184,170839,1,8,0:0:0:0:
173,183,171304,1,8,0:0:0:0:
169,179,171537,1,8,0:0:0:0:
160,175,171769,1,0,0:0:0:0:
270,261,172234,1,8,0:0:0:0:
270,255,172467,1,8,0:0:0:0:
270,255,172700,1,0,0:0:0:0:
270,261,172932,1,0,0:0:0:0:
270,261,173165,1,8,0:0:0:0:
270,255,173397,1,8,0:0:0:0:
270,255,173630,1,0,0:0:0:0:
265,256,174095,1,0,0:0:0:0:
261,256,174560,1,8,0:0:0:0:
265,256,174793,1,8,0:0:0:0:
265,256,175025,1,0,0:0:0:0:
261,256,175258,1,8,0:0:0:0:
261,256,175490,1,0,0:0:0:0:
199,260,175955,1,0,0:0:0:0:
199,260,176188,1,8,0:0:0:0:
199,260,176421,1,0,0:0:0:0:
199,260,176653,1,8,0:0:0:0:
199,260,176886,1,8,0:0:0:0:
199,260,177118,1,0,0:0:0:0:
199,260,177351,1,8,0:0:0:0:
191,249,177583,1,8,0:0:0:0:
209,249,178048,1,0,0:0:0:0:
206,247,178281,1,8,0:0:0:0:
178,235,178746,1,8,0:0:0:0:
178,235,178979,1,0,0:0:0:0:
178,235,179211,1,8,0:0:0:0:
151,189,179444,1,8,0:0:0:0:
152,196,179676,1,0,0:0:0:0:
152,196,179909,1,0,0:0:0:0:
152,196,180141,1,8,0:0:0:0:
152,196,180374,1,0,0:0:0:0:
152,196,180607,1,8,0:0:0:0:
152,196,180839,1,8,0:0:0:0:
152,196,181072,1,0,0:0:0:0:
119,206,182932,1,12,0:0:0:0:
171,88,183397,1,0,0:0:0:0:
171,88,183630,1,0,0:0:0:0:
171,88,183862,1,8,0:0:0:0:
171,88,184095,1,8,0:0:0:0:
171,88,184327,1,0,0:0:0:0:
171,88,184560,1,0,0:0:0:0:
171,88,184793,1,8,0:0:0:0:
171,88,185490,1,0,0:0:0:0:
171,88,185723,1,8,0:0:0:0:
435,315,186188,1,0,0:0:0:0:
435,315,186421,1,8,0:0:0:0:
435,315,186653,1,0,0:0:0:0:
171,191,186886,1,8,0:0:0:0:
171,191,187118,1,8,0:0:0:0:
171,191,187351,1,8,0:0:0:0:
171,191,187583,1,0,0:0:0:0:
171,191,187816,1,8,0:0:0:0:
155,119,187932,1,8,0:0:0:0:
150,129,188048,1,8,0:0:0:0:
171,191,188281,1,0,0:0:0:0:
171,191,188514,1,8,0:0:0:0:
171,191,188746,1,8,0:0:0:0:
171,191,188979,1,0,0:0:0:0:
171,191,189211,1,0,0:0:0:0:
171,191,189444,1,8,0:0:0:0:
199,151,189560,1,8,0:0:0:0:
171,191,189676,1,8,0:0:0:0:
124,211,189909,1,0,0:0:0:0:
171,191,190141,1,0,0:0:0:0:
171,191,190374,1,8,0:0:0:0:
97,199,190839,1,8,0:0:0:0:
97,199,191072,1,0,0:0:0:0:
85,133,191188,1,0,0:0:0:0:
97,199,191304,1,0,0:0:0:0:
97,199,191537,1,8,0:0:0:0:
97,199,191769,1,0,0:0:0:0:
97,199,192002,1,0,0:0:0:0:
97,199,192234,1,8,0:0:0:0:
153,193,192816,1,0,0:0:0:0:
153,193,193165,1,8,0:0:0:0:
165,203,193630,1,0,0:0:0:0:
165,203,193862,1,8,0:0:0:0:
165,203,194095,1,0,0:0:0:0:
188,266,194327,1,8,0:0:0:0:
188,266,194560,1,0,0:0:0:0:
188,266,194793,1,0,0:0:0:0:
188,266,195025,1,8,0:0:0:0:
178,254,195141,1,8,0:0:0:0:
174,255,195258,1,8,0:0:0:0:
83,205,195490,1,0,0:0:0:0:
83,205,195723,1,8,0:0:0:0:
83,205,195955,1,8,0:0:0:0:
87,212,196188,1,0,0:0:0:0:
83,205,196421,1,0,0:0:0:0:
87,212,196653,1,8,0:0:0:0:
83,205,196886,1,0,0:0:0:0:
79,208,197351,1,0,0:0:0:0:
201,95,197583,1,0,0:0:0:0:
83,205,197816,1,8,0:0:0:0:
213,132,198048,1,8,0:0:0:0:
79,208,198281,1,0,0:0:0:0:
83,205,198514,1,0,0:0:0:0:
78,207,198746,1,8,0:0:0:0:
66,205,198862,1,8,0:0:0:0:
64,206,198979,1,8,0:0:0:0:
62,208,199211,1,8,0:0:0:0:
62,208,199444,1,0,0:0:0:0:
62,208,199676,1,8,0:0:0:0:
62,208,200374,1,0,0:0:0:0:
62,208,200607,1,8,0:0:0:0:
46,208,201072,1,0,0:0:0:0:
46,208,201304,1,8,0:0:0:0:
46,208,201537,1,0,0:0:0:0:
46,208,201769,1,8,0:0:0:0:
149,131,202002,1,0,0:0:0:0:
111,195,202234,1,0,0:0:0:0:
111,195,202467,1,8,0:0:0:0:
111,195,202700,1,0,0:0:0:0:
101,182,202816,1,0,0:0:0:0:
111,195,202932,1,0,0:0:0:0:
120,196,203165,1,0,0:0:0:0:
128,194,203397,1,8,0:0:0:0:
71,184,203630,1,8,0:0:0:0:
71,184,203862,1,0,0:0:0:0:
119,226,204095,1,0,0:0:0:0:
119,226,204327,1,8,0:0:0:0:
119,226,204676,1,0,0:0:0:0:
119,226,205025,1,8,0:0:0:0:
119,226,205258,1,0,0:0:0:0:
117,257,205723,1,0,0:0:0:0:
155,74,206072,1,0,0:0:0:0:
117,257,206188,1,8,0:0:0:0:
117,257,206421,1,0,0:0:0:0:
117,257,206653,1,8,0:0:0:0:
69,211,206886,1,8,0:0:0:0:
117,257,207118,1,0,0:0:0:0:
114,251,207700,1,0,0:0:0:0:
114,252,208048,1,8,0:0:0:0:
353,270,208514,1,0,0:0:0:0:
353,270,208746,1,0,0:0:0:0:
353,270,208979,1,8,0:0:0:0:
346,265,209211,1,0,0:0:0:0:
345,267,209444,1,8,0:0:0:0:
345,267,209676,1,8,0:0:0:0:
345,267,209909,1,0,0:0:0:0:
346,265,210141,1,0,0:0:0:0:
345,267,210374,1,8,0:0:0:0:
345,267,210607,1,0,0:0:0:0:
345,267,210839,1,0,0:0:0:0:
345,267,211304,1,0,0:0:0:0:
345,267,211769,1,8,0:0:0:0:
138,128,212002,1,0,0:0:0:0:
230,257,212118,1,0,0:0:0:0:
227,197,212234,1,0,0:0:0:0:
230,257,212467,1,8,0:0:0:0:
223,256,212700,1,0,0:0:0:0:
204,246,213165,1,0,0:0:0:0:
201,244,213630,1,8,0:0:0:0:
204,246,214095,1,8,0:0:0:0:
131,143,214327,1,0,0:0:0:0:
201,244,214560,1,8,0:0:0:0:
199,242,214793,1,8,0:0:0:0:
199,243,215025,1,0,0:0:0:0:
201,244,215258,1,0,0:0:0:0:
201,244,215490,1,8,0:0:0:0:
199,243,215955,1,8,0:0:0:0:
191,238,216188,1,8,0:0:0:0:
183,245,216304,1,8,0:0:0:0:
201,244,216421,1,8,0:0:0:0:
189,248,216653,1,0,0:0:0:0:
196,238,216886,1,8,0:0:0:0:
196,238,217118,1,0,0:0:0:0:
196,238,217351,1,8,0:0:0:0:
175,200,217583,1,8,0:0:0:0:
175,200,217816,1,0,0:0:0:0:
175,200,218048,1,0,0:0:0:0:
175,200,218281,1,8,0:0:0:0:
218,245,218746,1,8,0:0:0:0:
218,245,219211,1,0,0:0:0:0:
218,245,219676,1,0,0:0:0:0:
213,241,219909,1,8,0:0:0:0:
167,206,220025,1,8,0:0:0:0:
212,244,220141,1,8,0:0:0:0:
306,292,220607,1,8,0:0:0:0:
298,289,221072,1,0,0:0:0:0:
297,289,221537,1,0,0:0:0:0:
103,176,221769,1,0,0:0:0:0:
298,289,222002,1,8,0:0:0:0:
297,289,222234,1,8,0:0:0:0:
297,289,222467,1,8,0:0:0:0:
298,289,222700,1,0,0:0:0:0:
298,289,222932,1,8,0:0:0:0:
297,289,223397,1,0,0:0:0:0:
298,289,223630,1,8,0:0:0:0:
235,271,223746,1,8,0:0:0:0:
298,289,223862,1,8,0:0:0:0:
291,291,224095,1,0,0:0:0:0:
234,139,224327,1,8,0:0:0:0:
234,144,224560,1,8,0:0:0:0:
234,144,224793,1,8,0:0:0:0:
234,144,225025,1,0,0:0:0:0:
234,144,225258,1,8,0:0:0:0:
234,144,225490,1,0,0:0:0:0:
234,144,225723,1,8,0:0:0:0:
222,170,225955,1,0,0:0:0:0:
234,144,226188,1,0,0:0:0:0:
222,170,226421,1,8,0:0:0:0:
234,144,226653,1,0,0:0:0:0:
222,170,227118,1,0,0:0:0:0:
222,170,227583,1,8,0:0:0:0:
207,172,228048,1,8,0:0:0:0:
203,170,228514,1,0,0:0:0:0:
200,171,228979,1,0,0:0:0:0:
151,243,229211,1,0,0:0:0:0:
198,169,229444,1,8,0:0:0:0:
198,165,229676,1,8,0:0:0:0:
200,171,229909,1,0,0:0:0:0:
198,169,230141,1,0,0:0:0:0:
198,169,230374,1,8,0:0:0:0:
196,167,230839,1,0,0:0:0:0:
198,169,231304,1,8,0:0:0:0:
191,169,231769,1,8,0:0:0:0:
185,170,232234,1,0,0:0:0:0:
147,83,232467,1,8,0:0:0:0:
184,168,232700,1,0,0:0:0:0:
172,200,232932,1,0,0:0:0:0:
185,170,233165,1,8,0:0:0:0:
184,168,233630,1,8,0:0:0:0:
178,167,234095,1,0,0:0:0:0:
178,167,234560,1,0,0:0:0:0:
178,167,235025,1,8,0:0:0:0:
151,160,235490,1,8,0:0:0:0:
154,159,235955,1,0,0:0:0:0:
151,160,236421,1,0,0:0:0:0:
132,123,236653,1,0,0:0:0:0:
154,159,236886,1,8,0:0:0:0:
151,160,237118,1,8,0:0:0:0:
151,160,237351,1,0,0:0:0:0:
154,159,237583,1,0,0:0:0:0:
154,159,237816,1,8,0:0:0:0:
111,236,238281,1,8,0:0:0:0:
111,236,238514,1,8,0:0:0:0:
111,236,238746,1,8,0:0:0:0:
140,193,239211,1,8,0:0:0:0:
124,205,239444,1,0,0:0:0:0:
140,193,239676,1,0,0:0:0:0:
116,159,240141,1,8,0:0:0:0:
123,128,240607,1,8,0:0:0:0:
147,208,241072,1,8,0:0:0:0:
139,219,241304,1,0,0:0:0:0:
147,208,241537,1,0,0:0:0:0:
199,65,241886,1,8,0:0:0:0:
199,65,242002,1,8,0:0:0:0:
226,287,242234,1,0,0:0:0:0:
