osu file format v14

[General]
AudioFilename: audio.mp3
AudioLeadIn: 0
PreviewTime: 70685
Countdown: 0
SampleSet: Soft
StackLeniency: 0.7
Mode: 0
LetterboxInBreaks: 0
WidescreenStoryboard: 0

[Editor]
Bookmarks: 62,11857,22177,23652,35447,45767,47242,53139,59037,64934,70832,81153,82627,94422,104743,106217
DistanceSpacing: 2
BeatDivisor: 4
GridSize: 4
TimelineZoom: 1

[Metadata]
Title:split my brain
TitleUnicode:split my brain
Artist:moodyriley
ArtistUnicode:moodyriley
Creator:Mimari
Version:everyday
Source:
Tags:hyperpop pop english i love ganyu azinlen thenexus amats
BeatmapID:3471724
BeatmapSetID:1699099

[Difficulty]
HPDrainRate:5
CircleSize:3.6
OverallDifficulty:8
ApproachRate:9
SliderMultiplier:1.7
SliderTickRate:1

[Events]
//Background and Video events
0,0,"Untitled.jpg",0,0
//Break Periods
2,22322,22997
2,45912,46587
2,81297,81972
2,104887,105562
//Storyboard Layer 0 (Background)
//Storyboard Layer 1 (Fail)
//Storyboard Layer 2 (Pass)
//Storyboard Layer 3 (Foreground)
//Storyboard Layer 4 (Overlay)
//Storyboard Sound Samples

[TimingPoints]
7,368.595650571323,4,2,1,70,1,0
7,-666.666666666667,4,2,1,70,0,0
11802,-181.818181818181,4,2,1,70,0,0
17699,-133.333333333333,4,2,1,70,0,0
23597,-58.8235294117647,4,2,2,100,0,0
24150,-66.6666666666667,4,2,2,100,0,0
24795,-133.333333333333,4,2,2,100,0,0
25440,-58.8235294117647,4,2,2,100,0,0
26545,-50,4,2,2,100,0,0
26730,-50,4,2,3,100,0,0
26914,-50,4,2,2,100,0,0
27098,-66.6666666666667,4,2,2,100,0,0
27743,-133.333333333333,4,2,2,100,0,0
28204,-66.6666666666667,4,2,2,100,0,0
28573,-66.6666666666667,4,2,3,100,0,0
28757,-66.6666666666667,4,2,2,100,0,0
29126,-250,4,2,2,100,0,0
29310,-250,4,2,3,100,0,0
29494,-52.6315789473684,4,2,2,100,0,0
29678,-52.6315789473684,4,2,3,100,0,0
29863,-52.6315789473684,4,2,2,100,0,0
30047,-66.6666666666667,4,2,2,100,0,0
30692,-133.333333333333,4,2,2,100,0,0
31153,-66.6666666666667,4,2,2,100,0,0
31521,-66.6666666666667,4,2,3,100,0,0
31706,-50,4,2,2,100,0,0
32259,-50,4,2,3,100,0,0
32443,-58.8235294117647,4,2,2,100,0,0
32627,-58.8235294117647,4,2,3,100,0,0
32812,-58.8235294117647,4,2,2,100,0,0
32996,-66.6666666666667,4,2,2,100,0,0
33641,-133.333333333333,4,2,2,100,0,0
34286,-58.8235294117647,4,2,2,100,0,0
34470,-76.9230769230769,4,2,3,100,0,0
34562,-76.9230769230769,4,2,2,100,0,0
34839,-76.9230769230769,4,2,2,80,0,0
35023,-76.9230769230769,4,2,3,80,0,0
35207,-76.9230769230769,4,2,3,90,0,0
35392,-50,4,2,2,100,0,0
35576,-50,4,2,3,100,0,0
35668,-50,4,2,2,100,0,0
35945,-58.8235294117647,4,2,2,100,0,0
36590,-83.3333333333333,4,2,2,100,0,0
37235,-47.6190476190476,4,2,2,100,0,0
37603,-41.6666666666667,4,2,2,100,0,0
37972,-500,4,2,2,100,0,0
38340,-50,4,2,2,100,0,0
38525,-50,4,2,3,100,0,0
38617,-50,4,2,2,100,0,0
38893,-55.5555555555556,4,2,2,100,0,0
39631,-133.333333333333,4,2,2,100,0,0
39999,-45.4545454545455,4,2,2,100,0,0
40183,-66.6666666666667,4,2,2,100,0,0
40368,-66.6666666666667,4,2,3,100,0,0
40552,-40,4,2,2,100,0,0
41105,-50,4,2,3,100,0,0
41289,-50,4,2,2,100,0,0
41474,-50,4,2,3,100,0,0
41658,-66.6666666666667,4,2,2,100,0,0
41842,-50,4,2,2,100,0,0
42395,-43.4782608695652,4,2,2,100,0,0
42948,-50,4,2,2,100,0,0
43316,-50,4,2,3,100,0,0
43501,-50,4,2,2,100,0,0
43869,-40,4,2,2,100,0,0
44054,-40,4,2,3,100,0,0
44238,-40,4,2,2,100,0,0
44422,-40,4,2,3,100,0,0
44607,-66.6666666666667,4,2,2,100,0,0
44791,-50,4,2,2,100,0,0
45344,-40,4,2,2,100,0,0
47187,-153.846153846153,4,2,1,80,0,0
52716,-117.647058823529,4,2,1,80,0,0
53084,-133.333333333333,4,2,1,80,0,0
58982,-100,4,2,2,90,0,0
60825,-80,4,2,2,90,0,0
62115,-100,4,2,2,90,0,0
64142,-80,4,2,2,90,0,0
64879,-80,4,2,2,90,0,0
65432,-66.6666666666667,4,2,2,90,0,0
68012,-60.6060606060606,4,2,2,90,0,0
68934,-100,4,2,2,90,0,0
69671,-57.1428571428571,4,2,2,90,0,0
70777,-666.666666666667,4,2,2,60,0,0
81098,-666.666666666667,4,2,3,60,0,0
82568,-58.8235294117647,4,2,3,60,0,0
82572,-58.8235294117647,4,2,2,100,0,0
83121,-66.6666666666667,4,2,2,100,0,0
83766,-133.333333333333,4,2,2,100,0,0
84411,-58.8235294117647,4,2,2,100,0,0
84783,-47.6190476190476,4,2,2,100,0,0
85516,-50,4,2,2,100,0,0
85705,-50,4,2,3,100,0,0
85797,-50,4,2,2,100,0,0
86069,-66.6666666666667,4,2,2,100,0,0
86714,-133.333333333333,4,2,2,100,0,0
87175,-66.6666666666667,4,2,2,100,0,0
87548,-66.6666666666667,4,2,3,100,0,0
87640,-66.6666666666667,4,2,2,100,0,0
88097,-250,4,2,2,100,0,0
88285,-250,4,2,3,100,0,0
88377,-250,4,2,2,100,0,0
88465,-52.6315789473684,4,2,2,100,0,0
88654,-52.6315789473684,4,2,3,100,0,0
88746,-52.6315789473684,4,2,2,100,0,0
89018,-66.6666666666667,4,2,2,100,0,0
89663,-133.333333333333,4,2,2,100,0,0
90124,-66.6666666666667,4,2,2,100,0,0
90497,-66.6666666666667,4,2,3,100,0,0
90589,-66.6666666666667,4,2,2,100,0,0
90677,-50,4,2,2,100,0,0
91234,-50,4,2,3,100,0,0
91326,-50,4,2,2,100,0,0
91414,-58.8235294117647,4,2,2,100,0,0
91603,-58.8235294117647,4,2,3,100,0,0
91695,-58.8235294117647,4,2,2,100,0,0
91967,-66.6666666666667,4,2,2,100,0,0
92612,-133.333333333333,4,2,2,100,0,0
93257,-58.8235294117647,4,2,2,100,0,0
93441,-71.4285714285714,4,2,2,100,0,0
93445,-71.4285714285714,4,2,3,100,0,0
93538,-71.4285714285714,4,2,2,100,0,0
94363,-50,4,2,2,100,0,0
94551,-50,4,2,3,100,0,0
94643,-50,4,2,2,100,0,0
94916,-58.8235294117647,4,2,2,100,0,0
95561,-83.3333333333333,4,2,2,100,0,0
96206,-47.6190476190476,4,2,2,100,0,0
96579,-41.6666666666667,4,2,2,100,0,0
96943,-500,4,2,2,100,0,0
97311,-50,4,2,2,100,0,0
97500,-50,4,2,3,100,0,0
97592,-50,4,2,2,100,0,0
97864,-55.5555555555556,4,2,2,100,0,0
98602,-133.333333333333,4,2,2,100,0,0
98970,-45.4545454545455,4,2,2,100,0,0
99154,-66.6666666666667,4,2,2,100,0,0
99343,-66.6666666666667,4,2,3,100,0,0
99435,-66.6666666666667,4,2,2,100,0,0
99523,-40,4,2,2,100,0,0
100076,-50,4,2,2,100,0,0
100080,-50,4,2,3,100,0,0
100172,-50,4,2,2,100,0,0
100449,-50,4,2,3,100,0,0
100541,-50,4,2,2,100,0,0
100629,-66.6666666666667,4,2,2,100,0,0
100813,-50,4,2,2,100,0,0
101366,-43.4782608695652,4,2,2,100,0,0
101919,-50,4,2,2,100,0,0
102292,-50,4,2,3,100,0,0
102384,-50,4,2,2,100,0,0
102840,-40,4,2,2,100,0,0
103029,-40,4,2,3,100,0,0
103121,-40,4,2,2,100,0,0
103398,-40,4,2,3,100,0,0
103490,-40,4,2,2,100,0,0
103578,-66.6666666666667,4,2,2,100,0,0
103762,-50,4,2,2,100,0,0
104315,-40,4,2,2,100,0,0
104688,-40,4,2,2,60,0,0
106158,-153.846153846153,4,2,2,60,0,0
106162,-153.846153846153,4,2,2,50,0,0

[Colours]
Combo1 : 225,225,225
Combo2 : 186,196,218
Combo3 : 157,187,153

[HitObjects]
90,191,7,6,0,P|256:185|447:194,1,356.999989105225,2|2,0:2|0:2,0:0:0:0:
254,357,5904,6,0,P|248:179|259:11,1,344.249989494324,2|2,0:2|0:2,0:0:0:0:
451,301,11802,6,0,P|358:288|253:288,1,187.000005706787,0|2,1:0|1:2,0:0:0:0:
61,83,13276,2,0,P|154:96|259:96,1,187.000005706787,2|0,1:2|1:0,0:0:0:0:
147,387,14750,2,0,P|160:294|160:189,1,187.000005706787,0|0,1:0|1:0,0:0:0:0:
365,0,16225,2,0,P|352:90|352:195,1,187.000005706787,2|0,1:2|1:0,0:0:0:0:
104,106,17699,6,0,P|165:114|235:114,1,127.500004863739,2|2,1:2|1:2,0:0:0:0:
408,278,18436,2,0,P|346:269|276:269,1,127.500004863739,2|2,1:2|1:2,0:0:0:0:
342,40,19173,2,0,P|333:101|333:171,1,127.500004863739,0|2,1:0|1:2,0:0:0:0:
170,344,19911,2,0,P|178:282|178:212,1,127.500004863739,0|2,1:0|1:2,0:0:0:0:
408,278,20648,2,0,P|346:269|276:269,1,127.500004863739,2|2,1:2|1:2,0:0:0:0:
104,106,21385,2,0,P|165:114|235:114,1,127.500004863739,0|2,1:0|1:2,0:0:0:0:
256,192,22122,5,2,0:0:0:0:
256,192,23597,6,0,B|235:171|192:114|305:30|290:67|290:67|258:101|290:113,1,216.750004134178,2|0,1:2|0:0,0:0:0:0:
336,166,23965,6,0,P|372:161|389:117,1,72.2500013780594,10|0,0:2|0:0,0:0:0:0:
219,4,24150,6,0,B|104:9|162:45|29:63,1,191.250007295609,2|0,1:2|0:0,0:0:0:0:
0,133,24518,5,2,0:2:0:0:
133,322,24702,5,10,0:2:0:0:
133,322,24795,2,0,P|147:293|139:264,1,63.7500024318696
56,280,25071,5,2,0:2:0:0:
346,368,25440,6,0,P|377:357|428:351,1,72.2500013780594,10|0,1:2|0:0,0:0:0:0:
470,293,25624,1,2,0:2:0:0:
265,151,25808,6,0,B|235:148|167:163|189:198|171:234|279:187|255:351,1,216.750004134178,0|0,1:0|0:0,0:0:0:0:
257,295,26177,1,2,0:2:0:0:
257,295,26269,1,0,0:0:0:0:
512,27,26545,6,0,B|501:20|485:-3|444:-5|435:97|403:42|383:71|383:71|360:4|337:17|305:-2,1,255,2|0,1:2|0:0,0:0:0:0:
238,13,26914,2,0,P|240:49|287:71,1,85,10|0,0:2|0:0,0:0:0:0:
425,280,27098,6,0,P|442:195|508:112,1,191.250007295609,2|0,1:2|0:0,0:0:0:0:
441,66,27467,5,2,0:2:0:0:
246,209,27651,5,10,0:2:0:0:
246,209,27744,2,0,P|216:227|185:216,1,63.7500024318696
204,135,28020,5,2,0:2:0:0:
316,259,28204,2,0,P|330:285|336:319,1,63.7500024318696,0|0,1:0|0:0,0:0:0:0:
105,206,28388,6,0,P|112:184|117:150,2,42.5000016212464,10|0|0,0:2|0:0|0:0,0:0:0:0:
138,278,28573,1,2,0:2:0:0:
182,31,28757,6,0,B|297:36|239:72|372:90,1,191.250007295609,0|0,1:0|0:0,0:0:0:0:
429,47,29126,6,0,L|436:4,1,34,10|2,0:2|0:0,0:0:0:0:
499,259,29494,6,0,B|451:247|418:168|526:179|359:178|420:145|187:178|393:177|401:234,1,242.249993531227,2|0,1:2|0:0,0:0:0:0:
394,271,29863,2,0,P|391:307|337:329,1,80.7499978437424,10|0,0:2|0:0,0:0:0:0:
245,155,30047,6,0,B|298:83|312:6|310:-19|259:41|228:55,1,191.250007295609,2|0,1:2|0:0,0:0:0:0:
183,4,30416,5,2,0:2:0:0:
38,204,30600,5,10,0:2:0:0:
38,204,30693,2,0,P|20:174|31:143,1,63.7500024318696
110,166,30969,5,2,0:2:0:0:
273,349,31153,6,0,P|245:341|195:336,1,63.7500024318696,0|0,1:0|0:0,0:0:0:0:
67,312,31337,2,0,P|87:291|117:250,1,63.7500024318696,10|0,0:2|0:0,0:0:0:0:
207,136,31521,2,0,P|214:164|234:210,1,63.7500024318696,2|0,0:2|0:0,0:0:0:0:
188,261,31706,6,0,B|143:243|154:202|101:209|112:214|94:178|176:159|206:93|176:44,1,255,0|0,1:0|0:0,0:0:0:0:
181,55,32074,1,10,0:2:0:0:
181,55,32166,1,0,0:0:0:0:
462,230,32443,6,0,B|483:251|526:308|413:392|428:355|428:355|460:321|428:309,1,216.750004134178,2|0,1:2|0:0,0:0:0:0:
361,309,32811,2,0,P|353:274|375:247,1,72.2500013780594,10|0,0:2|0:0,0:0:0:0:
498,145,32996,6,0,B|375:112|457:100|318:86,1,191.250007295609,2|0,1:2|0:0,0:0:0:0:
261,141,33364,5,2,0:2:0:0:
172,381,33548,5,10,0:2:0:0:
172,381,33641,2,0,P|175:349|156:325,1,63.7500024318696
85,371,33917,5,2,0:2:0:0:
126,0,34286,6,0,P|130:33|126:93,1,72.2500013780594,10|0,0:2|0:0,0:0:0:0:
20,134,34470,2,0,P|16:164|24:208,1,55.2499974708558,2|0,0:2|0:0,0:0:0:0:
473,326,35392,6,0,B|442:266|397:297|311:250|380:312,1,170,2|2,1:2|0:0,0:0:0:0:
415,384,35668,1,2,0:2:0:0:
415,384,35760,1,8,0:0:0:0:
306,212,35945,6,0,B|313:85|349:143|370:-6,1,216.750004134178,2|0,1:2|0:0,0:0:0:0:
289,7,36313,5,2,0:2:0:0:
397,214,36497,5,10,0:2:0:0:
397,214,36590,2,0,P|453:195|535:184,1,101.999996887207
468,275,36866,5,2,0:2:0:0:
115,170,37235,6,0,P|59:189|-8:196,1,89.2499972763062,0|0,1:0|0:0,0:0:0:0:
89,264,37419,1,2,0:2:0:0:
310,44,37603,6,0,B|246:31|221:67|170:83|192:118|174:154|322:85|256:312,1,305.999990661621,0|0,1:0|0:0,0:0:0:0:
261,322,37972,2,0,L|260:344,1,17,10|2,0:2|0:2,0:0:0:0:
444,188,38340,6,0,B|459:186|477:117|341:81|376:109|376:109|411:129|390:138,1,170,2|2,1:2|0:0,0:0:0:0:
358,200,38617,1,2,0:2:0:0:
358,200,38709,1,8,0:0:0:0:
512,286,38893,6,0,B|359:315|473:342|331:376|299:388,1,229.499992996216,2|0,1:2|0:0,0:0:0:0:
261,322,39262,5,2,0:2:0:0:
138,192,39446,2,0,P|145:155|163:122,1,76.4999976654053,10|0,0:2|0:0,0:0:0:0:
238,90,39631,5,2,0:2:0:0:
238,90,39815,2,0,L|279:96,1,31.8750012159348,2|0,0:2|0:0,0:0:0:0:
64,131,39999,6,0,P|57:85|35:45,1,93.5000028533936,0|2,1:0|0:2,0:0:0:0:
294,228,40183,6,0,L|360:215,2,42.5000016212464,8|0|0,0:0|0:0|0:0,0:0:0:0:
225,181,40368,1,2,0:2:0:0:
77,384,40552,6,0,B|27:323|-14:303|-3:411|-61:77|-4:244|63:294|-4:72|-5:278|76:202|21:288|107:260,1,318.75,0|0,1:0|0:0,0:0:0:0:
143,326,40921,5,10,0:2:0:0:
393,278,41105,2,0,P|407:252|415:193,1,85,2|0,0:2|0:0,0:0:0:0:
139,56,41289,5,2,1:2:0:0:
308,89,41474,1,2,0:2:0:0:
225,181,41658,6,0,P|220:138|205:108,1,63.7500024318696,10|0,0:2|0:0,0:0:0:0:
471,13,41842,2,0,B|433:-9|392:16|391:41|434:72|422:121|347:127,1,170,2|2,1:2|0:2,0:0:0:0:
308,89,42119,1,0,0:0:0:0:
308,89,42211,1,2,0:2:0:0:
21,192,42395,6,0,P|170:216|327:289,1,293.2500055933,10|0,0:2|0:0,0:0:0:0:
326,346,42764,5,2,0:2:0:0:
203,129,42948,2,0,P|212:91|216:35,1,85,2|0,1:2|0:0,0:0:0:0:
465,222,43132,5,10,1:2:0:0:
465,222,43224,2,0,B|464:244|457:298|351:282|379:270|379:270|415:269|404:246,1,170
400,171,43501,6,0,P|386:139|318:134,1,85,2|0,1:2|0:0,0:0:0:0:
329,203,43685,1,2,0:2:0:0:
0,0,43869,6,0,B|2:145|93:173|116:298|96:60|52:103,1,318.75,10|0,0:2|0:0,0:0:0:0:
91,22,44238,5,2,1:2:0:0:
21,246,44422,1,2,0:2:0:0:
232,177,44607,6,0,P|203:162|172:160,1,63.7500024318696,10|0,0:2|0:0,0:0:0:0:
123,267,44791,2,0,P|128:309|130:351,1,85,2|0,1:2|0:0,0:0:0:0:
277,252,44975,5,2,0:2:0:0:
277,252,45067,2,0,B|377:288|305:294|457:336,1,170
512,61,45344,6,0,B|437:91|430:49|430:49|318:-3|242:198|315:147|326:147|331:180|331:180|339:138|360:114|428:96,1,425,10|2,0:2|0:2,0:0:0:0:
193,359,47187,6,0,P|197:309|195:233,1,110.499994941712,0|10,1:0|0:2,0:0:0:0:
137,196,47740,2,0,P|136:140|140:85,1,110.499994941712,2|0,1:2|1:0,0:0:0:0:
197,30,48293,1,10,0:2:0:0:
350,13,48661,6,0,P|354:63|352:139,1,110.499994941712,2|10,1:2|0:2,0:0:0:0:
353,123,49214,1,2,0:2:0:0:
309,249,49583,1,2,1:2:0:0:
309,249,49767,2,0,P|306:219|307:173,1,55.2499974708558,10|2,0:2|0:2,0:0:0:0:
504,219,50136,6,0,P|448:218|393:222,1,110.499994941712,2|10,1:2|0:2,0:0:0:0:
358,332,50688,2,0,P|302:332|247:328,1,110.499994941712,2|0,1:2|1:0,0:0:0:0:
191,274,51241,1,10,0:2:0:0:
8,116,51610,6,0,P|63:120|118:119,1,110.499994941712,2|8,1:2|0:0,0:0:0:0:
118,119,52163,1,2,0:2:0:0:
262,72,52531,1,0,1:0:0:0:
261,71,52716,2,0,P|226:69|190:71,1,72.2500013780594,10|0,0:2|0:0,0:0:0:0:
64,208,53084,6,0,P|69:267|67:345,1,127.500004863739,2|10,1:2|0:2,0:0:0:0:
136,376,53637,1,2,1:2:0:0:
201,328,53821,1,2,0:2:0:0:
304,384,54006,1,2,1:2:0:0:
397,326,54190,2,0,P|443:324|500:330,1,95.6250036478044,10|0,0:2|0:0,0:0:0:0:
498,329,54559,6,0,P|496:265|501:201,1,127.500004863739,2|10,1:2|0:2,0:0:0:0:
501,201,55112,1,2,0:2:0:0:
435,158,55296,1,0,0:0:0:0:
492,37,55480,1,0,1:0:0:0:
492,37,55664,2,0,P|496:74|491:116,1,63.7500024318696,10|0,0:2|0:0,0:0:0:0:
356,192,56033,6,0,P|292:188|228:191,1,127.500004863739,2|10,1:2|0:2,0:0:0:0:
188,123,56586,2,0,P|124:126|60:123,1,127.500004863739,2|2,1:2|1:2,0:0:0:0:
6,179,57139,1,10,0:2:0:0:
41,250,57323,1,2,0:2:0:0:
270,104,57507,6,0,P|271:72|270:20,1,63.7500024318696,2|2,1:2|0:2,0:0:0:0:
255,191,57876,1,10,0:2:0:0:
242,280,58060,2,0,P|241:312|242:364,1,63.7500024318696,2|0,0:2|0:0,0:0:0:0:
343,163,58429,5,2,1:2:0:0:
414,124,58613,1,10,0:2:0:0:
451,199,58798,1,2,0:2:0:0:
319,370,58982,6,0,B|209:357|280:335|133:314,1,170,2|10,1:2|0:2,0:0:0:0:
57,248,59535,2,0,B|38:267|4:312|93:378|81:349|81:349|64:332|87:312,1,170,2|2,1:2|0:2,0:0:0:0:
222,94,60088,2,0,P|173:165|138:250,1,170,10|2,0:2|0:2,0:0:0:0:
4,0,60825,6,0,P|53:71|79:146,1,159.375,2|0,1:2|0:0,0:0:0:0:
20,197,61193,2,0,B|119:156|53:152|168:123,1,159.375,0|0,1:0|0:0,0:0:0:0:
220,178,61562,1,10,0:2:0:0:
478,50,61931,5,2,1:2:0:0:
416,95,62115,2,0,P|394:90|363:86,1,42.5,2|0,0:2|0:0,0:0:0:0:
321,30,62299,2,0,P|299:35|268:39,1,42.5,10|0,0:2|0:0,0:0:0:0:
359,305,62483,6,0,B|348:290|296:278|313:251|299:223|382:260|364:133,1,170,2|2,1:2|0:2,0:0:0:0:
306,120,63036,1,10,0:2:0:0:
6,346,63589,5,2,1:2:0:0:
83,274,63774,2,0,P|90:254|97:234,1,42.5,10|0,0:2|0:0,0:0:0:0:
129,345,63958,2,0,P|142:362|157:378,1,42.5,10|0,0:2|0:0,0:0:0:0:
84,316,64142,6,0,B|214:279|165:317|305:285,1,212.5,0|10,1:0|0:2,0:0:0:0:
336,352,64695,1,10,0:2:0:0:
481,148,64879,5,2,1:2:0:0:
398,171,65064,2,0,P|402:143|401:75,1,53.125,10|0,0:2|0:0,0:0:0:0:
350,5,65248,2,0,P|346:33|347:101,1,53.125,10|0,0:2|0:0,0:0:0:0:
488,44,65432,6,0,P|420:64|240:163,1,255.000009727478,2|2,1:2|0:2,0:0:0:0:
195,105,65985,1,10,0:2:0:0:
227,37,66169,1,2,0:2:0:0:
0,228,66538,6,0,P|28:238|65:256,1,63.7500024318696,2|0,1:2|0:0,0:0:0:0:
115,73,66722,2,0,P|92:92|58:115,1,63.7500024318696,10|0,0:2|0:0,0:0:0:0:
182,256,66907,2,0,P|176:226|173:185,1,63.7500024318696,10|0,0:2|0:0,0:0:0:0:
94,182,67091,6,0,B|229:181|171:206|289:225,1,191.250007295609,2|0,1:2|0:0,0:0:0:0:
346,180,67460,1,10,0:2:0:0:
313,110,67644,1,10,0:2:0:0:
512,11,67828,5,2,1:2:0:0:
441,39,68012,2,0,P|441:74|430:123,1,70.1250006687641,10|0,0:2|0:0,0:0:0:0:
487,235,68197,2,0,P|487:200|498:151,1,70.1250006687641,10|0,0:2|0:0,0:0:0:0:
308,265,68381,5,2,1:2:0:0:
465,329,68565,1,2,0:2:0:0:
399,256,68750,1,2,0:2:0:0:
238,378,68934,2,0,P|238:343|216:279,1,85,10|2,0:2|0:2,0:0:0:0:
24,45,69671,6,0,P|61:36|113:15,1,74.3750007092953,10|0,0:2|0:0,0:0:0:0:
216,145,69855,2,0,P|253:154|305:175,1,74.3750007092953,10|0,0:2|0:0,0:0:0:0:
512,3,70040,2,0,B|383:36|471:29|379:59|252:86,1,223.125002127886,2|0,1:2|0:0,0:0:0:0:
257,11,70408,5,2,0:2:0:0:
66,193,70777,6,0,P|257:185|448:193,1,382.499988327027,2|2,0:2|0:2,0:0:0:0:
256,341,76674,6,0,P|252:192|258:36,1,305.999990661621,2|2,0:2|0:0,0:0:0:0:
256,192,82572,6,0,B|326:160|397:191|430:306|383:298|356:260,1,216.750004134178,2|0,1:2|0:0,0:0:0:0:
312,326,82940,2,0,P|289:297|306:254,1,72.2500013780594,10|0,0:2|0:0,0:0:0:0:
509,173,83125,6,0,P|484:254|460:361,1,191.250007295609,2|0,1:2|0:0,0:0:0:0:
388,384,83493,5,2,0:2:0:0:
162,202,83677,5,10,0:2:0:0:
162,202,83770,2,0,P|172:170|181:130,1,63.7500024318696
256,192,84046,5,2,0:2:0:0:
0,323,84415,6,0,P|29:302|72:317,1,72.2500013780594,10|0,1:2|0:0,0:0:0:0:
43,384,84599,1,2,0:2:0:0:
281,296,84783,6,0,P|196:260|99:98,1,267.749991828919,0|0,1:0|0:0,0:0:0:0:
30,85,85152,1,2,0:2:0:0:
30,85,85244,1,0,0:0:0:0:
387,21,85521,6,0,B|350:-25|331:-33|352:-6|320:-30|402:111|453:202|311:124,1,255,2|0,1:2|0:0,0:0:0:0:
279,157,85889,2,0,P|270:121|308:87,1,85,10|0,0:2|0:0,0:0:0:0:
499,319,86074,6,0,P|415:288|296:291,1,191.250007295609,2|0,1:2|0:0,0:0:0:0:
254,336,86442,5,2,0:2:0:0:
30,78,86626,5,10,0:2:0:0:
30,78,86719,2,0,P|60:89|110:88,1,63.7500024318696
45,169,86995,5,2,0:2:0:0:
272,5,87179,2,0,P|258:31|252:65,1,63.7500024318696,0|0,1:0|0:0,0:0:0:0:
178,105,87364,6,0,P|171:83|166:49,2,42.5000016212464,10|0|0,0:2|0:0|0:0,0:0:0:0:
262,149,87548,1,2,0:2:0:0:
3,250,87732,6,0,B|102:304|71:246|193:309,1,191.250007295609,0|0,1:0|0:0,0:0:0:0:
247,383,88101,6,0,L|252:349,1,34,10|2,0:2|0:0,0:0:0:0:
425,157,88469,6,0,B|453:71|390:101|361:128|331:179|360:260,1,242.249993531227,2|0,1:2|0:0,0:0:0:0:
371,337,88838,2,0,P|407:334|425:293,1,80.7499978437424,10|0,0:2|0:0,0:0:0:0:
262,126,89022,6,0,B|190:179|113:193|135:170|190:145|190:145|191:127|209:118|162:109,1,191.250007295609,2|0,1:2|0:0,0:0:0:0:
216,61,89391,5,2,0:2:0:0:
496,103,89575,5,10,0:2:0:0:
496,103,89668,2,0,P|514:73|503:42,1,63.7500024318696
424,65,89944,5,2,0:2:0:0:
211,256,90128,6,0,P|242:260|273:268,1,63.7500024318696,0|0,1:0|0:0,0:0:0:0:
376,133,90312,2,0,P|356:158|333:180,1,63.7500024318696,10|0,0:2|0:0,0:0:0:0:
401,340,90497,2,0,P|388:310|380:279,1,63.7500024318696,2|0,0:2|0:0,0:0:0:0:
193,51,90681,6,0,B|163:-53|199:19|303:81|295:140|192:192,1,255,0|0,1:0|0:0,0:0:0:0:
157,194,91049,1,10,0:2:0:0:
157,194,91141,1,0,0:0:0:0:
486,357,91418,6,0,B|507:336|550:279|437:195|452:232|452:232|484:266|452:278,1,216.750004134178,2|0,1:2|0:0,0:0:0:0:
385,278,91786,2,0,P|377:313|399:340,1,72.2500013780594,10|0,0:2|0:0,0:0:0:0:
511,145,91971,6,0,P|414:124|319:40,1,191.250007295609,2|0,1:2|0:0,0:0:0:0:
313,0,92339,1,2,0:2:0:0:
73,131,92523,5,10,0:2:0:0:
73,131,92616,2,0,P|100:115|151:110,1,63.7500024318696
129,193,92892,5,2,0:2:0:0:
495,373,93261,6,0,P|499:340|495:279,1,72.2500013780594,10|0,0:2|0:0,0:0:0:0:
389,239,93445,2,0,P|385:209|393:158,1,59.4999981842042,2|0,0:2|0:0,0:0:0:0:
21,335,94367,6,0,B|52:275|186:254|183:259|114:321,1,170,2|2,1:2|0:0,0:0:0:0:
123,363,94643,1,2,0:2:0:0:
123,363,94735,1,8,0:0:0:0:
298,79,94920,6,0,P|261:175|239:302,1,216.750004134178,2|0,1:2|0:0,0:0:0:0:
274,358,95288,5,2,0:2:0:0:
115,170,95472,5,10,0:2:0:0:
115,170,95565,2,0,P|59:189|-23:200,1,101.999996887207
44,109,95841,5,2,0:2:0:0:
397,214,96210,6,0,P|453:195|520:188,1,89.2499972763062,0|0,1:0|0:0,0:0:0:0:
416,121,96394,1,2,0:2:0:0:
251,353,96579,6,0,B|239:331|168:333|182:214|238:299|255:326|303:230|286:192|309:159|281:111|266:92,1,305.999990661621,0|0,1:0|0:0,0:0:0:0:
253,29,96947,2,0,L|254:7,1,17,2|2,0:2|0:2,0:0:0:0:
25,154,97315,6,0,B|10:152|-8:83|128:47|124:100|124:100|173:122,1,170,2|2,1:2|0:0,0:0:0:0:
105,181,97592,1,2,0:2:0:0:
105,181,97684,1,8,0:0:0:0:
274,282,97868,6,0,B|121:311|235:338|93:372|61:384,1,229.499992996216,2|0,1:2|0:0,0:0:0:0:
23,318,98237,5,2,0:2:0:0:
215,139,98421,2,0,P|199:174|190:210,1,76.4999976654053,10|0,0:2|0:0,0:0:0:0:
141,93,98606,5,2,0:2:0:0:
141,93,98790,2,0,P|139:77|129:51,1,31.8750012159348,2|0,0:2|0:0,0:0:0:0:
295,197,98974,6,0,P|335:176|390:155,1,93.5000028533936,0|2,1:0|0:2,0:0:0:0:
183,375,99159,6,0,P|162:366|137:360,2,42.5000016212464,8|0|0,0:0|0:0|0:0,0:0:0:0:
186,291,99343,1,2,0:2:0:0:
474,162,99527,6,0,B|484:236|385:451|374:353|359:303|473:238|416:203,1,318.75,0|0,1:0|0:0,0:0:0:0:
394,162,99896,5,10,0:2:0:0:
295,373,100080,2,0,P|281:347|273:288,1,85,2|0,0:2|0:0,0:0:0:0:
248,31,100264,5,2,1:2:0:0:
312,212,100449,1,2,0:2:0:0:
179,135,100633,6,0,P|222:140|252:155,1,63.7500024318696,10|0,0:2|0:0,0:0:0:0:
457,0,100817,2,0,P|361:52|339:108,1,170,2|2,1:2|0:2,0:0:0:0:
394,162,101094,1,0,0:0:0:0:
394,162,101186,1,2,0:2:0:0:
143,370,101370,6,0,P|117:223|66:56,1,293.2500055933,10|0,0:2|0:0,0:0:0:0:
5,50,101739,5,2,0:2:0:0:
268,4,101923,2,0,P|251:40|249:83,1,85,2|0,1:2|0:0,0:0:0:0:
302,158,102107,5,10,0:2:0:0:
302,158,102199,2,0,B|301:180|294:234|188:218|216:206|216:206|252:205|241:182,1,170
24,249,102476,6,0,P|74:254|135:293,1,85,2|0,1:2|0:0,0:0:0:0:
49,329,102660,1,2,0:2:0:0:
363,2,102845,6,0,P|389:149|446:335,1,318.75,10|0,0:2|0:0,0:0:0:0:
512,338,103214,5,2,1:2:0:0:
203,256,103397,1,2,0:2:0:0:
324,366,103582,6,0,P|340:347|335:277,1,63.7500024318696,10|0,0:2|0:0,0:0:0:0:
162,132,103766,2,0,P|124:150|60:159,1,85,2|0,1:2|0:0,0:0:0:0:
382,225,103950,5,2,0:2:0:0:
382,225,104043,2,0,B|477:159|417:167|530:102,1,170
289,38,104319,6,0,B|293:25|272:13|272:13|248:23|199:177|247:334|247:334|252:302|281:276,1,425,10|2,0:2|0:2,0:0:0:0:
256,192,106162,5,2,0:2:0:0:
