osu file format v14

[General]
AudioFilename: audio.mp3
AudioLeadIn: 0
PreviewTime: 70685
Countdown: 0
SampleSet: Soft
StackLeniency: 0.3
Mode: 0
LetterboxInBreaks: 0
WidescreenStoryboard: 1

[Editor]
Bookmarks: 62,11857,22177,23652,26877,35447,45767,47242,53139,59037,64934,70832,81153,82627,94422,104743,106217
DistanceSpacing: 2
BeatDivisor: 4
GridSize: 32
TimelineZoom: 2.2

[Metadata]
Title:split my brain
TitleUnicode:split my brain
Artist:moodyriley
ArtistUnicode:moodyriley
Creator:Mimari
Version:azinlen's insane
Source:
Tags:hyperpop pop english i love ganyu azinlen thenexus amats
BeatmapID:3480953
BeatmapSetID:1699099

[Difficulty]
HPDrainRate:4.5
CircleSize:3.4
OverallDifficulty:7.4
ApproachRate:8.6
SliderMultiplier:1.6
SliderTickRate:1

[Events]
//Background and Video events
0,0,"Untitled.jpg",0,0
//Break Periods
//Storyboard Layer 0 (Background)
//Storyboard Layer 1 (Fail)
//Storyboard Layer 2 (Pass)
//Storyboard Layer 3 (Foreground)
//Storyboard Layer 4 (Overlay)
//Storyboard Sound Samples

[TimingPoints]
7,368.595650571323,4,2,1,70,1,0
15488,-83.3333333333333,4,2,1,70,0,0
16225,-100,4,2,1,70,0,0
16962,-83.3333333333333,4,2,1,70,0,0
17699,-100,4,2,1,70,0,0
23597,-66.6666666666667,4,2,2,100,0,0
25071,-125,4,2,2,100,0,0
25440,-66.6666666666667,4,2,2,100,0,0
26177,-125,4,2,2,100,0,0
26545,-66.6666666666667,4,2,2,100,0,0
26730,-66.6666666666667,4,2,3,100,0,0
26914,-66.6666666666667,4,2,2,100,0,0
27098,-125,4,2,2,100,0,0
27467,-66.6666666666667,4,2,2,100,0,0
28573,-66.6666666666667,4,2,3,100,0,0
28757,-66.6666666666667,4,2,2,100,0,0
29310,-66.6666666666667,4,2,3,100,0,0
29494,-66.6666666666667,4,2,2,100,0,0
29678,-66.6666666666667,4,2,3,100,0,0
29863,-125,4,2,2,100,0,0
30047,-66.6666666666667,4,2,2,100,0,0
30969,-125,4,2,2,100,0,0
31153,-66.6666666666667,4,2,2,100,0,0
31521,-66.6666666666667,4,2,3,100,0,0
31706,-66.6666666666667,4,2,2,100,0,0
32074,-125,4,2,2,100,0,0
32259,-125,4,2,3,100,0,0
32443,-66.6666666666667,4,2,2,100,0,0
32627,-66.6666666666667,4,2,3,100,0,0
32812,-66.6666666666667,4,2,2,100,0,0
33549,-125,4,2,2,100,0,0
34286,-66.6666666666667,4,2,2,100,0,0
34470,-66.6666666666667,4,2,3,100,0,0
34562,-66.6666666666667,4,2,2,100,0,0
34839,-66.6666666666667,4,2,2,80,0,0
35023,-66.6666666666667,4,2,3,80,0,0
35207,-66.6666666666667,4,2,3,90,0,0
35392,-66.6666666666667,4,2,2,100,0,0
35576,-66.6666666666667,4,2,3,100,0,0
35668,-66.6666666666667,4,2,2,100,0,0
36866,-125,4,2,2,100,0,0
37235,-66.6666666666667,4,2,2,100,0,0
38525,-66.6666666666667,4,2,3,100,0,0
38617,-66.6666666666667,4,2,2,100,0,0
39446,-125,4,2,2,100,0,0
40183,-66.6666666666667,4,2,2,100,0,0
40368,-66.6666666666667,4,2,3,100,0,0
40552,-66.6666666666667,4,2,2,100,0,0
41105,-66.6666666666667,4,2,3,100,0,0
41289,-66.6666666666667,4,2,2,100,0,0
41474,-66.6666666666667,4,2,3,100,0,0
41658,-66.6666666666667,4,2,2,100,0,0
42395,-125,4,2,2,100,0,0
43316,-125,4,2,3,100,0,0
43501,-66.6666666666667,4,2,2,100,0,0
44054,-66.6666666666667,4,2,3,100,0,0
44238,-66.6666666666667,4,2,2,100,0,0
44422,-66.6666666666667,4,2,3,100,0,0
44607,-66.6666666666667,4,2,2,100,0,0
45344,-125,4,2,2,100,0,0
47187,-100,4,2,1,80,0,0
58982,-100,4,2,2,90,0,0
70777,-200,4,2,2,60,0,0
81098,-200,4,2,3,60,0,0
82572,-66.6666666666667,4,2,2,100,0,0
84046,-125,4,2,2,100,0,0
84415,-66.6666666666667,4,2,2,100,0,0
85152,-125,4,2,2,100,0,0
85521,-66.6666666666667,4,2,2,100,0,0
85705,-66.6666666666667,4,2,3,100,0,0
85797,-66.6666666666667,4,2,2,100,0,0
87548,-66.6666666666667,4,2,3,100,0,0
87640,-66.6666666666667,4,2,2,100,0,0
88101,-125,4,2,2,100,0,0
88285,-125,4,2,3,100,0,0
88377,-125,4,2,2,100,0,0
88469,-66.6666666666667,4,2,2,100,0,0
88654,-66.6666666666667,4,2,3,100,0,0
88746,-66.6666666666667,4,2,2,100,0,0
90497,-66.6666666666667,4,2,3,100,0,0
90589,-66.6666666666667,4,2,2,100,0,0
91050,-125,4,2,2,100,0,0
91234,-125,4,2,3,100,0,0
91326,-125,4,2,2,100,0,0
91418,-66.6666666666667,4,2,2,100,0,0
91603,-66.6666666666667,4,2,3,100,0,0
91695,-66.6666666666667,4,2,2,100,0,0
92893,-125,4,2,2,100,0,0
93261,-66.6666666666667,4,2,2,100,0,0
93445,-66.6666666666667,4,2,3,100,0,0
93538,-66.6666666666667,4,2,2,100,0,0
94551,-66.6666666666667,4,2,3,100,0,0
94643,-66.6666666666667,4,2,2,100,0,0
95841,-125,4,2,2,100,0,0
97316,-66.6666666666667,4,2,2,100,0,0
97500,-66.6666666666667,4,2,3,100,0,0
97592,-66.6666666666667,4,2,2,100,0,0
99343,-66.6666666666667,4,2,3,100,0,0
99435,-66.6666666666667,4,2,2,100,0,0
100080,-66.6666666666667,4,2,3,100,0,0
100172,-66.6666666666667,4,2,2,100,0,0
100449,-66.6666666666667,4,2,3,100,0,0
100541,-66.6666666666667,4,2,2,100,0,0
101370,-125,4,2,2,100,0,0
101739,-66.6666666666667,4,2,2,100,0,0
102292,-66.6666666666667,4,2,3,100,0,0
102384,-66.6666666666667,4,2,2,100,0,0
102845,-125,4,2,2,100,0,0
103029,-125,4,2,3,100,0,0
103121,-125,4,2,2,100,0,0
103213,-66.6666666666667,4,2,2,100,0,0
103398,-66.6666666666667,4,2,3,100,0,0
103490,-66.6666666666667,4,2,2,100,0,0
104688,-66.6666666666667,4,2,2,60,0,0
106162,-66.6666666666667,4,2,2,50,0,0

[Colours]
Combo1 : 225,225,225
Combo2 : 186,196,218
Combo3 : 157,187,153

[HitObjects]
56,64,7,6,0,B|181:61|200:143|93:254|240:331|233:326,1,320,2|2,0:2|0:2,0:0:0:0:
456,64,1481,2,0,B|331:61|312:143|419:254|272:331|279:326,1,320,2|2,0:2|0:2,0:0:0:0:
32,304,2955,6,0,B|-75:249|31:135|143:156|212:260|211:261,1,320,2|0,0:2|0:0,0:0:0:0:
480,304,4430,2,0,B|587:249|481:135|369:156|300:260|301:261,1,320,0|2,0:0|0:2,0:0:0:0:
293,368,5904,6,0,P|309:246|358:36,1,320,2|2,0:2|0:2,0:0:0:0:
219,368,7378,6,0,P|203:246|154:36,1,320,2|2,0:2|0:2,0:0:0:0:
323,101,8853,6,0,B|449:203|575:92|498:8|412:29,1,320,2|2,0:2|0:2,0:0:0:0:
189,101,10327,2,0,B|63:203|-63:92|14:8|100:29,1,320
346,176,11802,6,0,P|331:247|310:346,1,160,0|2,1:0|0:2,0:0:0:0:
265,150,12539,2,0,P|250:221|229:320,1,160,2|2,1:2|0:2,0:0:0:0:
11,78,13276,6,0,P|26:149|47:248,1,160,2|0,1:2|0:0,0:0:0:0:
92,52,14013,2,0,P|107:123|128:222,1,160,0|2,1:0|0:2,0:0:0:0:
487,105,14750,6,0,P|390:73|385:18,1,160,0|2,1:0|0:2,0:0:0:0:
438,197,15488,2,0,P|341:160|303:73,1,191.999994140625,0|2,1:0|0:2,0:0:0:0:
35,245,16225,6,0,P|132:213|137:158,1,160,2|0,1:2|0:0,0:0:0:0:
84,337,16963,2,0,P|181:300|219:213,1,191.999994140625,0|2,1:0|0:2,0:0:0:0:
359,269,17699,6,0,P|290:271|271:298,1,80,2|2,1:2|0:2,0:0:0:0:
484,324,18068,2,0,P|448:340|410:330,1,80,2|2,1:2|0:2,0:0:0:0:
365,195,18436,6,0,P|363:264|336:283,1,80,2|0,1:2|0:0,0:0:0:0:
309,69,18805,2,0,P|292:104|302:142,1,80,2|2,1:2|0:2,0:0:0:0:
383,63,19173,6,0,P|314:65|295:92,1,80,0|0,1:0|0:0,0:0:0:0:
509,119,19542,2,0,P|473:135|435:125,1,80,2|2,1:2|0:2,0:0:0:0:
503,46,19911,6,0,P|519:81|509:119,1,80,0|2,1:0|0:2,0:0:0:0:
483,323,20279,2,0,P|473:285|490:250,1,80,2|2,1:2|0:2,0:0:0:0:
358,268,20648,6,0,P|322:251|284:261,1,80,2|2,1:2|0:2,0:0:0:0:
159,327,21016,2,0,P|196:337|232:320,1,80,2|2,1:2|0:2,0:0:0:0:
11,174,21385,6,0,P|-5:209|4:247,1,80,0|2,1:0|0:2,0:0:0:0:
70,373,21753,2,0,P|80:335|63:299,1,80,2|2,1:2|0:2,0:0:0:0:
174,129,22122,5,2,0:0:0:0:
53,64,22491,5,2,0:2:0:0:
263,29,22859,5,2,0:0:0:0:
342,271,23228,5,2,0:2:0:0:
342,271,23412,1,2,0:0:0:0:
324,254,23597,6,0,B|310:226|285:214|285:214|411:195|411:195|450:229|410:280,1,240.000009155274,2|10,1:2|0:2,0:0:0:0:
255,330,24150,2,0,P|179:351|70:389,1,180.000006866455,2|0,1:2|0:0,0:0:0:0:
103,216,24518,6,0,P|148:228|126:260,1,60.0000022888184,2|0,0:2|0:0,0:0:0:0:
102,293,24702,1,10,0:2:0:0:
3,171,24887,1,2,0:2:0:0:
136,56,25071,6,0,P|200:83|199:117,1,96,2|0,0:2|0:0,0:0:0:0:
376,31,25440,6,0,P|303:67|282:172,1,180.000006866455,10|0,1:2|0:0,0:0:0:0:
334,218,25808,6,0,B|361:212|361:212|369:205|369:205|427:197,1,60.0000022888184,0|0,1:0|0:0,0:0:0:0:
444,145,25992,2,0,B|465:147|465:147|473:154|473:154|500:160,1,60.0000022888184
422,349,26177,6,0,P|402:290|437:272,1,96,2|0,0:2|0:0,0:0:0:0:
494,243,26545,5,2,1:2:0:0:
422,349,26730,1,2,0:0:0:0:
274,233,26914,1,10,0:2:0:0:
194,297,27099,2,0,L|87:283,1,96,2|0,1:2|0:0,0:0:0:0:
20,283,27467,1,2,0:2:0:0:
169,189,27651,6,0,L|180:249,1,60.0000022888184,10|0,0:2|0:0,0:0:0:0:
194,297,27835,1,2,0:2:0:0:
266,106,28020,6,0,P|232:103|204:140,1,60.0000022888184,2|0,0:2|0:0,0:0:0:0:
175,13,28204,2,0,P|154:22|172:65,1,60.0000022888184,0|0,1:0|0:0,0:0:0:0:
95,140,28388,2,0,P|89:119|81:101,4,30.0000011444092,10|0|0|0|2,0:2|0:0|0:0|0:0|0:2,0:0:0:0:
278,299,28757,6,0,P|245:211|151:193,1,180.000006866455,0|0,1:0|0:0,0:0:0:0:
358,137,29126,6,0,P|338:167|361:220,1,60.0000022888184,10|0,0:2|0:0,0:0:0:0:
381,255,29310,1,2,0:0:0:0:
345,52,29494,6,0,P|251:50|222:163,1,180.000006866455,2|0,1:2|0:0,0:0:0:0:
218,201,29863,6,0,L|206:259,1,32,10|0,0:2|0:0,0:0:0:0:
70,367,30047,6,0,B|20:342|20:342|67:265|162:271|212:329,1,240.000009155274,2|2,1:2|0:2,0:0:0:0:
311,363,30600,6,0,P|275:362|280:308,1,60.0000022888184,10|0,0:2|0:0,0:0:0:0:
386,312,30784,1,2,0:2:0:0:
323,197,30969,6,0,L|316:228,1,32,2|0,0:2|0:0,0:0:0:0:
386,145,31153,1,0,1:0:0:0:
276,41,31337,6,0,P|228:51|215:83,1,60.0000022888184,10|0,0:2|0:0,0:0:0:0:
106,101,31521,2,0,P|154:111|167:143,1,60.0000022888184,2|0,0:2|0:0,0:0:0:0:
224,313,31706,6,0,P|202:169|177:97,1,180.000006866455,0|0,1:0|0:0,0:0:0:0:
346,4,32074,6,0,P|361:6|360:29,1,32,10|0,0:2|0:0,0:0:0:0:
295,57,32259,2,0,P|280:55|281:32,1,32,2|0,0:2|0:0,0:0:0:0:
435,237,32443,6,0,B|523:183|519:54|406:88|387:173,1,240.000009155274,2|10,1:2|0:2,0:0:0:0:
341,263,32996,6,0,B|237:260|176:146|291:119|350:183,1,240.000009155274,2|2,1:2|0:2,0:0:0:0:
444,275,33549,5,10,0:2:0:0:
453,289,33641,2,0,L|445:346,1,32,0|2,0:0|0:2,0:0:0:0:
386,372,33917,6,0,P|343:353|285:377,1,96,2|0,0:2|0:0,0:0:0:0:
68,220,34286,6,0,P|123:222|144:260,1,60.0000022888184,10|0,0:2|0:0,0:0:0:0:
183,271,34470,2,0,P|208:320|175:378,1,120.000004577637,2|0,0:2|0:0,0:0:0:0:
176,384,35392,6,0,B|190:356|215:344|215:344|89:325|89:325|50:359|90:410,1,240.000009155274,2|8,1:2|0:0,0:0:0:0:
283,267,35945,2,0,P|278:187|237:172,1,120.000004577637,2|0,1:2|0:0,0:0:0:0:
101,110,36313,6,0,L|110:172,1,60.0000022888184,2|0,0:2|0:0,0:0:0:0:
171,217,36497,1,10,0:2:0:0:
240,42,36682,1,2,0:2:0:0:
85,84,36866,6,0,P|154:92|177:121,1,96,2|2,0:2|0:2,0:0:0:0:
331,44,37235,6,0,P|258:83|266:197,1,180.000006866455,0|0,1:0|0:0,0:0:0:0:
371,202,37603,6,0,L|387:127,1,60.0000022888184,0|0,1:0|0:0,0:0:0:0:
347,73,37788,1,0,0:0:0:0:
314,270,37972,6,0,B|443:244|443:244|429:273|437:298,1,180.000006866455,10|0,0:2|0:0,0:0:0:0:
503,372,38340,6,0,P|517:344|506:306,1,60.0000022888184,2|0,1:2|0:0,0:0:0:0:
437,302,38525,2,0,P|423:328|427:357,1,60.0000022888184,2|2,0:0|0:2,0:0:0:0:
511,201,38709,5,8,0:0:0:0:
347,73,38893,2,0,P|255:131|265:192,1,180.000006866455,2|0,1:2|0:0,0:0:0:0:
361,223,39262,6,0,L|373:150,1,60.0000022888184,2|0,0:2|0:0,0:0:0:0:
400,11,39446,2,0,P|431:44|426:90,1,96,10|0,0:2|0:0,0:0:0:0:
347,73,39815,5,2,0:2:0:0:
250,31,39999,2,0,L|262:78,1,32,0|2,1:0|0:2,0:0:0:0:
207,138,40183,1,8,0:0:0:0:
207,138,40276,1,0,0:0:0:0:
207,138,40368,2,0,L|121:128,1,60.0000022888184,2|0,0:2|0:0,0:0:0:0:
23,24,40552,6,0,P|73:80|53:124,1,120.000004577637,0|0,1:0|0:0,0:0:0:0:
184,231,40921,2,0,L|38:214,1,120.000004577637,10|2,0:2|0:2,0:0:0:0:
201,321,41289,6,0,B|303:332|258:238|361:242,1,180.000006866455,2|0,1:2|0:0,0:0:0:0:
491,347,41658,2,0,P|462:338|442:315,1,60.0000022888184,10|0,0:2|0:0,0:0:0:0:
433,165,41842,2,0,P|470:220|432:299,2,120.000004577637,2|2|2,1:2|0:2|0:2,0:0:0:0:
327,65,42395,6,0,L|339:162,1,96,10|0,0:2|0:0,0:0:0:0:
350,241,42764,1,2,0:2:0:0:
261,199,42948,6,0,L|207:212,1,32,2|0,1:2|0:0,0:0:0:0:
152,226,43132,1,10,1:2:0:0:
70,163,43316,5,2,0:2:0:0:
173,60,43501,2,0,L|158:118,1,60.0000022888184,2|0,1:2|0:0,0:0:0:0:
63,0,43685,2,0,L|77:58,1,60.0000022888184,2|0,0:2|0:0,0:0:0:0:
12,102,43869,1,10,0:2:0:0:
12,102,44054,1,2,0:0:0:0:
147,245,44238,6,0,B|160:205|160:205|61:184|32:260,1,180.000006866455,2|0,1:2|0:0,0:0:0:0:
177,338,44607,2,0,L|259:317,1,60.0000022888184,10|0,0:2|0:0,0:0:0:0:
341,365,44791,2,0,P|271:323|279:275,2,120.000004577637,2|2|2,1:2|0:2|0:2,0:0:0:0:
455,257,45344,6,0,P|386:265|380:299,1,96,10|0,0:2|0:0,0:0:0:0:
379,280,47187,6,0,L|370:139,1,120,0|0,1:0|0:0,0:0:0:0:
425,107,47555,1,10,0:2:0:0:
354,38,47740,2,0,B|315:18|315:18|272:34,1,80,2|2,1:2|0:2,0:0:0:0:
202,94,48108,1,0,1:0:0:0:
103,8,48293,2,0,B|123:47|123:47|110:80,1,80,10|2,0:2|0:2,0:0:0:0:
0,203,48661,6,0,L|162:169,1,160,2|10,1:2|0:2,0:0:0:0:
156,170,49583,1,2,1:2:0:0:
224,248,49767,2,0,B|236:281|236:281|216:320,1,80,10|2,0:2|0:2,0:0:0:0:
285,378,50136,6,0,L|123:344,1,160,2|10,1:2|0:2,0:0:0:0:
230,219,50688,2,0,L|392:185,1,160,2|0,1:2|1:0,0:0:0:0:
420,39,51241,2,0,B|403:79|403:79|436:133,1,80,10|2,0:2|0:2,0:0:0:0:
465,296,51610,6,0,L|497:139,1,160,2|8,1:2|0:0,0:0:0:0:
497,139,52531,1,0,1:0:0:0:
420,39,52716,2,0,B|380:22|380:22|326:55,1,80,10|0,0:2|0:0,0:0:0:0:
281,111,53084,6,0,L|117:94,1,160,2|10,1:2|0:2,0:0:0:0:
23,82,53637,1,2,1:2:0:0:
23,82,53821,1,2,0:2:0:0:
94,14,54006,1,2,1:2:0:0:
62,165,54190,2,0,L|84:270,1,80,10|2,0:2|0:2,0:0:0:0:
154,352,54559,6,0,L|171:188,1,160,2|10,1:2|0:2,0:0:0:0:
250,134,55112,1,2,0:2:0:0:
321,214,55296,1,0,0:0:0:0:
321,214,55480,1,0,1:0:0:0:
391,146,55664,2,0,L|374:67,1,80,10|0,0:2|0:0,0:0:0:0:
496,36,56033,6,0,B|385:17|385:17|331:60,1,160,2|10,1:2|0:2,0:0:0:0:
485,203,56586,2,0,L|501:124,1,80,2|0,1:2|0:0,0:0:0:0:
404,258,56955,1,2,1:2:0:0:
321,214,57139,2,0,L|304:135,1,80,10|2,0:2|0:2,0:0:0:0:
403,294,57507,6,0,B|292:313|292:313|238:270,1,160,2|10,1:2|0:2,0:0:0:0:
187,209,58060,1,2,0:2:0:0:
85,353,58245,2,0,L|101:274,1,80,0|2,0:0|1:2,0:0:0:0:
2,203,58613,2,0,B|44:209|44:209|80:182,1,80,10|2,0:2|0:2,0:0:0:0:
212,91,58982,6,0,P|168:68|86:112,1,120,2|0,1:2|0:0,0:0:0:0:
68,156,59350,1,10,0:2:0:0:
240,194,59535,6,0,L|278:23,1,160,2|2,1:2|0:2,0:0:0:0:
411,9,60088,2,0,P|409:63|386:90,1,80,10|2,0:2|0:2,0:0:0:0:
512,188,60456,6,0,P|461:155|405:170,1,120,2|0,0:2|0:0,0:0:0:0:
373,237,60825,2,0,P|357:259|388:237,1,120,2|0,1:2|0:0,0:0:0:0:
260,152,61193,6,0,B|283:203|283:203|251:265,1,120,0|0,1:0|0:0,0:0:0:0:
173,257,61562,2,0,B|150:206|150:206|179:149,1,120,10|0,0:2|0:0,0:0:0:0:
227,73,61931,5,2,1:2:0:0:
139,33,62115,1,2,0:2:0:0:
75,108,62299,1,10,0:2:0:0:
5,25,62483,2,0,B|41:64|41:64|18:168,1,160,2|2,1:2|0:2,0:0:0:0:
173,257,63036,2,0,B|69:234|69:234|23:276,1,160,10|2,0:2|0:2,0:0:0:0:
84,353,63589,6,0,L|99:302,1,40,2|0,1:2|0:0,0:0:0:0:
162,266,63774,1,10,0:2:0:0:
211,377,63958,1,10,0:2:0:0:
289,284,64142,2,0,L|304:187,1,80,0|2,1:0|0:2,0:0:0:0:
406,120,64511,6,0,L|414:176,1,40,10|0,0:2|0:0,0:0:0:0:
322,54,64695,2,0,L|314:110,1,40,10|0,0:2|0:0,0:0:0:0:
243,146,64879,6,0,P|188:164|130:111,1,120,2|0,1:2|0:0,0:0:0:0:
179,64,65248,1,10,0:2:0:0:
35,36,65432,6,0,L|69:217,1,160,2|2,1:2|0:2,0:0:0:0:
32,368,65985,2,0,P|-18:336|21:254,1,160,10|2,0:2|0:2,0:0:0:0:
158,213,66538,5,2,1:2:0:0:
96,281,66722,2,0,L|124:381,1,80,10|10,0:2|0:2,0:0:0:0:
210,383,67091,2,0,P|282:360|287:285,1,160,2|10,1:2|0:2,0:0:0:0:
287,285,67644,1,10,0:2:0:0:
245,204,67828,5,2,1:2:0:0:
338,147,68012,1,10,0:2:0:0:
262,83,68197,1,10,0:2:0:0:
346,32,68381,2,0,P|403:26|456:116,1,160,2|2,1:2|0:2,0:0:0:0:
508,201,68934,2,0,P|451:195|398:285,1,160,10|2,0:2|0:2,0:0:0:0:
396,271,69671,6,0,L|447:278,1,40,10|0,0:2|0:0,0:0:0:0:
287,341,69855,2,0,L|326:335,1,40,10|0,0:2|0:0,0:0:0:0:
234,246,70040,2,0,B|127:220|127:220|62:254,1,160,2|2,1:2|0:2,0:0:0:0:
82,243,70777,6,0,B|75:339|-106:339|-110:56|99:128|227:242|274:77|222:-27|121:-43|23:0|59:88,1,640,2|2,0:2|0:2,0:0:0:0:
53,84,76674,6,0,B|179:59|324:152|288:384|186:383|-59:392|-71:39|178:-4|308:215|404:212|466:167|495:71|426:-52|307:-17|287:64,1,960,2|2,0:2|0:0,0:0:0:0:
379,220,81466,5,2,0:0:0:0:
458,82,81835,5,2,0:0:0:0:
279,221,82203,5,2,0:2:0:0:
279,221,82388,1,2,0:0:0:0:
268,199,82572,6,0,B|254:171|229:159|229:159|355:140|355:140|394:174|354:225,1,240.000009155274,2|10,1:2|0:2,0:0:0:0:
256,308,83125,2,0,P|182:287|77:274,1,180.000006866455,2|0,1:2|0:0,0:0:0:0:
66,156,83493,6,0,P|104:178|100:222,1,60.0000022888184,2|0,0:2|0:0,0:0:0:0:
62,258,83678,1,10,0:2:0:0:
62,258,83862,1,2,0:2:0:0:
0,100,84046,6,0,P|47:101|84:68,1,96,2|0,0:2|0:0,0:0:0:0:
145,16,84415,5,10,1:2:0:0:
47,0,84599,1,2,0:2:0:0:
162,99,84783,5,0,1:0:0:0:
314,44,84968,1,0,0:0:0:0:
248,211,85152,6,0,P|234:146|269:126,1,96,2|0,0:2|0:0,0:0:0:0:
318,81,85521,5,2,1:2:0:0:
420,185,85705,2,0,L|360:195,1,60.0000022888184,2|0,0:0|0:0,0:0:0:0:
264,211,85889,1,10,0:2:0:0:
353,300,86074,2,0,B|395:331|452:298|421:268|478:243|514:270,1,180.000006866455,2|0,1:2|0:0,0:0:0:0:
512,269,86442,5,2,0:2:0:0:
420,185,86626,1,10,0:2:0:0:
478,116,86811,1,2,0:2:0:0:
340,11,86995,5,2,0:2:0:0:
363,87,87179,1,0,1:0:0:0:
434,32,87364,2,0,L|438:-6,4,30.0000011444092,10|0|0|0|2,0:2|0:0|0:0|0:0|0:2,0:0:0:0:
420,185,87732,6,0,B|378:216|321:183|352:153|295:128|259:155,1,180.000006866455,0|0,1:0|0:0,0:0:0:0:
212,215,88101,6,0,P|208:237|225:261,1,32,10|0,0:2|0:0,0:0:0:0:
286,258,88285,2,0,P|289:242|284:227,1,32,2|0,0:0|0:0,0:0:0:0:
142,139,88469,6,0,B|128:111|103:99|103:99|229:80|229:80|268:114|228:165,1,240.000009155274,2|10,1:2|0:2,0:0:0:0:
83,283,89022,2,0,P|48:210|77:170,1,120.000004577637,2|0,1:2|0:0,0:0:0:0:
210,245,89391,2,0,L|191:327,1,60.0000022888184,2|0,0:2|0:0,0:0:0:0:
130,361,89575,6,0,B|172:392|229:359|198:329|255:304|291:331,1,180.000006866455,10|0,0:2|0:0,0:0:0:0:
385,368,89944,6,0,P|367:314|393:280,1,60.0000022888184,2|0,0:2|0:0,0:0:0:0:
394,242,90128,2,0,P|409:216|436:204,1,60.0000022888184,0|0,1:0|0:0,0:0:0:0:
494,148,90312,5,10,0:2:0:0:
353,58,90497,1,2,0:2:0:0:
390,133,90681,5,0,1:0:0:0:
454,18,90865,1,0,0:0:0:0:
246,8,91050,6,0,L|252:63,1,32,10|0,0:2|0:0,0:0:0:0:
263,114,91234,2,0,L|269:169,1,32,2|0,0:2|0:0,0:0:0:0:
276,228,91418,6,0,B|140:204|140:204|154:230|149:255,1,180.000006866455,2|0,1:2|0:0,0:0:0:0:
101,308,91787,1,10,0:2:0:0:
218,356,91971,6,0,P|279:289|367:302,1,180.000006866455,2|0,1:2|0:0,0:0:0:0:
424,349,92340,1,2,0:2:0:0:
481,197,92524,1,10,0:2:0:0:
390,155,92708,1,2,0:2:0:0:
493,278,92893,6,0,L|506:373,1,96,2|0,0:2|0:0,0:0:0:0:
506,373,93261,1,10,0:2:0:0:
408,236,93445,1,2,0:2:0:0:
408,236,94367,6,0,L|422:136,1,60.0000022888184,2|0,1:2|0:0,0:0:0:0:
369,118,94551,1,2,0:0:0:0:
483,51,94736,1,8,0:0:0:0:
480,287,94920,2,0,B|438:318|381:285|412:255|355:230|319:257,1,180.000006866455,2|0,1:2|0:0,0:0:0:0:
256,301,95288,5,2,0:2:0:0:
165,351,95473,1,10,0:2:0:0:
205,234,95657,1,2,0:2:0:0:
315,363,95841,6,0,L|409:346,1,96,2|2,0:2|0:2,0:0:0:0:
480,287,96210,6,0,L|490:237,1,32,0|0,1:0|0:0,0:0:0:0:
427,207,96394,2,0,L|417:157,1,32,2|0,0:2|0:0,0:0:0:0:
467,113,96579,1,0,1:0:0:0:
467,113,96763,1,0,0:0:0:0:
336,35,96947,6,0,P|288:15|255:40,1,96,2|0,0:2|0:0,0:0:0:0:
178,133,97316,6,0,B|164:105|139:93|139:93|265:74|265:74|304:108|264:159,1,240.000009155274,2|8,1:2|0:0,0:0:0:0:
211,232,97869,2,0,B|169:263|112:230|143:200|86:175|50:202,1,180.000006866455,2|0,1:2|0:0,0:0:0:0:
1,262,98237,1,2,0:2:0:0:
139,360,98422,6,0,P|195:290|284:312,1,180.000006866455,10|0,0:2|0:0,0:0:0:0:
332,356,98790,1,2,0:2:0:0:
473,282,98974,1,0,1:0:0:0:
356,226,99159,2,0,L|362:178,4,30.0000011444092,8|0|0|0|2,0:0|0:0|0:0|0:0|0:2,0:0:0:0:
427,365,99527,5,0,1:0:0:0:
456,192,99712,1,0,0:0:0:0:
315,63,99896,6,0,L|331:129,1,60.0000022888184,10|0,0:2|0:0,0:0:0:0:
359,196,100080,1,2,0:2:0:0:
401,6,100265,5,2,1:2:0:0:
401,6,100449,1,2,0:2:0:0:
290,67,100633,5,10,0:2:0:0:
166,18,100817,1,2,1:2:0:0:
237,192,101002,5,2,0:2:0:0:
206,103,101186,1,2,0:2:0:0:
77,162,101370,6,0,P|122:177|141:235,1,96,10|0,0:2|0:0,0:0:0:0:
110,291,101739,5,2,0:2:0:0:
34,318,101923,1,2,1:2:0:0:
172,351,102107,6,0,L|236:335,1,60.0000022888184,10|0,0:2|0:0,0:0:0:0:
282,278,102292,2,0,L|340:292,1,60.0000022888184,2|0,0:2|0:0,0:0:0:0:
419,314,102476,5,2,1:2:0:0:
490,250,102660,1,2,0:2:0:0:
414,192,102845,2,0,P|396:157|426:98,1,96,10|0,0:2|0:0,0:0:0:0:
478,50,103213,5,2,1:2:0:0:
324,89,103398,1,2,0:2:0:0:
376,11,103582,5,10,0:2:0:0:
414,106,103766,1,2,1:2:0:0:
282,180,103950,5,2,0:2:0:0:
324,89,104134,1,2,0:2:0:0:
199,31,104319,1,10,0:2:0:0:
