osu file format v14

[General]
AudioFilename: audio.mp3
AudioLeadIn: 0
PreviewTime: 70685
Countdown: 0
SampleSet: Soft
StackLeniency: 0.7
Mode: 0
LetterboxInBreaks: 0
WidescreenStoryboard: 1

[Editor]
Bookmarks: 62,11857,22177,23652,35447,45767,47242,53139,59037,64934,70832,81153,82627,94422,104743,106217
DistanceSpacing: 2
BeatDivisor: 4
GridSize: 4
TimelineZoom: 1

[Metadata]
Title:split my brain
TitleUnicode:split my brain
Artist:moodyriley
ArtistUnicode:moodyriley
Creator:Mimari
Version:normal
Source:
Tags:hyperpop pop english i love ganyu azinlen thenexus amats
BeatmapID:3473549
BeatmapSetID:1699099

[Difficulty]
HPDrainRate:3
CircleSize:3
OverallDifficulty:3
ApproachRate:5.5
SliderMultiplier:0.999999999999999
SliderTickRate:1

[Events]
//Background and Video events
0,0,"Untitled.jpg",0,0
//Break Periods
//Storyboard Layer 0 (Background)
//Storyboard Layer 1 (Fail)
//Storyboard Layer 2 (Pass)
//Storyboard Layer 3 (Foreground)
//Storyboard Layer 4 (Overlay)
//Storyboard Sound Samples

[TimingPoints]
7,368.595650571323,4,2,1,70,1,0
11802,-133.333333333333,4,2,1,70,0,0
17699,-117.647058823529,4,2,1,70,0,0
23597,-90.9090909090909,4,2,2,100,0,0
26730,-90.9090909090909,4,2,3,100,0,0
26914,-90.9090909090909,4,2,2,100,0,0
28573,-90.9090909090909,4,2,3,100,0,0
28757,-90.9090909090909,4,2,2,100,0,0
29310,-90.9090909090909,4,2,3,100,0,0
29494,-90.9090909090909,4,2,2,100,0,0
29678,-90.9090909090909,4,2,3,100,0,0
29863,-90.9090909090909,4,2,2,100,0,0
31521,-90.9090909090909,4,2,3,100,0,0
31706,-90.9090909090909,4,2,2,100,0,0
32259,-90.9090909090909,4,2,3,100,0,0
32443,-90.9090909090909,4,2,2,100,0,0
32627,-90.9090909090909,4,2,3,100,0,0
32812,-90.9090909090909,4,2,2,100,0,0
34470,-90.9090909090909,4,2,3,100,0,0
34562,-90.9090909090909,4,2,2,100,0,0
34839,-90.9090909090909,4,2,2,80,0,0
35023,-90.9090909090909,4,2,3,80,0,0
35207,-90.9090909090909,4,2,3,90,0,0
35392,-90.9090909090909,4,2,2,100,0,0
35576,-90.9090909090909,4,2,3,100,0,0
35668,-90.9090909090909,4,2,2,100,0,0
38525,-90.9090909090909,4,2,3,100,0,0
38617,-90.9090909090909,4,2,2,100,0,0
40368,-90.9090909090909,4,2,3,100,0,0
40552,-90.9090909090909,4,2,2,100,0,0
41105,-90.9090909090909,4,2,3,100,0,0
41289,-90.9090909090909,4,2,2,100,0,0
41474,-90.9090909090909,4,2,3,100,0,0
41658,-90.9090909090909,4,2,2,100,0,0
43316,-90.9090909090909,4,2,3,100,0,0
43501,-90.9090909090909,4,2,2,100,0,0
44054,-90.9090909090909,4,2,3,100,0,0
44238,-90.9090909090909,4,2,2,100,0,0
44422,-90.9090909090909,4,2,3,100,0,0
44607,-90.9090909090909,4,2,2,100,0,0
47187,-117.647058823529,4,2,1,80,0,0
58982,-100,4,2,2,90,0,0
70777,-100,4,2,2,60,0,0
81098,-100,4,2,3,60,0,0
82572,-90.9090909090909,4,2,2,100,0,0
85705,-90.9090909090909,4,2,3,100,0,0
85797,-90.9090909090909,4,2,2,100,0,0
87548,-90.9090909090909,4,2,3,100,0,0
87640,-90.9090909090909,4,2,2,100,0,0
88285,-90.9090909090909,4,2,3,100,0,0
88377,-90.9090909090909,4,2,2,100,0,0
88654,-90.9090909090909,4,2,3,100,0,0
88746,-90.9090909090909,4,2,2,100,0,0
90497,-90.9090909090909,4,2,3,100,0,0
90589,-90.9090909090909,4,2,2,100,0,0
91234,-90.9090909090909,4,2,3,100,0,0
91326,-90.9090909090909,4,2,2,100,0,0
91603,-90.9090909090909,4,2,3,100,0,0
91695,-90.9090909090909,4,2,2,100,0,0
93445,-90.9090909090909,4,2,3,100,0,0
93538,-90.9090909090909,4,2,2,100,0,0
94551,-90.9090909090909,4,2,3,100,0,0
94643,-90.9090909090909,4,2,2,100,0,0
97500,-90.9090909090909,4,2,3,100,0,0
97592,-90.9090909090909,4,2,2,100,0,0
99343,-90.9090909090909,4,2,3,100,0,0
99435,-90.9090909090909,4,2,2,100,0,0
100080,-90.9090909090909,4,2,3,100,0,0
100172,-90.9090909090909,4,2,2,100,0,0
100449,-90.9090909090909,4,2,3,100,0,0
100541,-90.9090909090909,4,2,2,100,0,0
102292,-90.9090909090909,4,2,3,100,0,0
102384,-90.9090909090909,4,2,2,100,0,0
103029,-90.9090909090909,4,2,3,100,0,0
103121,-90.9090909090909,4,2,2,100,0,0
103398,-90.9090909090909,4,2,3,100,0,0
103490,-90.9090909090909,4,2,2,100,0,0
104688,-90.9090909090909,4,2,2,60,0,0
106162,-90.9090909090909,4,2,2,50,0,0

[Colours]
Combo1 : 225,225,225
Combo2 : 186,196,218
Combo3 : 157,187,153

[HitObjects]
256,192,7,12,2,5167,0:2:0:0:
256,192,6088,12,2,10880,0:2:0:0:
104,278,11802,6,0,P|99:203|87:112,1,150.000005722046,0|2,1:0|1:2,0:0:0:0:
167,37,13276,2,0,P|242:32|333:20,1,150.000005722046,2|0,1:2|1:0,0:0:0:0:
407,100,14750,2,0,P|412:175|424:266,1,150.000005722046,0|0,1:0|1:0,0:0:0:0:
344,341,16224,2,0,P|269:346|178:358,1,150.000005722046,2|0,1:2|1:0,0:0:0:0:
95,193,17699,6,0,P|103:235|104:278,1,85.0000016212463,2|2,1:2|1:2,0:0:0:0:
195,266,18436,2,0,P|187:224|187:182,1,85.0000016212463,2|2,1:2|1:2,0:0:0:0:
150,95,19173,6,0,P|157:53|158:10,1,85.0000016212463,0|2,1:0|1:2,0:0:0:0:
251,22,19910,2,0,P|243:63|242:106,1,85.0000016212463,0|2,1:0|1:2,0:0:0:0:
312,167,20648,6,0,P|319:208|320:251,1,85.0000016212463,2|2,1:2|1:2,0:0:0:0:
413,239,21385,2,0,P|405:197|404:154,1,85.0000016212463,0|2,1:0|1:2,0:0:0:0:
482,104,22122,5,2,0:0:0:0:
482,104,23597,6,0,B|456:81|456:81|374:94,1,110.000003356934,2|10,1:2|0:2,0:0:0:0:
335,123,24150,2,0,L|346:13,1,110.000003356934,2|2,1:2|0:2,0:0:0:0:
292,2,24702,1,10,0:2:0:0:
188,39,25071,1,2,0:2:0:0:
227,141,25440,2,0,L|235:215,1,55.0000016784668,10|2,1:2|0:2,0:0:0:0:
238,250,25808,2,0,B|255:244|255:244|299:255,1,55.0000016784668,0|0,1:0|0:0,0:0:0:0:
337,225,26177,1,2,0:2:0:0:
444,246,26545,6,0,B|438:296|438:296|439:301|439:301|430:373,1,110.000003356934,2|10,1:2|0:2,0:0:0:0:
377,359,27098,2,0,L|262:378,1,110.000003356934,2|2,1:2|0:2,0:0:0:0:
224,343,27650,1,10,0:2:0:0:
117,370,28019,1,2,0:2:0:0:
117,370,28204,2,0,B|93:361|93:361|40:359,1,55.0000016784668,0|10,1:0|0:2,0:0:0:0:
19,326,28573,2,0,L|43:209,1,110.000003356934,2|0,0:2|0:0,0:0:0:0:
92,198,29126,1,10,0:2:0:0:
199,221,29494,6,0,L|175:104,1,110.000003356934,2|10,1:2|0:2,0:0:0:0:
141,71,30047,2,0,B|215:44|215:44|262:66,1,110.000003356934,2|2,1:2|0:2,0:0:0:0:
288,26,30600,1,10,0:2:0:0:
450,75,31153,1,0,1:0:0:0:
450,75,31337,2,0,L|439:206,1,110.000003356934,10|0,0:2|1:0,0:0:0:0:
393,213,31890,2,0,L|403:288,1,55.0000016784668,0|10,0:0|0:2,0:0:0:0:
483,338,32443,6,0,B|457:361|457:361|375:348,1,110.000003356934,2|10,1:2|0:2,0:0:0:0:
330,368,32996,2,0,L|316:258,1,110.000003356934,2|2,1:2|0:2,0:0:0:0:
266,235,33548,1,10,0:2:0:0:
179,303,33917,1,2,0:2:0:0:
115,220,34286,1,10,0:2:0:0:
115,220,34470,1,2,0:2:0:0:
115,220,35392,6,0,L|102:104,1,110.000003356934,2|8,1:2|0:0,0:0:0:0:
55,82,35945,1,2,1:2:0:0:
149,23,36313,1,2,0:2:0:0:
149,23,36497,2,0,B|167:41|167:41|264:56,1,110.000003356934,10|2,0:2|0:2,0:0:0:0:
339,118,37235,1,0,1:0:0:0:
251,184,37603,1,0,1:0:0:0:
338,250,37972,2,0,B|344:263|344:263|331:320,1,55.0000016784668,10|2,0:2|0:2,0:0:0:0:
310,351,38340,6,0,L|429:329,1,110.000003356934,2|8,1:2|0:0,0:0:0:0:
469,350,38893,2,0,B|492:319|492:319|479:230,1,110.000003356934,2|2,1:2|0:2,0:0:0:0:
438,214,39446,1,10,0:2:0:0:
485,114,39815,1,2,0:2:0:0:
485,114,39999,2,0,L|363:125,1,110.000003356934,0|2,1:0|0:2,0:0:0:0:
332,159,40552,1,0,1:0:0:0:
292,56,40921,2,0,L|225:52,1,55.0000016784668,10|2,0:2|0:2,0:0:0:0:
203,102,41289,5,2,1:2:0:0:
103,67,41658,1,10,0:2:0:0:
103,67,41842,2,0,B|91:103|91:103|108:132,1,55.0000016784668,2|2,1:2|0:2,0:0:0:0:
123,167,42211,1,2,0:2:0:0:
123,167,42395,2,0,L|106:288,1,110.000003356934,10|2,0:2|0:2,0:0:0:0:
141,326,42948,5,2,1:2:0:0:
141,326,43132,1,10,1:2:0:0:
241,280,43501,2,0,L|235:200,1,55.0000016784668,2|2,1:2|0:2,0:0:0:0:
257,174,43869,2,0,B|275:187|275:187|319:182,1,55.0000016784668,10|2,0:2|0:0,0:0:0:0:
351,150,44238,5,2,1:2:0:0:
459,117,44607,1,10,0:2:0:0:
459,117,44791,2,0,L|454:189,1,55.0000016784668,2|2,1:2|0:2,0:0:0:0:
429,222,45160,1,2,0:2:0:0:
429,222,45344,2,0,B|454:252|454:252|436:344,1,110.000003356934,10|2,0:2|0:2,0:0:0:0:
440,321,47187,6,0,P|396:315|352:315,1,85.0000016212463,0|10,1:0|0:2,0:0:0:0:
320,340,47740,2,0,P|277:339|235:333,1,85.0000016212463,2|0,1:2|1:0,0:0:0:0:
203,305,48293,1,10,0:2:0:0:
133,353,48661,2,0,P|90:353|48:359,1,85.0000016212463,2|10,1:2|0:2,0:0:0:0:
21,239,49583,1,2,1:2:0:0:
20,238,49767,2,0,P|24:217|26:184,1,42.5000008106231,10|2,0:2|0:2,0:0:0:0:
18,153,50136,6,0,P|61:158|105:158,1,85.0000016212463,2|10,1:2|0:2,0:0:0:0:
138,134,50689,2,0,P|180:134|222:140,1,85.0000016212463,2|0,1:2|1:0,0:0:0:0:
255,169,51242,1,10,0:2:0:0:
320,223,51610,2,0,P|362:222|404:216,1,85.0000016212463,2|8,1:2|0:0,0:0:0:0:
486,119,52532,1,0,1:0:0:0:
485,118,52716,2,0,P|489:97|491:64,1,42.5000008106231,10|0,0:2|0:0,0:0:0:0:
462,44,53084,6,0,P|418:38|374:38,1,85.0000016212463,2|10,1:2|0:2,0:0:0:0:
340,59,53637,1,2,1:2:0:0:
279,118,54006,1,2,1:2:0:0:
279,118,54190,2,0,P|236:117|194:111,1,85.0000016212463,10|2,0:2|1:2,0:0:0:0:
137,56,54927,1,10,0:2:0:0:
137,56,55112,2,0,P|94:56|52:62,1,85.0000016212463,2|0,0:2|1:0,0:0:0:0:
22,91,55664,1,10,0:2:0:0:
56,168,56033,6,0,P|61:211|61:255,1,85.0000016212463,2|10,1:2|0:2,0:0:0:0:
46,292,56586,1,2,1:2:0:0:
112,354,56955,1,2,1:2:0:0:
112,354,57139,2,0,P|155:348|199:348,1,85.0000016212463,10|2,0:2|1:2,0:0:0:0:
259,290,57876,1,10,0:2:0:0:
259,290,58060,2,0,P|301:289|343:283,1,85.0000016212463,2|2,0:2|1:2,0:0:0:0:
382,302,58613,1,10,0:2:0:0:
469,350,58982,6,0,B|490:308|490:308|469:251,1,99.9999999999999,2|10,1:2|0:2,0:0:0:0:
437,221,59535,2,0,B|412:145|412:145|418:142|418:142|441:69,1,150,2|10,1:2|0:2,0:0:0:0:
246,18,60825,2,0,L|180:28,1,50,2|2,1:2|0:2,0:0:0:0:
164,63,61193,2,0,L|98:73,1,50,0|2,1:0|0:2,0:0:0:0:
75,101,61562,1,10,0:2:0:0:
40,197,61931,5,2,1:2:0:0:
40,197,62115,2,0,B|52:208|52:208|92:200,1,50,2|10,0:2|0:2,0:0:0:0:
134,209,62483,2,0,L|124:315,1,99.9999999999999,2|2,1:2|0:2,0:0:0:0:
144,354,63036,1,10,0:2:0:0:
288,314,63589,2,0,B|316:324|316:324|348:321,2,50,2|10|10,1:2|0:2|0:2,0:0:0:0:
250,280,64142,2,0,B|247:228|247:228|242:222|242:222|239:167,1,99.9999999999999,0|10,1:0|0:2,0:0:0:0:
180,108,64879,5,2,1:2:0:0:
180,108,65064,2,0,B|174:91|174:91|182:54,1,50,10|10,0:2|0:2,0:0:0:0:
197,12,65432,2,0,B|266:29|266:29|314:38,1,99.9999999999999,2|2,1:2|0:2,0:0:0:0:
342,20,65985,1,10,0:2:0:0:
468,101,66538,2,0,L|460:160,1,50,2|10,1:2|0:2,0:0:0:0:
479,197,66907,1,10,0:2:0:0:
479,197,67091,6,0,B|425:188|425:188|420:194|420:194|380:223,1,99.9999999999999,2|10,1:2|0:2,0:0:0:0:
304,163,67828,2,0,L|311:97,2,50,2|10|10,1:2|0:2|0:2,0:0:0:0:
266,196,68381,1,2,1:2:0:0:
266,196,68565,2,0,B|277:232|277:232|275:256,1,50,2|2,0:2|0:2,0:0:0:0:
240,280,68934,2,0,B|203:266|203:266|134:262,1,99.9999999999999,10|2,0:2|0:2,0:0:0:0:
67,328,69671,2,0,L|57:265,1,50,10|10,0:2|0:2,0:0:0:0:
26,240,70040,1,2,1:2:0:0:
26,240,70224,2,0,B|48:202|48:202|49:182,1,50,2|2,0:2|0:2,0:0:0:0:
4,106,70777,5,2,0:2:0:0:
256,192,70961,12,2,75937,0:2:0:0:
256,192,76674,12,2,81098,0:0:0:0:
45,126,82572,6,0,B|163:114,1,110.000003356934,2|10,1:2|0:2,0:0:0:0:
198,148,83125,2,0,B|227:109|227:109|212:35,1,110.000003356934,2|2,1:2|0:2,0:0:0:0:
242,1,83677,1,10,0:2:0:0:
347,33,84046,1,2,0:2:0:0:
311,137,84415,2,0,L|320:209,1,55.0000016784668,10|2,1:2|0:2,0:0:0:0:
368,212,84783,2,0,B|401:220|401:220|420:211,1,55.0000016784668,0|0,1:0|0:0,0:0:0:0:
450,164,85152,1,2,0:2:0:0:
492,265,85520,6,0,B|486:315|486:315|487:320|487:320|478:392,1,110.000003356934,2|10,1:2|0:2,0:0:0:0:
425,373,86073,2,0,L|294:353,1,110.000003356934,2|2,1:2|0:2,0:0:0:0:
267,381,86625,1,10,0:2:0:0:
192,307,86994,1,2,0:2:0:0:
192,307,87179,2,0,B|201:283|201:283|203:230,1,55.0000016784668,0|10,1:0|0:2,0:0:0:0:
252,231,87548,2,0,L|239:112,1,110.000003356934,2|0,0:2|0:0,0:0:0:0:
268,74,88101,1,10,0:2:0:0:
172,19,88469,6,0,B|136:35|136:35|55:32,1,110.000003356934,2|10,1:2|0:2,0:0:0:0:
19,62,89022,2,0,B|31:181,1,110.000003356934,2|2,1:2|0:2,0:0:0:0:
79,196,89575,1,10,0:2:0:0:
0,303,90128,1,0,1:0:0:0:
0,303,90312,2,0,B|33:287|33:287|126:311,1,110.000003356934,10|0,0:2|1:0,0:0:0:0:
141,346,90865,2,0,L|216:332,1,55.0000016784668,0|10,0:0|0:2,0:0:0:0:
299,371,91418,6,0,B|322:345|322:345|309:263,1,110.000003356934,2|10,1:2|0:2,0:0:0:0:
296,217,91971,2,0,L|186:203,1,110.000003356934,2|2,1:2|0:2,0:0:0:0:
144,237,92523,1,10,0:2:0:0:
97,137,92892,1,2,0:2:0:0:
199,90,93261,1,10,0:2:0:0:
199,90,93445,1,2,0:2:0:0:
199,90,94367,6,0,L|311:109,1,110.000003356934,2|8,1:2|0:0,0:0:0:0:
342,65,94920,1,2,1:2:0:0:
452,97,95288,1,2,0:2:0:0:
452,97,95472,2,0,B|435:136|435:136|440:172|440:172|426:207,1,110.000003356934,10|2,0:2|0:2,0:0:0:0:
481,297,96210,1,0,1:0:0:0:
389,357,96578,1,0,1:0:0:0:
290,307,96947,2,0,B|280:267|280:267|286:254,1,55.0000016784668,2|2,0:2|0:2,0:0:0:0:
314,206,97315,6,0,L|195:184,1,110.000003356934,2|8,1:2|0:0,0:0:0:0:
158,214,97868,2,0,B|135:183|135:183|148:94,1,110.000003356934,2|2,1:2|0:2,0:0:0:0:
183,72,98421,1,10,0:2:0:0:
86,30,98790,1,2,0:2:0:0:
86,30,98974,2,0,B|16:70|16:70|26:107,1,110.000003356934,0|2,1:0|0:2,0:0:0:0:
55,143,99527,1,0,1:0:0:0:
10,243,99896,2,0,L|18:316,1,55.0000016784668,10|2,0:2|0:2,0:0:0:0:
45,344,100264,5,2,1:2:0:0:
155,319,100633,1,10,0:2:0:0:
155,319,100817,2,0,B|191:331|191:331|220:314,1,55.0000016784668,2|2,1:2|0:2,0:0:0:0:
258,351,101186,1,2,0:2:0:0:
258,351,101370,2,0,L|379:368,1,110.000003356934,10|2,0:2|0:2,0:0:0:0:
412,333,101923,5,2,1:2:0:0:
412,333,102107,1,10,0:2:0:0:
346,244,102476,2,0,L|352:164,1,55.0000016784668,2|2,1:2|0:2,0:0:0:0:
303,160,102844,2,0,B|285:173|285:173|242:181,1,55.0000016784668,10|2,0:2|0:0,0:0:0:0:
201,157,103213,5,2,1:2:0:0:
109,106,103582,1,10,0:2:0:0:
109,106,103766,2,0,L|114:34,1,55.0000016784668,2|2,1:2|0:2,0:0:0:0:
153,13,104135,1,2,0:2:0:0:
153,13,104319,2,0,B|217:37|217:37|277:12,1,110.000003356934,10|2,0:2|0:2,0:0:0:0:
255,20,106162,5,2,0:2:0:0:
