osu file format v14

[General]
AudioFilename: Safari in monbebe.mp3
AudioLeadIn: 0
PreviewTime: 48254
Countdown: 0
SampleSet: Normal
StackLeniency: 0.7
Mode: 1
LetterboxInBreaks: 0
WidescreenStoryboard: 1

[Editor]
DistanceSpacing: 0.8
BeatDivisor: 4
GridSize: 32
TimelineZoom: 1.3

[Metadata]
Title:Safari in Monbebe World
TitleUnicode:Safari in Monbebe World
Artist:MONSTA X
ArtistUnicode:몬스타엑스
Creator:Melanie
Version:Kantan
Source:
Tags:starship entertainment 주헌 셔누 기현 형원 민혁 원호 아이엠 jooheon shownu kihyun hyungwon minhyuk wonho i.m
BeatmapID:1304965
BeatmapSetID:619103

[Difficulty]
HPDrainRate:5
CircleSize:2
OverallDifficulty:5
ApproachRate:5
SliderMultiplier:1.4
SliderTickRate:1

[Events]
//Background and Video events
0,0,"b065d95ed6313210b6f50df46de6cb3e733c552e_hq.jpg",0,0
//Break Periods
//Storyboard Layer 0 (Background)
//Storyboard Layer 1 (Fail)
//Storyboard Layer 2 (Pass)
//Storyboard Layer 3 (Foreground)
//Storyboard Sound Samples

[TimingPoints]
1959,441.176470588235,4,1,0,70,1,0
9017,-100,4,1,0,75,0,0
24789,441.176470588235,4,1,0,75,1,0
34417,441.176470588235,4,1,0,75,1,0
34854,441.176470588235,4,1,0,75,1,0
39304,441.176470588235,4,1,0,75,1,0
39971,441.176470588235,4,1,0,75,1,0
44203,441.176470588235,4,1,0,75,1,0
44835,441.176470588235,4,1,0,75,1,0
48364,-100,4,1,0,100,0,1
62040,-100,4,1,0,75,0,0

[HitObjects]
256,160,1959,5,12,0:0:0:0:
256,160,3282,1,8,0:0:0:0:
256,160,3723,1,0,0:0:0:0:
256,160,5047,1,8,0:0:0:0:
256,160,5488,1,0,0:0:0:0:
256,160,6811,1,8,0:0:0:0:
256,160,7253,1,0,0:0:0:0:
192,128,8576,1,0,0:0:0:0:
256,160,9017,1,12,0:0:0:0:
256,160,10341,1,8,0:0:0:0:
256,160,10782,1,0,0:0:0:0:
256,160,12106,1,8,0:0:0:0:
256,160,13870,1,8,0:0:0:0:
256,160,14311,1,12,0:0:0:0:
256,160,15635,1,8,0:0:0:0:
256,160,15856,2,0,L|320:128,1,70
256,160,17400,1,8,0:0:0:0:
256,160,19164,1,8,0:0:0:0:
256,160,19606,1,12,0:0:0:0:
256,160,20929,1,8,0:0:0:0:
256,160,21150,2,0,L|288:96,1,70
256,160,21811,1,8,0:0:0:0:
256,160,22694,1,8,0:0:0:0:
256,160,24789,1,12,0:0:0:0:
256,160,25230,1,0,0:0:0:0:
288,160,25671,1,0,0:0:0:0:
288,160,26112,1,8,0:0:0:0:
192,192,26333,2,0,L|160:128,1,70
288,160,26994,1,8,0:0:0:0:
256,160,30083,1,12,0:0:0:0:
256,160,30744,1,0,0:0:0:0:
256,160,31847,1,0,0:0:0:0:
256,160,32509,1,8,0:0:0:0:
256,160,34417,1,8,0:0:0:0:
256,160,35295,1,8,0:0:0:0:
256,160,36177,1,8,0:0:0:0:
256,160,37059,1,8,0:0:0:0:
193,163,37721,2,0,L|128:64,2,105
256,160,39971,1,12,0:0:0:0:
256,160,40632,1,0,0:0:0:0:
256,160,41294,1,8,0:0:0:0:
256,160,42397,1,0,0:0:0:0:
256,160,44835,1,0,0:0:0:0:
256,160,45496,1,0,0:0:0:0:
256,160,46158,1,8,0:0:0:0:
256,160,47261,1,0,0:0:0:0:
160,128,47702,2,0,L|128:64,2,70
256,160,48364,1,12,0:0:0:0:
256,160,49687,1,8,0:0:0:0:
256,160,51452,1,8,0:0:0:0:
256,160,51893,1,0,0:0:0:0:
256,160,53217,1,0,0:0:0:0:
256,160,53658,1,0,0:0:0:0:
256,160,54982,1,8,0:0:0:0:
128,128,55202,2,0,L|96:32,1,70
256,160,55864,1,8,0:0:0:0:
256,160,56746,1,8,0:0:0:0:
256,160,57849,1,0,0:0:0:0:
256,160,58511,1,8,0:0:0:0:
256,160,59393,1,8,0:0:0:0:
256,160,59834,1,0,0:0:0:0:
256,160,61158,1,8,0:0:0:0:
256,160,61599,1,0,0:0:0:0:
256,160,62040,1,12,0:0:0:0:
