osu file format v14

[General]
AudioFilename: audio.mp3
AudioLeadIn: 0
PreviewTime: 48252
Countdown: 0
SampleSet: Soft
StackLeniency: 0.7
Mode: 0
LetterboxInBreaks: 0
WidescreenStoryboard: 0

[Editor]
Bookmarks: 9017
DistanceSpacing: 1.2
BeatDivisor: 4
GridSize: 4
TimelineZoom: 1

[Metadata]
Title:Safari in Monbebe World
TitleUnicode:Safari in Monbebe World
Artist:MONSTA X
ArtistUnicode:몬스타 엑스
Creator:Firetruck
Version:Hard
Source:
Tags:Starship Entertainment 주헌 셔누 기현 형원 민혁 원호 아이엠 Jooheon Shownu Kihyun Hyungwon Minhyuk Wonho I.M Fire in the hole cute moe Lapis Aoki Monbo
BeatmapID:1189772
BeatmapSetID:562798

[Difficulty]
HPDrainRate:5
CircleSize:4
OverallDifficulty:6
ApproachRate:7.5
SliderMultiplier:1.6
SliderTickRate:1

[Events]
//Background and Video events
Video,0,"Monbebe+World.mp4"
0,0,"fireinthehole.png",0,0
//Break Periods
//Storyboard Layer 0 (Background)
//Storyboard Layer 1 (Fail)
//Storyboard Layer 2 (Pass)
//Storyboard Layer 3 (Foreground)
//Storyboard Sound Samples

[TimingPoints]
1959,441.176470588235,4,2,1,70,1,0
24569,441.176470588235,4,2,1,70,1,0
24788,441.176470588235,4,2,1,70,1,0
34417,441.176470588235,4,2,1,70,1,0
34854,441.176470588235,4,2,1,70,1,0
39304,441.176470588235,4,2,1,70,1,0
39971,441.176470588235,4,2,1,70,1,0
44203,441.176470588235,4,2,1,70,1,0
44835,441.176470588235,4,2,1,70,1,0
47923,-100,4,2,1,50,0,0
48364,-100,4,2,1,70,0,1
54982,-100,4,2,1,70,0,0
55423,-100,4,2,1,70,0,1
62040,-100,4,2,1,70,0,0

[Colours]
Combo1 : 128,255,255
Combo2 : 236,147,227
Combo3 : 255,255,51
Combo4 : 252,122,67
Combo5 : 154,255,53

[HitObjects]
69,101,1959,6,0,B|103:89|143:100|143:100|184:111|227:98,1,160,6|8,0:0|0:0,0:0:0:0:
319,75,2620,2,0,P|332:157|304:229,1,160,2|2,0:0|0:0,0:0:0:0:
263,313,3282,1,8,0:0:0:0:
263,313,3723,6,0,B|214:310|214:310|163:316|163:316|103:312,1,160,2|8,0:0|0:0,0:0:0:0:
11,285,4385,2,0,P|39:215|16:134,1,160,2|2,0:0|0:0,0:0:0:0:
50,45,5047,1,8,0:0:0:0:
50,45,5488,6,0,L|208:17,1,160,2|8,0:0|0:0,0:0:0:0:
303,8,6150,2,0,B|329:77|283:87|310:167,1,160,2|2,0:0|0:0,0:0:0:0:
395,122,6811,1,8,0:0:0:0:
395,122,7253,6,0,P|396:205|334:258,1,160,2|8,0:0|0:0,0:0:0:0:
264,308,7914,2,0,B|216:305|216:305|164:311|164:311|102:304,1,160,2|2,0:0|0:0,0:0:0:0:
9,292,8576,1,8,0:0:0:0:
70,217,8797,1,2,0:0:0:0:
70,217,8907,1,2,0:0:0:0:
70,217,9017,6,0,L|94:58,1,160,4|8,0:0|0:0,0:0:0:0:
179,15,9679,2,0,P|257:33|339:16,1,160,2|2,0:0|0:0,0:0:0:0:
425,49,10341,1,8,0:0:0:0:
425,49,10782,6,0,B|422:97|422:97|428:149|428:149|424:209,1,160,2|8,0:0|0:0,0:0:0:0:
410,303,11444,2,0,P|331:284|251:304,1,160,2|2,0:0|0:0,0:0:0:0:
175,354,12106,1,8,0:0:0:0:
175,354,13650,5,2,0:0:0:0:
142,263,13870,1,8,0:0:0:0:
215,200,14091,1,2,0:0:0:0:
252,288,14311,6,0,B|301:285|301:285|352:291|352:291|412:287,1,160,4|8,0:0|0:0,0:0:0:0:
478,217,14973,2,0,L|499:43,1,160,2|2,0:0|0:0,0:0:0:0:
410,16,15635,1,8,0:0:0:0:
318,46,15856,1,2,0:0:0:0:
318,46,15966,1,2,0:0:0:0:
318,46,16076,6,0,P|234:28|162:42,1,160,2|8,0:0|0:0,0:0:0:0:
92,107,16738,2,0,L|62:267,1,160,2|2,0:0|0:0,0:0:0:0:
42,358,17400,1,8,0:0:0:0:
42,358,18944,5,2,0:0:0:0:
131,323,19164,1,8,0:0:0:0:
220,358,19385,1,2,0:0:0:0:
311,327,19606,6,0,P|386:308|468:325,1,160,4|8,0:0|0:0,0:0:0:0:
507,237,20267,2,0,P|486:161|511:86,1,160,2|2,0:0|0:0,0:0:0:0:
431,31,20929,1,8,0:0:0:0:
342,55,21150,1,2,0:0:0:0:
342,55,21260,1,2,0:0:0:0:
342,55,21370,6,0,L|170:46,1,160,2|8,0:0|0:0,0:0:0:0:
86,48,22032,2,0,P|106:127|65:194,1,160,2|2,0:0|0:0,0:0:0:0:
5,263,22694,1,8,0:0:0:0:
5,263,24569,5,2,0:0:0:0:
5,263,24679,1,2,0:0:0:0:
5,263,24788,6,0,L|126:150,1,160,4|8,0:0|0:0,0:0:0:0:
203,103,25449,2,0,P|277:126|355:104,1,160,2|2,0:0|0:0,0:0:0:0:
438,58,26111,1,8,0:0:0:0:
485,152,26332,1,2,0:0:0:0:
485,152,26442,1,2,0:0:0:0:
485,152,26552,6,0,P|459:233|488:301,1,160,2|8,0:0|0:0,0:0:0:0:
412,360,27214,2,0,B|366:356|366:356|312:364|312:364|250:357,1,160,2|2,0:0|0:0,0:0:0:0:
158,341,27876,1,8,0:0:0:0:
158,341,29420,5,2,0:0:0:0:
112,257,29640,1,8,0:0:0:0:
168,179,29861,1,2,0:0:0:0:
215,262,30082,6,0,P|293:271|348:213,1,160,4|8,0:0|0:0,0:0:0:0:
260,175,30743,2,0,L|298:335,1,160,2|2,0:0|0:0,0:0:0:0:
384,369,31405,1,8,0:0:0:0:
455,305,31626,1,0,0:0:0:0:
406,222,31846,6,0,P|380:156|420:78,1,160,2|8,0:0|0:0,0:0:0:0:
474,157,32508,1,2,0:0:0:0:
474,157,34417,5,8,0:0:0:0:
457,62,34637,1,10,0:0:0:0:
367,94,34854,6,0,P|285:75|211:96,1,160,2|8,0:0|0:0,0:0:0:0:
130,141,35515,2,0,B|155:218|107:226|134:299,1,160,2|2,0:0|0:0,0:0:0:0:
220,255,36177,1,8,0:0:0:0:
308,291,36398,1,8,0:0:0:0:
398,322,36618,6,0,L|416:160,1,160,2|8,0:0|0:0,0:0:0:0:
429,67,37280,1,2,0:0:0:0:
429,67,39304,5,2,0:0:0:0:
337,37,39524,1,8,0:0:0:0:
244,65,39745,1,10,0:0:0:0:
244,65,39855,1,2,0:0:0:0:
244,65,39971,6,0,L|225:225,1,160,2|8,0:0|0:0,0:0:0:0:
152,286,40632,2,0,P|228:266|309:283,1,160,2|2,0:0|0:0,0:0:0:0:
389,330,41294,1,8,0:0:0:0:
478,365,41515,1,8,0:0:0:0:
463,270,41735,6,0,L|473:110,1,160,2|8,0:0|0:0,0:0:0:0:
480,14,42397,1,2,0:0:0:0:
480,14,44203,5,2,0:0:0:0:
388,40,44423,1,8,0:0:0:0:
294,17,44644,1,8,0:0:0:0:
318,108,44835,6,0,L|326:268,1,160,2|8,0:0|0:0,0:0:0:0:
333,363,45496,2,0,P|255:344|179:367,1,160,2|2,0:0|0:0,0:0:0:0:
99,314,46158,1,8,0:0:0:0:
106,218,46379,1,8,0:0:0:0:
192,259,46599,6,0,L|346:198,1,160,2|8,0:0|0:0,0:0:0:0:
429,161,47261,1,2,0:0:0:0:
429,161,47702,1,2,0:0:0:0:
464,250,47923,2,0,P|442:253|418:250,1,40,8|2,0:0|0:0,0:0:0:0:
379,268,48143,2,0,P|355:265|333:268,1,40,8|2,0:0|0:0,0:0:0:0:
291,268,48364,6,0,P|212:249|137:269,1,160,6|8,0:0|0:0,0:0:0:0:
61,329,49026,2,0,L|29:166,1,160,2|2,0:0|0:0,0:0:0:0:
9,78,49687,1,8,0:0:0:0:
9,78,50129,6,0,P|88:57|163:73,1,160,2|8,0:0|0:0,0:0:0:0:
245,122,50790,2,0,P|324:143|399:127,1,160,2|2,0:0|0:0,0:0:0:0:
494,117,51452,1,8,0:0:0:0:
482,212,51673,1,2,0:0:0:0:
463,306,51893,6,0,P|388:326|306:304,1,160,2|8,0:0|0:0,0:0:0:0:
223,264,52555,2,0,B|261:191|193:186|230:101,1,160,2|2,0:0|0:0,0:0:0:0:
286,33,53217,1,8,0:0:0:0:
286,33,53658,6,0,L|124:24,1,160,2|8,0:0|0:0,0:0:0:0:
30,13,54320,2,0,P|50:93|21:164,1,160,2|2,0:0|0:0,0:0:0:0:
3,256,54982,1,8,0:0:0:0:
94,227,55202,1,2,0:0:0:0:
94,227,55312,1,2,0:0:0:0:
94,227,55423,6,0,P|169:209|249:224,1,160,2|8,0:0|0:0,0:0:0:0:
329,275,56084,2,0,L|360:112,1,160,2|2,0:0|0:0,0:0:0:0:
386,28,56746,1,8,0:0:0:0:
386,28,57187,6,0,B|333:23|333:23|287:29|287:29|223:23,1,160,2|8,0:0|0:0,0:0:0:0:
130,17,57849,2,0,P|147:95|120:171,1,160,2|2,0:0|0:0,0:0:0:0:
84,257,58511,1,8,0:0:0:0:
178,237,58732,1,2,0:0:0:0:
271,257,58952,6,0,P|350:239|429:258,1,160,2|8,0:0|0:0,0:0:0:0:
497,192,59614,2,0,L|490:30,1,160,2|2,0:0|0:0,0:0:0:0:
396,55,60276,1,8,0:0:0:0:
396,55,60717,6,0,B|317:35|320:75|239:56,1,160,2|8,0:0|0:0,0:0:0:0:
142,42,61379,2,0,L|159:224,1,160,2|2,0:0|0:0,0:0:0:0:
170,296,62040,1,4,0:0:0:0:
