osu file format v14

[General]
AudioFilename: audio.mp3
AudioLeadIn: 0
PreviewTime: 48252
Countdown: 0
SampleSet: Soft
StackLeniency: 0.7
Mode: 0
LetterboxInBreaks: 0
WidescreenStoryboard: 1

[Editor]
DistanceSpacing: 1.2
BeatDivisor: 4
GridSize: 8
TimelineZoom: 1.8

[Metadata]
Title:Safari in Monbebe World
TitleUnicode:Safari in Monbebe World
Artist:MONSTA X
ArtistUnicode:몬스타 엑스
Creator:Firetruck
Version:Easy
Source:
Tags:Starship Entertainment 주헌 셔누 기현 형원 민혁 원호 아이엠 Jooheon Shownu Kihyun Hyungwon Minhyuk Wonho I.M Fire in the hole cute moe Lapis Aoki Monbo
BeatmapID:1279154
BeatmapSetID:562798

[Difficulty]
HPDrainRate:2
CircleSize:3
OverallDifficulty:2
ApproachRate:3
SliderMultiplier:0.8
SliderTickRate:1

[Events]
//Background and Video events
0,0,"fireinthehole.png",0,0
Video,0,"Monbebe+World.mp4"
//Break Periods
//Storyboard Layer 0 (Background)
//Storyboard Layer 1 (Fail)
//Storyboard Layer 2 (Pass)
//Storyboard Layer 3 (Foreground)
//Storyboard Sound Samples

[TimingPoints]
1959,441.176470588235,4,2,1,70,1,0
24569,441.176470588235,4,2,1,70,1,0
24788,441.176470588235,4,2,1,70,1,0
34417,441.176470588235,4,2,1,70,1,0
34854,441.176470588235,4,2,1,70,1,0
39304,441.176470588235,4,2,1,70,1,0
39971,441.176470588235,4,2,1,70,1,0
44203,441.176470588235,4,2,1,70,1,0
44835,441.176470588235,4,2,1,70,1,0
48364,-100,4,2,1,70,0,1
54982,-100,4,2,1,70,0,0
55423,-100,4,2,1,70,0,1
62040,-100,4,2,1,70,0,0

[Colours]
Combo1 : 128,255,255
Combo2 : 236,147,227
Combo3 : 255,255,51
Combo4 : 252,122,67
Combo5 : 154,255,53

[HitObjects]
34,97,1959,6,0,P|94:109|154:98,1,120,6|2,0:0|0:0,0:0:0:0:
240,64,3061,2,0,L|245:116,1,40,2|8,0:0|0:0,0:0:0:0:
253,199,3723,1,0,0:0:0:0:
340,238,4164,2,0,P|363:240|389:237,1,40
429,156,4826,2,0,P|432:131|428:101,1,40
360,51,5488,6,0,B|228:54,1,120,2|0,0:0|0:0,0:0:0:0:
147,80,6591,2,0,P|149:109|146:133,1,40
122,212,7253,1,0,0:0:0:0:
139,306,7694,2,0,L|196:299,1,40
272,322,8356,2,0,L|329:315,1,40
372,242,9017,6,0,P|426:256|495:239,1,120,6|0,0:0|0:0,0:0:0:0:
477,147,10120,2,0,P|479:117|476:92,1,40
397,55,10782,2,0,B|268:51,1,120,2|2,0:0|0:0,0:0:0:0:
213,123,11885,2,0,L|214:162,1,40,2|8,0:0|0:0,0:0:0:0:
212,162,14311,5,0,0:0:0:0:
300,123,14753,2,0,L|350:120,1,40
433,141,15414,2,0,L|483:138,1,40
466,235,16076,2,0,P|482:295|469:351,1,120,2|2,0:0|0:0,0:0:0:0:
373,343,17179,2,0,L|322:339,1,40,2|8,0:0|0:0,0:0:0:0:
333,339,19606,6,0,L|204:329,1,120,6|0,0:0|0:0,0:0:0:0:
121,302,20708,2,0,L|121:253,1,40
118,165,21370,1,0,0:0:0:0:
210,191,21811,2,0,L|253:191,1,40
337,231,22473,2,0,L|386:230,1,40
376,230,24788,6,0,P|437:230|492:201,1,120,6|0,0:0|0:0,0:0:0:0:
464,110,25890,2,0,L|456:54,1,40
367,38,26552,2,0,L|247:35,1,120
190,112,27655,2,0,L|185:154,1,40,2|8,0:0|0:0,0:0:0:0:
187,152,30082,6,0,B|160:215|211:213|182:285,1,120,6|0,0:0|0:0,0:0:0:0:
236,351,31185,2,0,L|292:345,1,40
370,330,31846,2,0,P|360:271|367:211,1,120,2|2,0:0|0:0,0:0:0:0:
367,212,34854,6,0,B|372:164|372:164|357:85,1,120
280,38,35956,2,0,L|238:63,1,40
172,120,36618,2,0,B|155:175|155:175|164:236,1,120,2|0,0:0|0:0,0:0:0:0:
164,236,39971,6,0,L|295:232,1,120,2|0,0:0|0:0,0:0:0:0:
379,235,41073,2,0,P|383:206|381:186,1,40
382,99,41735,2,0,L|255:97,1,120,0|2,0:0|0:0,0:0:0:0:
262,97,44835,6,0,P|246:154|258:212,1,120,2|0,0:0|0:0,0:0:0:0:
263,308,45937,2,0,L|216:293,1,40
138,254,46599,1,0,0:0:0:0:
54,206,47040,2,0,L|58:166,1,40,8|0,0:0|0:0,0:0:0:0:
290,106,48364,6,0,L|414:111,1,120,6|0,0:0|0:0,0:0:0:0:
454,195,49467,2,0,L|457:234,1,40
471,330,50129,1,0,0:0:0:0:
375,338,50570,2,0,L|326:337,1,40
255,283,51232,2,0,L|206:282,1,40
119,282,51893,6,0,P|132:223|123:164,1,120
104,70,52996,2,0,L|157:75,1,40
227,121,53658,2,0,B|349:88|333:148|467:119,1,240,2|8,0:0|0:0,0:0:0:0:
472,215,55423,6,0,P|490:271|480:330,1,120,2|0,0:0|0:0,0:0:0:0:
384,324,56526,2,0,B|362:323|333:318,1,40
249,306,57187,1,0,0:0:0:0:
225,212,57629,2,0,L|175:208,1,40
114,143,58290,2,0,L|64:139,1,40
24,222,58952,6,0,L|22:345,1,120,2|0,0:0|0:0,0:0:0:0:
109,302,60055,2,0,L|109:252,1,40
105,165,60717,2,0,B|227:132|211:192|351:157,1,240,2|12,0:0|0:0,0:0:0:0:
