osu file format v14

[General]
AudioFilename: kiri-ep.mp3
AudioLeadIn: 0
PreviewTime: 10792
Countdown: 0
SampleSet: Soft
StackLeniency: 0.7
Mode: 0
LetterboxInBreaks: 0
WidescreenStoryboard: 1

[Editor]
DistanceSpacing: 0.9
BeatDivisor: 4
GridSize: 32
TimelineZoom: 2.799999

[Metadata]
Title:kiri
TitleUnicode:kiri
Artist:MONORAL
ArtistUnicode:MONORAL
Creator:ErunamoJAZZ
Version:Dekaane's Basic
Source:Ergo Proxy
Tags:エルゴプラクシー ErgoProxy Opening Vincent Law Re-l Mayer Pino Dystopia Sci-Fi DakeDekaane pkhg
BeatmapID:742805
BeatmapSetID:333196

[Difficulty]
HPDrainRate:2
CircleSize:2
OverallDifficulty:2
ApproachRate:2.5
SliderMultiplier:1.1
SliderTickRate:1

[Events]
//Background and Video events
Video,80,"ergo.avi"
0,0,"bg_ep.jpg",0,0
//Break Periods
//Storyboard Layer 0 (Background)
//Storyboard Layer 1 (Fail)
//Storyboard Layer 2 (Pass)
//Storyboard Layer 3 (Foreground)
//Storyboard Sound Samples

[TimingPoints]
275,658.056934258631,4,2,0,70,1,0
937,658.056934258631,4,2,0,70,1,0
2911,656.826934258631,4,2,0,70,1,0
8160,656.381529205863,4,2,0,70,1,0
10787,656.311529205863,4,2,0,70,1,0
13408,656.596431145572,4,2,0,70,1,0
14067,656.596431145572,4,2,0,60,1,0
14392,656.596431145572,4,2,0,60,1,0
16033,657.176431145572,4,2,0,60,1,0
18015,657.176431145572,4,2,0,60,1,0
18661,656.742556917688,4,2,0,60,1,0
19317,-100,4,2,1,45,0,0
19646,-100,4,2,0,60,0,0
20640,656.836431145572,4,2,0,60,1,0
21292,667.996934258633,4,2,0,60,1,0
21292,-90.9090909090909,4,2,0,60,0,0
21960,657.606934258631,4,2,1,45,1,0
21960,-100,4,2,1,45,0,0
22617,-100,4,2,1,60,0,0
23265,657.676934258631,4,2,1,45,1,0
23265,-100,4,2,1,45,0,0
23921,656.826934258631,4,2,1,60,1,0
29177,656.742556917688,4,2,1,45,1,0
29177,-104.166666666667,4,2,1,45,0,0
30158,656.742556917688,4,2,0,60,1,0
31145,656.826934258631,4,2,0,60,1,0
31801,-90.9090909090909,4,2,0,60,0,0
32458,-100,4,2,1,45,0,0
32460,657.026934258631,4,2,1,45,1,0
33117,657.172179388895,4,2,1,60,1,0
33774,-100,4,2,1,45,0,0
34430,657.172179388895,4,2,0,60,1,0
40344,-100,4,2,1,45,0,0
40672,657.102179388895,4,2,0,60,1,0
41657,656.95828314902,4,2,0,60,1,0
42310,657.032179388895,4,2,0,60,1,0
42310,-90.9090909090909,4,2,0,60,0,0
42967,-90.9090909090909,4,2,1,45,0,0
43299,657.032179388895,4,2,1,60,1,0
44284,-100,4,2,1,45,0,0
44937,661.157024793388,4,2,0,70,1,0
44937,-100,4,2,0,70,0,0
45928,657.100659340659,4,2,0,70,1,0
47568,656.456358659952,4,2,0,70,1,0
48556,656.742556917688,4,2,0,70,1,0
49542,656.742556917688,4,2,0,70,1,0
50197,656.742556917688,4,2,0,70,1,0
55455,656.826934258631,4,2,0,80,1,1
55455,-90.9090909090909,4,2,0,80,0,1
56111,-90.9090909090909,4,2,1,60,0,1
56754,657.186934258631,4,2,0,80,1,1
56754,-90.9090909090909,4,2,0,80,0,1
58073,657.186934258631,4,2,0,80,1,1
58073,-90.9090909090909,4,2,0,80,0,1
58730,-90.9090909090909,4,2,1,60,0,1
59387,-90.9090909090909,4,2,0,80,0,1
61360,657.896934258631,4,2,0,80,1,1
61360,-90.9090909090909,4,2,0,80,0,1
62680,656.826934258631,4,2,0,80,1,1
62680,-90.9090909090909,4,2,0,80,0,1
63333,656.826934258631,4,2,0,80,1,1
63333,-90.9090909090909,4,2,0,80,0,1
64647,656.826934258631,4,2,0,80,1,1
64647,-90.9090909090909,4,2,0,80,0,1
65634,656.826934258631,4,2,0,80,1,1
65634,-90.9090909090909,4,2,0,80,0,1
65962,-90.9090909090909,4,2,0,80,0,1
66619,-90.9090909090909,4,2,1,60,0,1
67272,656.826934258631,4,2,0,80,1,1
67272,-90.9090909090909,4,2,0,80,0,1
67934,656.826934258631,4,2,0,80,1,1
67934,-90.9090909090909,4,2,0,80,0,1
68586,656.826934258631,4,2,0,80,1,1
68586,-90.9090909090909,4,2,0,80,0,1
69242,-90.9090909090909,4,2,1,60,0,1
69899,-90.9090909090909,4,2,0,80,0,1
75816,656.826934258631,4,2,0,80,1,1
75816,-90.9090909090909,4,2,0,80,0,1
76472,-100,4,2,0,80,0,1
77129,-90.9090909090909,4,2,1,60,0,1
77458,656.826934258631,4,2,0,80,1,1
77458,-90.9090909090909,4,2,0,80,0,1
77787,651.996934258629,4,2,0,80,1,1
77787,-90.9090909090909,4,2,0,80,0,1
78439,656.886934258631,4,2,0,80,1,1
78439,-90.9090909090909,4,2,0,80,0,1
79095,-90.9090909090909,4,2,0,80,0,1
79752,-90.9090909090909,4,2,1,60,0,1
80409,-90.9090909090909,4,2,0,80,0,1
85664,656.706934258633,4,2,0,80,1,1
85664,-90.9090909090909,4,2,0,80,0,1
86977,-90.9090909090909,4,2,0,80,0,1
87635,656.706934258633,4,2,1,60,1,1
87635,-90.9090909090909,4,2,1,60,0,1
88291,-90.9090909090909,4,2,0,80,0,1
88947,656.706934258633,4,2,0,80,1,1
88947,-90.9090909090909,4,2,0,80,0,1
89603,-90.9090909090909,4,2,0,80,0,1
89604,656.706934258633,4,2,0,80,1,1
89604,-90.9090909090909,4,2,0,80,0,1
90260,-90.9090909090909,4,2,1,60,0,1
90917,-90.9090909090909,4,2,0,80,0,1
97484,657.102179388895,4,2,0,70,1,0
98798,-100,4,2,0,60,0,0
100440,-100,4,2,0,50,0,0
102076,657.102179388895,4,2,0,30,1,0
102404,728.111506849315,4,2,0,30,1,0
102768,-100,4,2,0,20,0,0

[Colours]
Combo1 : 238,221,162
Combo2 : 0,0,160
Combo3 : 172,182,213
Combo4 : 128,64,0

[HitObjects]
18,299,10787,6,0,L|127:282,1,110,2|2,0:0|1:2,0:0:0:0:
147,174,12099,2,0,L|38:191,2,110,2|2|2,0:0|1:2|0:0,0:0:0:0:
256,157,14067,1,0,1:0:0:0:
473,190,15376,1,0,1:0:0:0:
388,259,16033,6,0,P|430:291|490:299,2,110,2|0|0,0:0|1:0|0:0,0:0:0:0:
286,220,18015,1,0,1:0:0:0:
175,221,18661,2,0,P|81:183|92:80,1,220
201,57,20640,1,0,1:0:0:0:
303,93,21292,6,0,B|362:127|364:192|364:192|409:235|474:225,2,238.000007385254,2|2|0,0:0|0:0|0:0,0:0:0:0:
256,192,24577,1,0,1:0:0:0:
90,337,25891,1,0,1:0:0:0:
67,229,26548,6,0,P|38:180|24:128,2,110,2|0|0,0:0|1:0|0:0,0:0:0:0:
167,274,28518,1,0,1:0:0:0:
275,297,29177,2,0,P|354:337|456:284,1,210.538461538462
361,225,31143,1,0,1:0:0:0:
259,179,31801,6,0,P|354:112|455:167,2,242.000007385254,2|2|0,0:0|0:0|0:0,0:0:0:0:
361,225,35087,1,0,1:0:0:0:
187,360,36401,1,0,1:0:0:0:
110,280,37058,6,0,P|66:305|8:319,2,110,2|0|0,0:0|1:0|0:0,0:0:0:0:
177,192,39030,1,0,1:0:0:0:
200,84,39687,2,0,B|251:59|306:80|306:80|359:100|413:76,1,220,0|0,0:0|0:0,0:0:0:0:
485,160,41657,1,0,1:0:0:0:
490,270,42310,6,0,B|424:272|388:215|388:215|329:247|271:211,2,242.000007385254,2|2|0,0:0|0:0|0:0,0:0:0:0:
485,160,45598,2,0,P|420:77|332:119,1,219,0|0,1:0|1:0,0:0:0:0:
256,323,48224,1,0,1:0:0:0:
116,155,49542,1,0,1:0:0:0:
286,15,50853,6,0,L|340:32,1,55,0|4,1:0|1:2,0:0:0:0:
398,186,52167,1,4,1:2:0:0:
371,292,52823,2,0,P|392:343|433:378,2,110,0|0|0,1:0|1:0|1:0,0:0:0:0:
376,182,54794,1,0,1:0:0:0:
447,88,55455,6,0,B|351:24|191:152|95:88,1,360.2,4|0,0:0|1:0,0:0:0:0:
95,208,58073,2,0,B|191:272|351:144|447:208,1,363.000011077881,2|0,0:0|1:0,0:0:0:0:
508,312,60701,5,4,0:0:0:0:
387,313,61360,1,0,1:0:0:0:
478,88,62680,1,0,1:0:0:0:
357,87,63333,1,0,0:0:0:0:
240,118,63989,2,0,P|271:173|319:203,2,121.000003692627,0|0|0,1:0|0:0|1:0,0:0:0:0:
153,33,65962,6,0,B|97:119|154:203|154:203|211:285|155:373,1,363.3,4|0,0:0|1:0,0:0:0:0:
45,321,68586,2,0,B|74:222|175:212|175:212|275:203|306:103,1,363.000011077881,2|0,0:0|1:0,0:0:0:0:
374,4,71213,5,0,0:0:0:0:
438,106,71870,2,0,P|459:222|400:325,1,242.000007385254,0|4,1:0|1:2,0:0:0:0:
279,336,73840,1,0,0:0:0:0:
269,215,74497,2,0,P|206:211|151:228,2,121.000003692627,4|0|0,1:2|1:0|1:0,0:0:0:0:
388,236,76472,6,0,P|431:72|280:23,1,329.150010154724,4|0,0:0|1:0,0:0:0:0:
209,120,79095,2,0,P|316:251|445:156,1,363.000011077881,2|0,0:0|1:0,0:0:0:0:
328,131,81723,5,4,0:0:0:0:
280,21,82380,1,0,1:0:0:0:
38,31,83694,1,0,1:0:0:0:
86,141,84350,1,0,0:0:0:0:
157,238,85007,2,0,P|102:259|41:252,2,121.000003692627,0|0|0,1:0|0:0|1:0,0:0:0:0:
265,183,86977,6,0,P|392:262|259:304,1,363.000011077881,4|0,0:0|1:0,0:0:0:0:
157,238,89603,2,0,P|23:279|150:358,1,363.000011077881,2|0,0:0|1:0,0:0:0:0:
259,304,92230,5,4,0:0:0:0:
262,182,92887,2,0,P|170:108|51:101,1,242.000007385254,0|0,1:0|1:0,0:0:0:0:
4,213,94857,1,0,0:0:0:0:
65,317,95514,2,0,P|125:331|188:325,2,121.000003692627,0|0|0,1:0|0:0|1:0,0:0:0:0:
256,192,97484,12,2,102768,0:0:0:0:
