osu file format v14

[General]
AudioFilename: audio.mp3
AudioLeadIn: 0
PreviewTime: 56147
Countdown: 0
SampleSet: Soft
StackLeniency: 0.3
Mode: 0
LetterboxInBreaks: 0
WidescreenStoryboard: 0

[Editor]
Bookmarks: 1065,10316,19526,37985,56441,74058,78372,96817,115291,140576,149807,154514,156813,159142,173233,175263,179923,215686
DistanceSpacing: 1.3
BeatDivisor: 8
GridSize: 8
TimelineZoom: 2.5

[Metadata]
Title:Zokkon
TitleUnicode:ゾッコン
Artist:MONO NO AWARE
ArtistUnicode:MONO NO AWARE
Creator:Cubby
Version:Shunao's Hard
Source:海辺のエトランゼ
Tags:Ark with a Line L'étranger de la Plage 行列のできる方舟 addy2607 shota on osu Shunao Cubbby Chompy arronchu1207 haruto The Stranger by the Beach Umibe no Étranger Mio Chibana Hashimoto Shun yaoi bl boys love rock japanese j-rock KaedeharaKazuha chu モノノアワレ movie
BeatmapID:3444283
BeatmapSetID:1525899

[Difficulty]
HPDrainRate:4
CircleSize:3.2
OverallDifficulty:4.5
ApproachRate:7
SliderMultiplier:1.1
SliderTickRate:0.5

[Events]
//Background and Video events
0,0,"wp8634609-umibe-no-etranger-wallpapers_waifu2x_art_noise1_scale_tta_1.jpg",0,0
//Break Periods
2,17425,18626
2,140896,149021
2,212425,214786
//Storyboard Layer 0 (Background)
//Storyboard Layer 1 (Fail)
//Storyboard Layer 2 (Pass)
//Storyboard Layer 3 (Foreground)
//Storyboard Layer 4 (Overlay)
//Storyboard Sound Samples

[TimingPoints]
1065,288.461538461538,4,2,2,40,1,0
1065,-100.351229302559,4,2,2,40,0,0
1363,288.461538461538,4,2,2,50,1,0
1931,288.461538461538,4,2,2,50,1,0
2239,288.461538461538,4,2,2,50,1,0
2323,288.461538461538,4,2,2,40,1,0
2529,288.461538461538,4,2,2,40,1,0
2668,288.461538461538,4,2,2,40,1,0
2814,288.461538461538,4,2,2,40,1,0
2952,288.461538461538,4,2,2,40,1,0
3084,-100,4,2,2,50,0,0
3384,288.461538461538,4,2,2,40,1,0
3672,-100,4,2,2,50,0,0
4264,288.461538461538,4,2,2,50,1,0
4415,288.461538461538,4,2,2,50,1,0
4566,288.461538461538,4,2,2,40,1,0
4566,-94.3396226415094,4,2,2,40,0,0
4846,288.461538461538,4,2,2,40,1,0
4969,288.461538461538,4,2,2,40,1,0
5113,-103.092783505155,4,2,2,40,0,0
5267,288.461538461538,4,2,2,40,1,0
5680,-100,4,2,2,50,0,0
5691,288.461538461538,4,2,2,40,1,0
5691,-100,4,2,2,40,0,0
5968,-100,4,2,2,50,0,0
6553,288.461538461538,4,2,2,50,1,0
6846,288.461538461538,4,2,2,50,1,0
7142,288.461538461538,4,2,2,40,1,0
7283,288.461538461538,4,2,2,40,1,0
7424,288.461538461538,4,2,2,40,1,0
7699,-100,4,2,2,50,0,0
7712,-100,4,2,2,50,0,0
8875,288.461538461538,4,2,2,50,1,0
9178,288.461538461538,4,2,2,40,1,0
9178,-93.0232558139535,4,2,2,40,0,0
9312,288.461538461538,4,2,2,40,1,0
9448,288.461538461538,4,2,2,40,1,0
9587,288.461538461538,4,2,2,40,1,0
9733,288.461538461538,4,2,2,50,1,0
9733,-103.626943005181,4,2,2,50,0,0
10031,288.461538461538,4,2,2,50,1,0
10316,288.461538461538,4,2,2,50,1,0
10316,-125,4,2,2,50,0,0
12919,288.461538461538,4,2,2,40,1,0
12919,-123.456790123457,4,2,2,40,0,0
13204,288.461538461538,4,2,2,40,1,0
13204,-125,4,2,2,40,0,0
13481,288.461538461538,4,2,2,40,1,0
13481,-125,4,2,2,40,0,0
14054,288.461538461538,4,2,2,40,1,0
14054,-125,4,2,2,40,0,0
14629,288.461538461538,4,2,2,50,1,0
14629,-125,4,2,2,50,0,0
18386,288.461538461538,4,2,2,40,1,0
18525,288.461538461538,4,2,2,40,1,0
18666,288.461538461538,4,2,2,40,1,0
18800,288.461538461538,4,2,2,40,1,0
18961,288.461538461538,4,2,2,40,1,0
19238,288.461538461538,4,2,2,40,1,0
19526,288.461538461538,4,2,2,50,1,0
19526,-125,4,2,2,40,0,0
22404,288.461538461538,4,2,2,40,1,0
22404,-125,4,2,2,40,0,0
23261,288.461538461538,4,2,2,40,1,0
23261,-125,4,2,2,40,0,0
24126,288.461538461538,4,2,2,40,1,0
24126,-121.951219512195,4,2,2,40,0,0
24401,288.461538461538,4,2,2,40,1,0
24977,-125,4,2,2,40,0,0
26420,-119.760479041916,4,2,2,40,0,0
26695,288.461538461538,4,2,2,40,1,0
26983,-125,4,2,2,40,0,0
27870,288.461538461538,4,2,2,40,1,0
27870,-125,4,2,2,40,0,0
28750,288.461538461538,4,2,2,40,1,0
28750,-117.924528301887,4,2,2,40,0,0
29022,288.461538461538,4,2,2,40,1,0
29022,-125,4,2,2,40,0,0
30769,288.461538461538,4,2,2,40,1,0
30769,-125,4,2,2,40,0,0
31641,288.461538461538,4,2,2,40,1,0
31641,-125,4,2,2,40,0,0
32217,288.461538461538,4,2,2,40,1,0
32217,-125,4,2,2,40,0,0
35668,288.461538461538,4,2,2,40,1,0
35668,-125,4,2,2,40,0,0
36543,288.461538461538,4,2,2,40,1,0
36543,-125,4,2,2,40,0,0
37985,-111.111111111111,4,2,2,40,0,0
39424,288.461538461538,4,2,2,40,1,0
39424,-111.111111111111,4,2,2,40,0,0
40289,-109.89010989011,4,2,2,40,0,0
40572,288.461538461538,4,2,2,40,1,0
40572,-111.111111111111,4,2,2,40,0,0
41738,288.461538461538,4,2,2,40,1,0
41738,-111.111111111111,4,2,2,40,0,0
42603,-110.497237569061,4,2,2,40,0,0
42888,288.461538461538,4,2,2,40,1,0
42888,-111.111111111111,4,2,2,40,0,0
43753,-116.279069767442,4,2,2,40,0,0
44053,288.461538461538,4,2,2,40,1,0
44053,-111.111111111111,4,2,2,40,0,0
44328,288.461538461538,4,2,2,40,1,0
44328,-111.111111111111,4,2,2,40,0,0
46063,288.461538461538,4,2,2,40,1,0
46063,-111.111111111111,4,2,2,40,0,0
46916,288.461538461538,4,2,2,40,1,0
46916,-111.111111111111,4,2,2,40,0,0
48646,-113.636363636364,4,2,2,40,0,0
48797,288.461538461538,4,2,2,40,1,0
48797,-111.111111111111,4,2,2,40,0,0
49518,-114.942528735632,4,2,2,40,0,0
49821,288.461538461538,4,2,2,40,1,0
49821,-111.111111111111,4,2,2,40,0,0
50119,288.461538461538,4,2,2,40,1,0
50119,-111.111111111111,4,2,2,40,0,0
54139,288.461538461538,4,2,2,40,1,0
54139,-111.111111111111,4,2,2,40,0,0
54437,288.461538461538,4,2,2,40,1,0
54437,-111.111111111111,4,2,2,40,0,0
55592,288.461538461538,4,2,2,40,1,0
55592,-106.382978723404,4,2,2,40,0,0
55867,288.461538461538,4,2,2,40,1,0
55867,-111.111111111111,4,2,2,40,0,0
56011,-105.263157894737,4,2,2,40,0,0
56147,288.461538461538,4,2,2,40,1,0
56147,-119.047619047619,4,2,2,40,0,0
56300,288.461538461538,4,2,2,40,1,0
56441,288.461538461538,4,2,2,50,1,0
56441,-90.9090909090909,4,2,2,50,0,0
57313,288.461538461538,4,2,2,50,1,0
57313,-90.9090909090909,4,2,2,50,0,0
57603,288.461538461538,4,2,2,50,1,0
57603,-90.9090909090909,4,2,2,50,0,0
57885,288.461538461538,4,2,2,50,1,0
57885,-88.4955752212389,4,2,2,50,0,0
58165,288.461538461538,4,2,2,50,1,0
58165,-90.9090909090909,4,2,2,50,0,0
58460,288.461538461538,4,2,2,50,1,0
58460,-90.9090909090909,4,2,2,50,0,0
59043,288.461538461538,4,2,2,50,1,0
59043,-90.9090909090909,4,2,2,50,0,0
60341,-91.743119266055,4,2,2,50,0,0
60487,288.461538461538,4,2,2,40,1,0
60631,-90.9090909090909,4,2,2,50,0,0
60764,288.461538461538,4,2,2,40,1,0
61052,-90.9090909090909,4,2,2,50,0,0
61497,288.461538461538,4,2,2,40,1,0
61497,-90.9090909090909,4,2,2,40,0,0
61641,288.461538461538,4,2,2,50,1,0
61641,-90.9090909090909,4,2,2,50,0,0
62224,288.461538461538,4,2,2,50,1,0
62224,-90.9090909090909,4,2,2,50,0,0
63375,288.461538461538,4,2,2,50,1,0
63375,-87.719298245614,4,2,2,50,0,0
63652,288.461538461538,4,2,2,50,1,0
63652,-90.9090909090909,4,2,2,50,0,0
64217,288.461538461538,4,2,2,50,1,0
64217,-89.2857142857143,4,2,2,50,0,0
64502,288.461538461538,4,2,2,40,1,0
64502,-90.9090909090909,4,2,2,40,0,0
64800,288.461538461538,4,2,2,40,1,0
64814,-100,4,2,2,50,0,0
64927,288.461538461538,4,2,2,40,1,0
64927,-90.9090909090909,4,2,2,40,0,0
65097,288.461538461538,4,2,2,40,1,0
65097,-90.9090909090909,4,2,2,40,0,0
65384,288.461538461538,4,2,2,40,1,0
65384,-90.9090909090909,4,2,2,40,0,0
65691,288.461538461538,4,2,2,50,1,0
65691,-87.3362445414847,4,2,2,50,0,0
65968,288.461538461538,4,2,2,50,1,0
65968,-90.9090909090909,4,2,2,50,0,0
66267,288.461538461538,4,2,2,50,1,0
66267,-90.9090909090909,4,2,2,50,0,0
67132,-88.1057268722467,4,2,2,50,0,0
67411,288.461538461538,4,2,2,50,1,0
67411,-90.9090909090909,4,2,2,50,0,0
71172,288.461538461538,4,2,2,50,1,0
71172,-90.9090909090909,4,2,2,50,0,0
71604,-98.0392156862745,4,2,2,50,0,0
71760,288.461538461538,4,2,2,50,1,0
71760,-91.324200913242,4,2,2,50,0,0
72619,288.461538461538,4,2,2,50,1,0
72619,-87.3362445414847,4,2,2,50,0,0
72896,288.461538461538,4,2,2,50,1,0
72896,-90.9090909090909,4,2,2,50,0,0
73763,288.461538461538,4,2,2,50,1,0
73763,-90.9090909090909,4,2,2,50,0,0
74058,288.461538461538,4,2,2,30,1,0
74058,-111.111111111111,4,2,2,30,0,0
74903,288.461538461538,4,2,2,30,1,0
74903,-113.636363636364,4,2,2,30,0,0
75200,288.461538461538,4,2,2,40,1,0
75200,-111.111111111111,4,2,2,40,0,0
75349,288.461538461538,4,2,2,40,1,0
75349,-111.111111111111,4,2,2,40,0,0
75665,288.461538461538,4,2,2,40,1,0
75665,-111.111111111111,4,2,2,40,0,0
75784,288.461538461538,4,2,2,40,1,0
75784,-112.994350282486,4,2,2,40,0,0
76079,288.461538461538,4,2,2,40,1,0
76079,-111.111111111111,4,2,2,40,0,0
76497,-111.111111111111,4,2,2,30,0,0
76797,288.461538461538,4,2,2,40,1,0
76797,-111.111111111111,4,2,2,40,0,0
77218,-110.132158590308,4,2,2,30,0,0
77657,288.461538461538,4,2,2,40,1,0
77657,-111.111111111111,4,2,2,40,0,0
77960,288.461538461538,4,2,2,40,1,0
77960,-111.111111111111,4,2,2,40,0,0
78089,288.461538461538,4,2,2,40,1,0
78089,-111.111111111111,4,2,2,40,0,0
78372,288.461538461538,4,2,2,30,1,0
78372,-122.699386503067,4,2,2,30,0,0
78938,288.461538461538,4,2,2,30,1,0
78938,-125,4,2,2,30,0,0
80081,288.461538461538,4,2,2,30,1,0
80081,-125,4,2,2,30,0,0
80664,288.461538461538,4,2,2,40,1,0
80664,-125,4,2,2,40,0,0
80964,288.461538461538,4,2,2,40,1,0
80964,-125,4,2,2,40,0,0
81257,288.461538461538,4,2,2,30,1,0
81257,-125,4,2,2,30,0,0
81850,288.461538461538,4,2,2,30,1,0
81850,-125,4,2,2,30,0,0
82426,-115.606936416185,4,2,2,30,0,0
82824,288.461538461538,4,2,2,40,1,0
82824,-125,4,2,2,40,0,0
82994,288.461538461538,4,2,2,30,1,0
82994,-125,4,2,2,30,0,0
87306,288.461538461538,4,2,2,30,1,0
87306,-125,4,2,2,30,0,0
87612,288.461538461538,4,2,2,40,1,0
87612,-125,4,2,2,40,0,0
88036,-125,4,2,2,30,0,0
89069,288.461538461538,4,2,2,40,1,0
89198,288.461538461538,4,2,2,30,1,0
89198,-125,4,2,2,30,0,0
89486,-125,4,2,2,30,0,0
90928,-121.212121212121,4,2,2,30,0,0
91059,288.461538461538,4,2,2,40,1,0
91635,-125,4,2,2,40,0,0
92209,288.461538461538,4,2,2,40,1,0
92209,-125,4,2,2,40,0,0
93362,-125,4,2,2,30,0,0
94531,288.461538461538,4,2,2,30,1,0
94531,-125,4,2,2,30,0,0
94955,288.461538461538,4,2,2,30,1,0
94955,-125,4,2,2,30,0,0
95374,288.461538461538,4,2,2,30,1,0
95374,-125,4,2,2,30,0,0
95671,288.461538461538,4,2,2,30,1,0
95671,-125,4,2,2,30,0,0
96229,288.461538461538,4,2,2,40,1,0
96229,-125,4,2,2,40,0,0
96817,288.461538461538,4,2,2,50,1,0
96817,-95.2380952380952,4,2,2,50,0,0
97119,288.461538461538,4,2,2,50,1,0
97119,-90.9090909090909,4,2,2,50,0,0
97411,288.461538461538,4,2,2,50,1,0
97411,-90.9090909090909,4,2,2,50,0,0
99440,288.461538461538,4,2,2,50,1,0
99440,-90.9090909090909,4,2,2,50,0,0
100882,-97.0873786407767,4,2,2,50,0,0
101036,288.461538461538,4,2,2,50,1,0
101036,-90.9090909090909,4,2,2,50,0,0
101167,288.461538461538,4,2,2,40,1,0
101167,-90.9090909090909,4,2,2,40,0,0
101468,288.461538461538,4,2,2,50,1,0
101468,-87.3362445414847,4,2,2,50,0,0
101745,288.461538461538,4,2,2,50,1,0
101745,-90.9090909090909,4,2,2,50,0,0
101889,-94.3396226415094,4,2,2,50,0,0
102045,288.461538461538,4,2,2,50,1,0
102045,-90.9090909090909,4,2,2,50,0,0
103775,-87.9507475813544,4,2,2,50,0,0
104053,288.461538461538,4,2,2,50,1,0
104053,-90.9090909090909,4,2,2,50,0,0
104194,288.461538461538,4,2,2,50,1,0
104194,-90.9090909090909,4,2,2,50,0,0
104622,288.461538461538,4,2,2,50,1,0
104622,-89.2857142857143,4,2,2,50,0,0
104904,288.461538461538,4,2,2,40,1,0
104904,-90.9090909090909,4,2,2,40,0,0
105769,-90.9090909090909,4,2,2,50,0,0
106064,288.461538461538,4,2,2,50,1,0
106064,-93.8967136150235,4,2,2,50,0,0
106361,288.461538461538,4,2,2,50,1,0
106361,-90.9090909090909,4,2,2,50,0,0
109548,288.461538461538,4,2,2,50,1,0
109548,-94.7867298578199,4,2,2,50,0,0
109821,288.461538461538,4,2,2,50,1,0
109821,-90.9090909090909,4,2,2,50,0,0
111565,288.461538461538,4,2,2,50,1,0
111565,-90.9090909090909,4,2,2,50,0,0
113007,-87.3362445414847,4,2,2,50,0,0
113284,288.461538461538,4,2,2,50,1,0
113284,-90.9090909090909,4,2,2,50,0,0
114141,288.461538461538,4,2,2,50,1,0
114141,-90.9090909090909,4,2,2,50,0,0
114573,-90.5797101449275,4,2,2,50,0,0
115003,288.461538461538,4,2,2,50,1,0
115003,-90.9090909090909,4,2,2,50,0,0
115291,-95.2380952380952,4,2,2,50,0,0
115716,288.461538461538,4,2,2,40,1,0
115872,288.461538461538,4,2,2,50,1,0
116136,288.461538461538,4,2,2,50,1,0
116432,288.461538461538,4,2,2,40,1,0
116720,-100,4,2,2,50,0,0
116868,288.461538461538,4,2,2,50,1,0
116868,-97.5609756097561,4,2,2,50,0,0
117290,288.461538461538,4,2,2,50,1,0
117595,288.461538461538,4,2,2,50,1,0
117595,-94.7867298578199,4,2,2,50,0,0
117867,288.461538461538,4,2,2,50,1,0
118308,288.461538461538,4,2,2,50,1,0
118462,288.461538461538,4,2,2,50,1,0
119324,288.461538461538,4,2,2,40,1,0
119612,-100,4,2,2,50,0,0
120348,288.461538461538,4,2,2,40,1,0
120494,288.461538461538,4,2,2,40,1,0
120494,-101.010101010101,4,2,2,40,0,0
120643,288.461538461538,4,2,2,40,1,0
120784,288.461538461538,4,2,2,40,1,0
120939,288.461538461538,4,2,2,40,1,0
121088,288.461538461538,4,2,2,40,1,0
121235,288.461538461538,4,2,2,40,1,0
121383,288.461538461538,4,2,2,40,1,0
121383,-111.111111111111,4,2,2,40,0,0
121472,288.461538461538,4,2,2,40,1,0
121545,288.461538461538,4,2,2,40,1,0
121684,288.461538461538,4,2,2,40,1,0
121965,288.461538461538,4,2,2,40,1,0
122262,288.461538461538,4,2,2,50,1,0
123114,288.461538461538,4,2,2,50,1,0
124257,288.461538461538,4,2,2,50,1,0
124559,288.461538461538,4,2,2,50,1,0
124559,-85.4700854700855,4,2,2,50,0,0
124827,288.461538461538,4,2,2,50,1,0
124973,288.461538461538,4,2,2,50,1,0
126848,-97.0873786407767,4,2,2,50,0,0
127133,288.461538461538,4,2,2,50,1,0
127271,288.461538461538,4,2,2,50,1,0
127553,288.461538461538,4,2,2,50,1,0
127992,288.461538461538,4,2,2,50,1,0
128869,288.461538461538,4,2,2,50,1,0
129145,288.461538461538,4,2,2,40,1,0
129145,-95.2380952380952,4,2,2,40,0,0
129212,288.461538461538,4,2,2,40,1,0
129286,-100,4,2,2,50,0,0
129418,288.461538461538,4,2,2,40,1,0
129716,288.461538461538,4,2,2,40,1,0
130011,288.461538461538,4,2,2,40,1,0
130594,288.461538461538,4,2,2,40,1,0
130872,-100,4,2,2,50,0,0
131182,288.461538461538,4,2,2,40,1,0
131470,-100,4,2,2,50,0,0
132039,288.461538461538,4,2,2,50,1,0
132615,-98.5221674876847,4,2,2,50,0,0
132747,288.461538461538,4,2,2,40,1,0
132901,288.461538461538,4,2,2,50,1,0
133489,288.461538461538,4,2,2,50,1,0
133781,288.461538461538,4,2,2,50,1,0
134633,288.461538461538,4,2,2,50,1,0
136075,-96.1538461538461,4,2,2,50,0,0
136357,288.461538461538,4,2,2,50,1,0
136778,288.461538461538,4,2,2,50,1,0
137504,288.461538461538,4,2,2,40,1,0
137651,-100,4,2,2,50,0,0
137655,288.461538461538,4,2,2,50,1,0
138365,288.461538461538,4,2,2,50,1,0
138629,288.461538461538,4,2,2,40,1,0
138762,288.461538461538,4,2,2,50,1,0
138931,288.461538461538,4,2,2,50,1,0
139116,288.461538461538,4,2,2,50,1,0
139331,288.461538461538,4,2,2,50,1,0
139533,288.461538461538,4,2,2,40,1,0
139933,288.461538461538,4,2,2,40,1,0
140120,288.461538461538,4,2,2,50,1,0
149921,288.461538461538,4,2,2,30,1,0
149921,-142.857142857143,4,2,2,30,0,0
151658,288.461538461538,4,2,2,30,1,0
151658,-133.689839572192,4,2,2,30,0,0
152201,288.461538461538,4,2,2,30,1,0
152201,-142.857142857143,4,2,2,30,0,0
152767,288.461538461538,4,2,2,30,1,0
152767,-142.857142857143,4,2,2,30,0,0
154514,288.461538461538,4,2,2,30,1,0
154514,-125,4,2,2,30,0,0
155372,288.461538461538,4,2,2,40,1,0
155653,288.461538461538,4,2,2,40,1,0
155653,-166.666666666667,4,2,2,40,0,0
156813,288.461538461538,4,2,2,30,1,0
156813,-111.111111111111,4,2,2,30,0,0
157693,288.461538461538,4,2,2,30,1,0
157981,-109.289617486339,4,2,2,30,0,0
158267,288.461538461538,4,2,2,30,1,0
158555,-111.111111111111,4,2,2,30,0,0
159142,288.461538461538,4,2,2,30,1,0
159142,-123.915737298637,4,2,2,30,0,0
159425,288.461538461538,4,2,2,30,1,0
159713,-125,4,2,2,30,0,0
159999,288.461538461538,4,2,2,30,1,0
159999,-125,4,2,2,30,0,0
160864,-123.456790123457,4,2,2,30,0,0
161147,288.461538461538,4,2,2,30,1,0
161435,-124.378109452736,4,2,2,30,0,0
161731,288.461538461538,4,2,2,30,1,0
162019,-125,4,2,2,30,0,0
164620,288.461538461538,4,2,2,30,1,0
164908,-116.279069767442,4,2,2,30,0,0
165188,288.461538461538,4,2,2,30,1,0
165476,-123.456790123457,4,2,2,30,0,0
165766,288.461538461538,4,2,2,30,1,0
166060,288.461538461538,4,2,2,30,1,0
166060,-122.699386503067,4,2,2,30,0,0
166345,288.461538461538,4,2,2,30,1,0
166633,-125,4,2,2,30,0,0
168070,288.461538461538,4,2,2,30,1,0
168358,-125,4,2,2,30,0,0
168935,-120.481927710843,4,2,2,30,0,0
169216,288.461538461538,4,2,2,30,1,0
169504,-125,4,2,2,30,0,0
170663,288.461538461538,4,2,2,40,1,0
170663,-121.951219512195,4,2,2,40,0,0
170946,288.461538461538,4,2,2,40,1,0
171234,-125,4,2,2,40,0,0
171667,-124.223602484472,4,2,2,40,0,0
172109,288.461538461538,4,2,2,40,1,0
172382,288.461538461538,4,2,2,30,1,0
172382,-125,4,2,2,30,0,0
172665,288.461538461538,4,2,2,30,1,0
173233,288.461538461538,4,2,2,30,1,0
173233,-111.111111111111,4,2,2,30,0,0
174975,288.461538461538,4,2,2,30,1,0
174975,-125,4,2,2,30,0,0
175263,-100,4,2,2,30,0,0
176425,288.461538461538,4,2,2,30,1,0
177588,288.461538461538,4,2,2,30,1,0
177884,288.461538461538,4,2,2,40,1,0
178024,288.461538461538,4,2,2,40,1,0
178161,288.461538461538,4,2,2,40,1,0
178161,-106.382978723404,4,2,2,40,0,0
178319,288.461538461538,4,2,2,40,1,0
178465,288.461538461538,4,2,2,40,1,0
178919,288.461538461538,4,2,2,40,1,0
179068,288.461538461538,4,2,2,40,1,0
179202,288.461538461538,4,2,2,40,1,0
179353,288.461538461538,4,2,2,40,1,0
179797,288.461538461538,4,2,2,40,1,0
179923,288.461538461538,4,2,2,50,1,0
179923,-90.9090909090909,4,2,2,50,0,0
180225,288.461538461538,4,2,2,50,1,0
180225,-90.9090909090909,4,2,2,50,0,0
180500,288.461538461538,4,2,2,50,1,0
180500,-90.9090909090909,4,2,2,50,0,0
180782,288.461538461538,4,2,2,50,1,0
180782,-90.9090909090909,4,2,2,50,0,0
181355,288.461538461538,4,2,2,50,1,0
181355,-90.9090909090909,4,2,2,50,0,0
182515,288.461538461538,4,2,2,50,1,0
182515,-90.9090909090909,4,2,2,50,0,0
183380,-88.4955752212389,4,2,2,50,0,0
183660,288.461538461538,4,2,2,50,1,0
183660,-90.9090909090909,4,2,2,50,0,0
184525,-84.7457627118644,4,2,2,50,0,0
184803,288.461538461538,4,2,2,50,1,0
184803,-90.9090909090909,4,2,2,50,0,0
184959,288.461538461538,4,2,2,50,1,0
184959,-90.9090909090909,4,2,2,50,0,0
185103,-87.719298245614,4,2,2,50,0,0
185380,288.461538461538,4,2,2,50,1,0
185380,-94.3396226415094,4,2,2,50,0,0
185966,288.461538461538,4,2,2,50,1,0
185966,-90.9090909090909,4,2,2,50,0,0
186838,288.461538461538,4,2,2,50,1,0
186838,-89.2857142857143,4,2,2,50,0,0
187120,288.461538461538,4,2,2,50,1,0
189149,288.461538461538,4,2,2,50,1,0
189149,-94.7867298578199,4,2,2,50,0,0
189449,288.461538461538,4,2,2,50,1,0
189449,-90.9090909090909,4,2,2,50,0,0
190594,288.461538461538,4,2,2,50,1,0
190594,-90.9090909090909,4,2,2,50,0,0
191449,288.461538461538,4,2,2,50,1,0
191449,-90.9090909090909,4,2,2,50,0,0
193045,288.461538461538,4,2,2,50,1,0
193045,-90.9090909090909,4,2,2,50,0,0
193766,-86.9565217391304,4,2,2,50,0,0
194041,288.461538461538,4,2,2,50,1,0
194041,-93.4579439252336,4,2,2,50,0,0
194624,288.461538461538,4,2,2,50,1,0
194624,-90.9090909090909,4,2,2,50,0,0
195350,288.461538461538,4,2,2,50,1,0
195350,-90.9090909090909,4,2,2,50,0,0
195494,288.461538461538,4,2,2,50,1,0
195494,-90.9090909090909,4,2,2,50,0,0
196647,-90.0900900900901,4,2,2,50,0,0
196931,288.461538461538,4,2,2,50,1,0
196931,-90.9090909090909,4,2,2,50,0,0
197793,288.461538461538,4,2,2,40,1,0
197793,-90.9090909090909,4,2,2,40,0,0
198088,288.461538461538,4,2,2,50,1,0
198088,-90.9090909090909,4,2,2,50,0,0
198376,288.461538461538,4,2,2,50,1,0
198376,-90.9090909090909,4,2,2,50,0,0
198952,-88.4955752212389,4,2,2,50,0,0
199231,288.461538461538,4,2,2,50,1,0
199231,-90.9090909090909,4,2,2,50,0,0
200673,288.461538461538,4,2,2,50,1,0
200673,-90.9090909090909,4,2,2,50,0,0
201547,288.461538461538,4,2,2,50,1,0
201547,-90.9090909090909,4,2,2,50,0,0
202432,288.461538461538,4,2,2,40,1,0
202432,-90.9090909090909,4,2,2,40,0,0
202561,288.461538461538,4,2,2,40,1,0
202561,-90.9090909090909,4,2,2,40,0,0
202705,288.461538461538,4,2,2,50,1,0
203005,288.461538461538,4,2,2,50,1,0
203005,-87.719298245614,4,2,2,50,0,0
203282,288.461538461538,4,2,2,50,1,0
203433,288.461538461538,4,2,2,50,1,0
203433,-90.9090909090909,4,2,2,50,0,0
204161,288.461538461538,4,2,2,40,1,0
204161,-90.9090909090909,4,2,2,40,0,0
204417,-90.9090909090909,4,2,2,50,0,0
205314,-86.9565217391304,4,2,2,50,0,0
205588,288.461538461538,4,2,2,50,1,0
205588,-92.5925925925926,4,2,2,50,0,0
206171,288.461538461538,4,2,2,50,1,0
206171,-90.9090909090909,4,2,2,50,0,0
206603,-85.4700854700855,4,2,2,50,0,0
206881,288.461538461538,4,2,2,40,1,0
206881,-90.9090909090909,4,2,2,40,0,0
207035,288.461538461538,4,2,2,40,1,0
207035,-90.9090909090909,4,2,2,40,0,0
207188,288.461538461538,4,2,2,40,1,0
207339,288.461538461538,4,2,2,40,1,0
207339,-94.3396226415094,4,2,2,40,0,0
207475,288.461538461538,4,2,2,40,1,0
207628,288.461538461538,4,2,2,60,1,0
207628,-89.2219842969308,4,2,2,60,0,0
207910,288.461538461538,4,2,2,60,1,0
207910,-90.9090909090909,4,2,2,60,0,0
209063,-90.1713255184851,4,2,2,60,0,0
209349,288.461538461538,4,2,2,60,1,0
209349,-90.9090909090909,4,2,2,60,0,0
209925,-89.126559714795,4,2,2,60,0,0
210206,288.461538461538,4,2,2,60,1,0
210206,-90.9090909090909,4,2,2,60,0,0
210486,288.461538461538,4,2,2,60,1,0
210486,-90.9090909090909,4,2,2,60,0,0
210763,-90.9090909090909,4,2,2,50,0,0
211052,-90.9090909090909,4,2,2,60,0,0
211062,-91.5750915750916,4,2,2,60,0,0
211348,288.461538461538,4,2,2,60,1,0
211643,288.461538461538,4,2,2,60,1,0
211643,-83.3333333333333,4,2,2,60,0,0
211916,288.461538461538,4,2,2,60,1,0
211916,-83.3333333333333,4,2,2,60,0,0
212225,288.461538461538,4,2,2,40,1,0
215667,-100,4,2,2,30,0,0
215686,-125,4,2,2,30,0,0
217128,-123.456790123457,4,2,2,30,0,0
217412,288.461538461538,4,2,2,40,1,0
217412,-125,4,2,2,40,0,0
217975,288.461538461538,4,2,2,40,1,0
217975,-125,4,2,2,40,0,0
220282,-125,4,2,2,30,0,0
223167,-130.039011703511,4,2,2,30,0,0
223467,288.461538461538,4,2,2,30,1,0
224188,-122.699386503067,4,2,2,30,0,0
224324,288.461538461538,4,2,2,30,1,0
224900,288.461538461538,4,2,2,30,1,0
224900,-125,4,2,2,30,0,0
227207,-121.951219512195,4,2,2,30,0,0
227488,288.461538461538,4,2,2,30,1,0
227768,288.461538461538,4,2,2,30,1,0
227768,-125,4,2,2,30,0,0
228633,-132.450331125828,4,2,2,30,0,0
228938,288.461538461538,4,2,2,30,1,0
228938,-125,4,2,2,30,0,0
229503,288.461538461538,4,2,2,30,1,0
229503,-125,4,2,2,30,0,0
231378,-131.578947368421,4,2,2,30,0,0
231531,288.461538461538,4,2,2,30,1,0
231819,-128.205128205128,4,2,2,30,0,0
232124,288.461538461538,4,2,2,30,1,0
232262,288.461538461538,4,2,2,30,1,0
232983,288.461538461538,4,2,2,30,1,0
232983,-125,4,2,2,30,0,0
235290,-119.047619047619,4,2,2,30,0,0
235564,288.461538461538,4,2,2,30,1,0
235852,-125,4,2,2,30,0,0
236419,288.461538461538,4,2,2,40,1,0
236419,-125,4,2,2,40,0,0
237597,288.461538461538,4,2,2,40,1,0
237597,-135.135135135135,4,2,2,40,0,0
237752,288.461538461538,4,2,2,40,1,0
237752,-95.6937799043062,4,2,2,40,0,0
238027,288.461538461538,4,2,2,40,1,0
238191,288.461538461538,4,2,2,40,1,0
238191,-125,4,2,2,40,0,0
238784,288.461538461538,4,2,2,40,1,0

[Colours]
Combo1 : 255,117,83
Combo2 : 128,255,128

[HitObjects]
434,83,1065,6,0,L|325:95,1,113.425605536332,2|8,0:0|1:2,0:0:0:0:
196,22,1651,1,0,1:0:0:0:
65,70,1931,2,0,P|50:129|81:189,1,117.638888888889,8|2,1:2|0:0,0:0:0:0:
220,181,2529,1,10,0:0:0:0:
281,308,2814,1,2,0:0:0:0:
157,372,3096,1,10,0:0:0:0:
22,325,3384,6,0,P|-4:278|8:210,2,110,0|8|0,1:0|0:0|1:0,0:0:0:0:
157,372,4264,1,8,0:0:0:0:
315,362,4566,6,0,L|387:346,1,58.3000000889587,2|2,1:2|1:2,0:0:0:0:
463,360,4846,1,10,1:2:0:0:
492,274,4969,1,2,1:2:0:0:
492,274,5113,2,0,P|471:221|429:184,1,110,2|10,1:2|1:2,0:0:0:0:
384,159,5555,1,2,1:2:0:0:
292,121,5691,6,0,P|270:73|267:8,2,110,4|8|0,0:0|0:0|1:0,0:0:0:0:
226,246,6553,2,8,P|172:232|118:226,1,111.909722222222,8|2,1:2|0:0,0:0:0:0:
29,346,7142,1,8,1:2:0:0:
0,209,7424,1,0,0:0:0:0:
80,91,7712,1,8,0:0:0:0:
222,98,8000,6,0,P|253:49|246:-18,2,110,2|8|0,1:2|1:2|1:0,0:0:0:0:
80,91,8875,1,8,0:0:0:0:
29,244,9178,2,0,P|23:278|29:310,1,55,2|2,1:2|1:2,0:0:0:0:
72,369,9448,1,10,3:0:0:0:
162,344,9587,1,10,3:0:0:0:
162,344,9733,2,0,L|289:331,1,110,0|8,1:0|0:0,0:0:0:0:
396,370,10316,6,0,P|406:327|421:285,1,88,4|10,0:0|0:0,0:0:0:0:
438,236,10748,2,0,P|399:216|339:218,1,88
303,220,11181,1,10,0:0:0:0:
181,168,11469,2,0,L|172:70,1,88,2|10,1:2|1:2,0:0:0:0:
196,33,11902,2,0,P|241:15|297:4,1,88
331,21,12335,1,8,1:2:0:0:
461,39,12623,5,0,1:0:0:0:
449,179,12919,1,10,1:2:0:0:
449,179,13063,2,0,P|405:165|353:165,1,88
315,170,13481,1,10,1:2:0:0:
237,276,13769,1,2,1:2:0:0:
150,373,14054,1,10,1:2:0:0:
150,373,14198,2,0,P|93:361|48:359,1,88
12,372,14629,1,8,0:0:0:0:
4,240,14917,5,2,1:2:0:0:
0,108,15205,2,0,P|41:95|85:97,1,88,8|0,0:0|0:0,0:0:0:0:
204,154,15782,2,0,P|243:162|302:148,1,88,8|2,1:2|1:2,0:0:0:0:
412,103,16359,2,0,P|455:94|500:103,1,88,8|2,1:2|0:0,0:0:0:0:
507,234,16936,1,4,1:2:0:0:
448,352,17225,5,8,0:0:0:0:
476,151,19526,6,0,P|389:138|293:124,1,176,4|0,0:0|0:0,0:0:0:0:
196,60,20391,1,8,0:0:0:0:
94,130,20679,2,0,P|74:189|93:257,2,132,2|0|8,0:0|0:0|0:0,0:0:0:0:
200,193,21834,2,0,P|241:187|301:179,1,88,0|8,1:0|0:0,0:0:0:0:
393,123,22404,6,0,P|376:86|371:30,2,88,0|8|0,0:0|0:0|0:2,0:0:0:0:
460,229,23261,1,8,0:0:0:0:
460,229,23405,2,0,P|440:279|366:298,1,132,0|8,0:0|0:0,0:0:0:0:
243,291,24126,6,0,P|251:206|262:102,1,176
334,16,24977,1,8,0:0:0:0:
211,32,25266,2,0,P|142:39|85:15,2,132,2|0|8,0:0|0:0|0:0,0:0:0:0:
334,16,26420,2,0,L|342:116,1,88,0|8,0:0|0:0,0:0:0:0:
283,211,26983,6,0,P|248:215|205:246,1,88,0|8,0:0|0:0,0:0:0:0:
183,366,27560,1,0,0:0:0:0:
314,377,27870,2,0,P|358:371|411:363,1,88,8|0,1:2|1:0,0:0:0:0:
502,294,28446,1,8,0:0:0:0:
479,158,28750,6,0,L|487:59,1,88,6|8,1:2|0:0,0:0:0:0:
375,16,29310,1,2,0:0:0:0:
300,114,29598,1,10,0:0:0:0:
300,114,29743,2,0,L|159:93,1,132,0|8,0:0|0:0,0:0:0:0:
73,16,30464,1,2,0:0:0:0:
6,126,30769,2,0,L|11:177,1,44,10|0,1:2|0:0,0:0:0:0:
21,220,31057,6,0,P|63:205|114:211,1,88,0|10,1:0|1:2,0:0:0:0:
206,131,31641,2,0,L|201:76,2,44,2|0|10,1:2|0:0|0:0,0:0:0:0:
240,165,32073,2,0,L|227:314,1,132,0|10,0:0|0:0,0:0:0:0:
329,366,32793,1,2,0:0:0:0:
451,351,33082,2,0,L|458:289,1,44,10|0,0:0|0:0,0:0:0:0:
437,263,33370,6,0,L|428:161,2,88,0|10|2,1:0|0:0|0:0,0:0:0:0:
314,242,34236,2,0,P|292:236|271:233,1,44,10|0,0:0|0:0,0:0:0:0:
251,188,34524,2,0,P|223:193|203:194,2,44,2|0|8,1:2|0:0|0:0,0:0:0:0:
338,101,35101,1,2,0:0:0:0:
240,25,35390,2,0,P|215:20|185:18,1,44,10|0,0:0|0:0,0:0:0:0:
146,17,35668,5,6,0:0:0:0:
146,17,35956,1,10,0:0:0:0:
14,74,36244,1,2,0:0:0:0:
14,74,36543,1,8,1:2:0:0:
24,200,36831,5,2,0:0:0:0:
24,200,36975,2,0,P|87:191|126:188,1,88,2|10,0:0|0:0,0:0:0:0:
164,184,37408,1,2,0:0:0:0:
185,305,37696,1,10,1:2:0:0:
311,361,37985,6,0,P|383:362|433:294,1,148.49999546814,6|0,0:0|0:0,0:0:0:0:
452,261,38562,1,0,0:2:0:0:
492,128,38850,2,0,L|484:70,1,49.4999984893799,10|0,0:0|0:0,0:0:0:0:
479,27,39139,1,0,1:2:0:0:
343,6,39424,1,10,0:0:0:0:
209,40,39712,1,0,1:2:0:0:
135,156,40000,2,0,L|71:147,1,49.4999984893799,10|0,0:0|0:0,0:0:0:0:
33,149,40289,2,0,P|-1:203|40:274,1,148.49999546814
83,285,40860,5,2,0:0:0:0:
213,239,41148,2,0,L|314:229,1,98.9999969787599,10|2,0:0|0:0,0:0:0:0:
394,106,41738,2,0,L|443:110,1,49.4999984893799,10|2,0:0|0:0,0:0:0:0:
482,144,42026,1,2,0:0:0:0:
511,284,42314,1,10,0:2:0:0:
398,374,42603,6,0,P|343:327|273:340,1,148.49999546814,4|0,0:0|0:0,0:0:0:0:
222,342,43176,2,0,L|214:273,2,49.4999984893799,0|0|10,0:0|0:0|0:0,0:0:0:0:
132,373,43609,1,0,0:0:0:0:
132,373,43753,2,0,P|82:373|37:353,1,98.9999969787599,0|10,1:0|0:0,0:0:0:0:
6,225,44328,1,0,0:0:0:0:
103,127,44616,2,0,L|109:58,1,49.4999984893799,10|0,0:0|0:0,0:0:0:0:
132,34,44904,2,0,P|175:11|240:26,1,98.9999969787599,0|10,1:2|0:0,0:0:0:0:
337,95,45481,5,0,1:0:0:0:
453,19,45770,1,8,0:0:0:0:
503,149,46063,2,0,P|496:181|489:213,3,65.9999979858399,10|10|10|10,0:0|0:0|0:0|0:0,0:0:0:0:
473,345,46916,2,0,P|437:338|408:334,1,49.4999984893799,8|8,0:0|0:0,0:0:0:0:
376,352,47204,6,0,P|305:357|252:281,1,148.49999546814,4|0,0:0|0:0,0:0:0:0:
241,255,47781,1,2,0:0:0:0:
272,124,48069,1,10,0:0:0:0:
272,124,48214,2,0,P|223:111|157:105,1,98.9999969787599
135,79,48646,2,0,P|90:89|25:95,1,98.9999969787599,10|2,0:0|3:0,0:0:0:0:
8,229,49229,1,10,0:2:0:0:
81,341,49518,6,0,P|148:318|166:245,1,148.49999546814,0|0,1:0|0:0,0:0:0:0:
153,197,50119,1,2,3:0:0:0:
272,124,50407,1,10,0:0:0:0:
272,124,50551,2,0,P|342:117|428:109,1,148.49999546814,0|8,0:0|0:0,0:0:0:0:
499,223,51272,1,2,3:0:0:0:
432,344,51561,2,0,L|372:351,1,49.4999984893799,8|0,0:0|0:0,0:0:0:0:
340,375,51849,6,0,L|241:364,1,98.9999969787599,0|10,0:0|0:0,0:0:0:0:
196,352,52282,1,0,0:0:0:0:
196,352,52426,2,0,P|186:304|204:259,1,98.9999969787599,2|10,3:0|0:0,0:0:0:0:
313,172,53003,2,0,P|306:116|301:63,1,98.9999969787599,2|10,0:0|0:0,0:0:0:0:
175,15,53580,1,2,3:0:0:0:
49,73,53868,2,0,L|40:133,1,49.4999984893799,10|8,0:0|0:0,0:0:0:0:
33,173,54139,5,6,1:2:0:0:
137,268,54437,1,10,0:0:0:0:
264,211,54725,1,2,0:0:0:0:
376,291,55013,1,10,0:2:0:0:
484,210,55302,1,2,0:2:0:0:
371,99,55592,6,0,P|381:147|390:201,1,98.9999969787599,8|8,0:0|0:0,0:0:0:0:
477,253,56011,1,8,0:0:0:0:
477,253,56147,2,0,P|470:276|464:300,1,49.4999984893799,8|8,0:0|0:0,0:0:0:0:
377,337,56441,6,0,P|322:323|250:303,1,121.000003692627,6|8,0:2|0:0,0:0:0:0:
103,302,57017,1,2,1:2:0:0:
31,159,57313,2,0,P|87:144|158:158,1,121.840281496048,8|2,0:0|1:2,0:0:0:0:
305,180,57885,2,0,P|364:189|422:174,1,121.000003692627,8|2,0:0|1:2,0:0:0:0:
458,16,58460,2,0,L|446:91,1,60.5000018463135,8|0,0:0|0:0,0:0:0:0:
359,96,58748,5,2,1:2:0:0:
198,94,59043,2,0,P|250:81|322:69,1,121.000003692627,8|2,0:0|1:2,0:0:0:0:
276,221,59619,1,8,0:0:0:0:
141,302,59908,2,0,P|107:239|107:175,1,121.000003692627,2|8,1:2|0:0,0:0:0:0:
62,111,60341,2,0,P|117:144|178:125,1,121.000003692627,8|8,0:0|0:0,0:0:0:0:
249,81,60764,1,8,3:0:0:0:
392,145,61052,6,0,P|461:147|506:199,1,121.000003692627,4|8,0:0|0:0,0:0:0:0:
421,238,61497,2,0,P|408:304|399:369,1,121.000003692627,10|0,0:0|0:0,0:0:0:0:
304,373,61929,1,8,0:0:0:0:
155,374,62224,2,0,P|93:360|21:346,1,121.000003692627,2|8,1:2|0:0,0:0:0:0:
0,221,62800,2,0,P|19:168|45:97,1,121.000003692627,0|8,0:0|1:2,0:0:0:0:
134,8,63375,6,0,P|187:8|245:64,1,121.000003692627,6|8,0:0|0:0,0:0:0:0:
252,144,63796,2,0,P|317:135|384:126,1,121.000003692627,8|0,0:0|0:0,0:0:0:0:
460,147,64217,2,0,P|496:190|487:261,1,122.32000373291,8|2,0:0|0:0,0:0:0:0:
413,310,64646,1,2,0:0:0:0:
276,375,64927,1,2,0:0:0:0:
276,375,65097,2,0,P|216:345|163:353,1,121.000003692627,2|10,0:0|0:0,0:0:0:0:
74,378,65528,1,10,0:0:0:0:
74,378,65691,6,0,P|61:313|47:242,1,121.000003692627,4|8,1:2|0:0,0:0:0:0:
7,101,66267,1,0,1:0:0:0:
145,27,66555,2,0,P|152:88|158:165,1,121.000003692627,10|0,0:0|1:2,0:0:0:0:
296,230,67132,2,0,P|300:169|309:100,1,121.000003692627,8|2,0:0|1:2,0:0:0:0:
156,147,67699,2,0,P|113:154|87:162,1,60.5000018463135,8|0,0:0|0:0,0:0:0:0:
22,216,67987,5,2,1:2:0:0:
118,340,68276,2,0,P|172:369|255:352,1,121.000003692627,8|2,0:0|1:2,0:0:0:0:
361,278,68853,1,8,0:0:0:0:
508,222,69141,2,0,P|499:288|491:358,1,121.000003692627,2|8,1:2|0:0,0:0:0:0:
402,358,69574,2,0,L|393:287,2,60.5000018463135,8|0|8,0:0|0:0|0:0,0:0:0:0:
312,375,70007,1,8,3:0:0:0:
196,269,70295,6,0,P|174:235|162:150,1,121.000003692627,6|8,0:0|0:0,0:0:0:0:
288,63,70872,2,0,P|336:58|425:49,1,126.041670513153,0|10,1:0|0:0,0:0:0:0:
496,195,71460,1,2,1:2:0:0:
496,195,71604,2,0,P|467:243|390:257,1,116.600000177917
321,252,72048,2,0,L|307:393,1,121.000003692627,0|10,1:0|0:0,0:0:0:0:
148,371,72619,6,0,P|88:359|28:350,1,121.000003692627,4|8,0:0|0:0,0:0:0:0:
148,384,73184,2,0,P|198:374|225:368,1,60.5000018463135,2|8,0:0|0:0,0:0:0:0:
154,225,73472,1,2,0:0:0:0:
310,196,73763,1,8,0:0:0:0:
208,76,74058,6,0,P|234:34|290:18,1,98.9999969787599,2|2,0:0|1:2,0:0:0:0:
363,17,74490,2,0,L|372:119,1,98.9999969787599,2|2,1:2|1:2,0:0:0:0:
450,156,74903,2,0,L|437:306,1,148.49999546814,10|10,0:0|0:0,0:0:0:0:
214,370,75784,2,0,P|169:365|114:277,1,148.49999546814,2|0,1:2|0:0,0:0:0:0:
98,193,76367,6,0,P|149:182|203:173,1,98.9999969787599,2|2,0:0|1:2,0:0:0:0:
242,102,76797,2,0,P|289:112|344:118,1,98.9999969787599,2|2,1:2|1:2,0:0:0:0:
375,199,77229,2,0,P|412:161|410:58,1,148.49999546814,10|10,0:0|0:0,0:0:0:0:
197,13,78089,1,2,1:2:0:0:
112,124,78372,6,0,P|197:135|246:210,1,176,2|8,1:2|0:0,0:0:0:0:
260,259,79082,1,0,0:0:0:0:
260,259,79226,2,0,L|362:244,2,88,0|0|0,1:0|1:0|0:0,0:0:0:0:
375,331,80081,2,0,P|425:304|439:258,1,88,8|0,0:0|1:0,0:0:0:0:
370,149,80664,1,0,1:0:0:0:
446,24,80964,1,0,1:0:0:0:
495,158,81257,6,0,P|448:148|401:138,1,88,8|0,0:0|0:0,0:0:0:0:
277,209,81850,2,0,L|291:279,2,58.6666666666667,2|2|2,1:2|0:0|2:0,0:0:0:0:
228,195,82426,2,0,P|178:185|132:176,1,95.1500023229981,10|0,0:0|0:0,0:0:0:0:
25,259,82994,6,0,P|-11:175|35:99,1,176,0|8,0:0|0:0,0:0:0:0:
142,25,83859,1,0,1:0:0:0:
276,65,84147,2,0,L|334:58,2,44,0|0|0,1:0|0:0|1:0,0:0:0:0:
228,195,84724,2,0,L|128:182,1,88,8|0,1:2|1:0,0:0:0:0:
197,312,85301,2,0,L|297:299,1,88
406,370,85878,5,8,0:0:0:0:
497,262,86167,1,2,3:0:0:0:
375,191,86455,2,0,L|297:182,2,58.6666666666667,10|10|10,0:0|0:0|0:0,0:0:0:0:
451,135,87032,1,10,0:0:0:0:
172,83,87612,6,0,L|78:66,2,88,4|2|0,0:0|0:0|0:0,0:0:0:0:
316,66,88477,1,8,0:0:0:0:
316,66,88621,2,0,P|341:121|308:190,1,136.888888888889,0|2,0:0|0:0,0:0:0:0:
234,300,89342,1,0,0:0:0:0:
234,300,89486,2,0,P|189:295|128:287,1,88
100,283,89919,6,0,P|86:327|70:379,2,88,2|2|0,1:2|0:0|0:0,0:0:0:0:
141,150,90784,1,8,0:0:0:0:
141,150,90928,2,0,P|84:112|20:131,1,132,0|2,0:0|0:0,0:0:0:0:
127,29,91635,2,0,P|172:22|220:15,1,88,2|10,2:0|2:0,0:0:0:0:
331,91,92209,6,0,P|342:41|350:-7,2,88,2|0|0,3:0|0:0|0:0,0:0:0:0:
357,229,93074,2,0,L|301:220,1,44
271,200,93362,2,0,L|128:214,1,132,8|2,0:0|0:0,0:0:0:0:
276,374,94228,1,2,2:0:0:0:
396,288,94531,5,8,0:0:0:0:
396,288,94955,1,8,0:0:0:0:
396,288,95374,1,8,1:2:0:0:
468,162,95671,6,0,B|472:119|472:119|491:84|491:84|497:35,1,132,8|0,0:0|0:0,0:0:0:0:
408,22,96229,2,0,L|367:21,3,22,8|8|8|8,0:0|0:0|0:0|0:0,0:0:0:0:
341,44,96517,2,0,L|321:52,3,22,8|8|8|8,0:0|0:0|0:0|0:0,0:0:0:0:
282,77,96817,6,0,P|240:46|158:41,1,121.000003692627,4|10,0:0|0:0,0:0:0:0:
29,106,97411,1,0,1:0:0:0:
42,262,97699,2,0,P|105:249|165:236,1,121.000003692627,8|2,0:0|1:2,0:0:0:0:
305,175,98276,2,0,P|362:193|441:216,1,121.000003692627,8|2,0:0|1:2,0:0:0:0:
343,347,98853,2,0,P|307:352|264:358,1,60.5000018463135,8|0,0:0|0:0,0:0:0:0:
194,376,99141,5,0,1:0:0:0:
86,253,99440,2,0,P|103:192|152:163,1,121.000003692627,10|0,0:0|1:0,0:0:0:0:
290,234,100016,1,8,0:0:0:0:
446,220,100305,2,0,L|462:94,1,121.000003692627,2|8,1:2|0:0,0:0:0:0:
411,24,100738,1,8,0:0:0:0:
411,24,100882,2,0,P|377:18|340:16,1,60.5000018463135,2|8,0:0|0:0,0:0:0:0:
294,88,101167,1,8,3:0:0:0:
138,43,101468,6,0,P|79:37|27:74,1,121.000003692627,4|8,0:0|0:0,0:0:0:0:
13,160,101889,2,0,L|31:301,1,121.000003692627,8|0,0:0|0:0,0:0:0:0:
23,372,102333,1,8,0:0:0:0:
179,339,102621,1,2,1:2:0:0:
179,339,102766,2,0,P|238:326|298:362,1,121.000003692627
375,373,103198,2,0,P|392:315|411:247,1,121.000003692627,2|8,0:0|0:2,0:0:0:0:
484,112,103775,6,0,P|430:85|371:93,1,121.000003692627,4|8,0:0|0:0,0:0:0:0:
295,146,104194,2,0,L|173:131,1,121.000003692627,8|0,0:0|0:0,0:0:0:0:
87,113,104622,2,0,P|52:158|48:229,1,121.000003692627,8|2,0:0|0:0,0:0:0:0:
64,312,105048,2,0,L|-7:305,2,60.5000018463135,2|10|2,0:0|0:0|0:0,0:0:0:0:
131,375,105480,2,0,L|202:368,2,60.5000018463135,2|2|8,1:2|0:0|0:0,0:0:0:0:
155,275,105913,1,8,0:0:0:0:
155,276,106064,6,0,P|191:229|249:218,1,121.000003692627,4|8,0:0|0:0,0:0:0:0:
393,279,106649,1,2,1:2:0:0:
490,156,106937,2,0,L|474:18,1,121.000003692627,8|2,0:0|1:2,0:0:0:0:
318,27,107514,2,0,L|306:151,1,121.000003692627,8|2,0:0|1:2,0:0:0:0:
151,177,108091,2,0,L|143:98,1,60.5000018463135,8|0,0:0|0:0,0:0:0:0:
139,25,108380,5,2,1:2:0:0:
12,118,108668,2,0,L|-2:254,1,121.000003692627,8|2,0:0|1:2,0:0:0:0:
92,365,109245,1,8,0:0:0:0:
264,341,109548,2,0,P|324:330|385:324,1,110,2|8,1:2|0:0,0:0:0:0:
446,273,109965,2,0,P|480:279|516:284,2,60.5000018463135,8|8|8,0:0|3:0|0:0,0:0:0:0:
387,194,110397,1,8,3:0:0:0:
473,62,110686,6,0,P|420:36|350:44,1,121.000003692627,4|8,0:0|0:0,0:0:0:0:
211,95,111263,2,0,L|74:76,1,126.881948316574,2|8,1:2|0:0,0:0:0:0:
33,235,111853,1,2,1:2:0:0:
33,235,111997,2,0,L|155:218,1,121.000003692627
211,290,112430,2,0,L|335:301,1,121.000003692627,2|8,0:2|1:2,0:0:0:0:
453,190,113007,6,0,P|480:238|463:299,1,121.000003692627,6|8,0:0|0:0,0:0:0:0:
335,207,113572,2,0,L|325:134,1,60.5000018463135,2|0,1:2|0:0,0:0:0:0:
310,56,113860,1,8,0:0:0:0:
158,32,114141,2,0,L|151:106,1,60.5000018463135,2|0,1:2|0:0,0:0:0:0:
78,231,114573,2,0,P|152:184|245:224,1,181.500005538941,8|8,0:0|0:0,0:0:0:0:
341,317,115291,6,0,L|466:303,1,115.49999647522,2|8,1:2|0:0,0:0:0:0:
507,168,115872,1,2,1:2:0:0:
413,72,116136,1,10,0:0:0:0:
320,165,116432,2,0,L|329:237,1,55,2|2,1:2|1:2,0:0:0:0:
208,314,116868,2,0,P|139:341|59:287,1,165,0|8,1:0|0:0,0:0:0:0:
21,144,117595,6,0,L|156:133,1,110,2|8,1:2|0:0,0:0:0:0:
236,40,118155,1,0,0:0:0:0:
320,165,118462,1,8,3:0:0:0:
412,278,118750,2,0,P|446:272|471:267,1,55,6|0,3:2|0:0,0:0:0:0:
506,137,119183,1,8,0:0:0:0:
506,137,119324,2,0,L|500:70,1,55,8|8,0:0|0:0,0:0:0:0:
422,34,119612,2,0,P|389:28|346:25,1,55,2|2,0:0|0:0,0:0:0:0:
294,78,119900,6,0,P|235:84|173:91,1,110,6|10,1:2|1:3,0:0:0:0:
46,29,120494,1,10,1:3:0:0:
2,165,120784,1,8,1:3:0:0:
47,308,121088,6,0,P|80:301|117:295,1,55,10|0,1:3|1:0,0:0:0:0:
172,244,121383,2,0,P|208:248|249:255,1,55,10|0,1:3|1:0,0:0:0:0:
291,312,121684,2,0,L|297:383,1,55,10|0,1:3|1:2,0:2:0:0:
386,378,121965,2,0,L|393:323,1,55,10|2,1:3|1:2,0:0:0:0:
469,254,122262,6,0,P|419:237|356:225,1,110,4|8,1:2|0:0,0:0:0:0:
311,216,122694,1,2,1:2:0:0:
152,81,123114,2,0,L|166:13,1,55,10|2,0:2|1:2,0:0:0:0:
214,22,123402,2,0,P|272:27|323:35,1,110,2|8,1:2|0:0,0:0:0:0:
374,51,123835,1,2,1:2:0:0:
448,246,124257,1,10,0:0:0:0:
311,355,124559,6,0,L|183:341,1,119.90000128067,6|8,0:0|0:0,0:0:0:0:
138,338,124973,1,2,1:2:0:0:
138,338,125405,1,10,0:0:0:0:
14,265,125694,2,0,P|-1:213|17:162,1,110,2|8,1:2|0:0,0:0:0:0:
54,125,126126,1,2,1:2:0:0:
54,125,126559,1,10,0:0:0:0:
192,174,126848,6,0,L|323:150,1,112.200000684814,2|8,1:2|0:0,0:0:0:0:
351,141,127271,1,0,1:0:0:0:
479,196,127553,2,0,P|473:229|470:269,1,55,8|2,0:0|1:2,0:0:0:0:
394,375,127992,2,0,P|340:365|274:357,1,110,10|0,0:0|1:0,0:0:0:0:
249,319,128424,2,0,P|219:324|174:328,2,55,8|8|8,0:0|0:0|3:0,0:0:0:0:
263,269,128869,2,0,P|275:239|281:204,1,55,2|2,0:0|0:0,0:0:0:0:
375,230,129145,6,0,P|431:214|502:204,1,110,6|10,1:2|1:3,0:0:0:0:
503,67,129716,1,10,1:3:0:0:
365,17,130011,1,10,1:3:0:0:
229,62,130299,6,0,L|220:134,1,55,10|0,1:3|1:0,0:0:0:0:
150,169,130594,2,0,L|157:241,1,55,10|0,1:3|1:0,0:0:0:0:
247,238,130882,2,0,L|238:314,1,55,10|0,1:3|1:0,0:0:0:0:
214,377,131182,2,0,L|138:370,1,55,2|2,1:2|1:2,0:0:0:0:
69,364,131470,6,0,P|40:324|47:256,1,110,2|8,1:2|0:0,0:0:0:0:
54,213,131903,1,0,1:0:0:0:
164,33,132327,2,0,L|243:26,1,55,10|0,1:2|0:0,0:0:0:0:
273,24,132615,2,0,P|263:74|254:137,1,111.099997796173,2|8,1:2|0:0,0:0:0:0:
269,185,133045,1,8,0:0:0:0:
269,185,133489,1,10,1:2:0:0:
298,326,133781,6,0,P|347:302|401:306,1,110,6|8,0:0|0:0,0:0:0:0:
449,330,134213,1,0,1:0:0:0:
449,330,134633,1,10,0:0:0:0:
502,197,134921,2,0,L|491:72,1,110,2|8,1:2|0:0,0:0:0:0:
485,35,135354,1,0,1:0:0:0:
485,35,135786,1,10,0:0:0:0:
363,120,136075,6,0,P|355:178|346:246,1,112.200000684814,2|8,1:2|0:0,0:0:0:0:
353,284,136501,1,0,1:0:0:0:
249,373,136778,2,0,P|219:365|182:363,1,55,8|2,0:0|1:2,0:0:0:0:
67,299,137210,2,0,P|42:256|35:183,1,112.291666666667,10|0,0:0|1:0,0:0:0:0:
54,145,137655,2,0,L|-19:134,2,55,8|8|8,0:0|0:0|0:0,0:0:0:0:
95,113,138087,1,2,1:2:0:0:
220,56,138365,5,6,0:0:0:0:
256,192,138437,12,4,140696,0:0:0:0:
147,54,149921,6,0,P|71:51|13:117,2,153.999995300293,4|0|2,0:0|0:0|0:0,0:0:0:0:
147,54,151658,2,0,L|165:215,1,155.142852408273,2|0,3:0|0:0,0:0:0:0:
164,207,152767,6,0,L|328:186,1,153.999995300293
316,187,153920,2,0,L|307:279,1,76.9999976501466,0|4,0:0|0:0,0:0:0:0:
400,366,154514,5,0,0:0:0:0:
400,366,154802,1,2,0:0:0:0:
512,242,155090,1,0,0:0:0:0:
512,242,155372,1,2,0:0:0:0:
393,109,155653,5,0,0:0:0:0:
393,109,155941,1,2,0:0:0:0:
287,236,156229,1,0,0:0:0:0:
287,236,156518,1,2,0:0:0:0:
400,373,156813,6,0,P|453:362|512:357,2,98.9999969787599,6|8|0,0:0|0:0|0:0,0:0:0:0:
249,363,157693,1,8,0:0:0:0:
175,255,157981,2,0,L|194:156,1,100.100003360291,2|8,0:0|0:0,0:0:0:0:
65,158,158555,2,0,L|53:42,1,98.9999969787599,0|10,0:0|0:0,0:0:0:0:
167,20,159142,6,0,P|251:32|303:101,1,176,4|0,0:0|0:0,0:0:0:0:
377,198,159999,2,0,L|464:186,1,88,8|0,0:0|1:0,0:0:0:0:
487,65,160575,2,0,L|399:53,1,88,8|0,0:0|0:0,0:0:0:0:
271,133,161147,1,8,0:0:0:0:
255,255,161435,6,0,P|215:130|95:127,1,267.300006525879,0|8,0:0|0:0,0:0:0:0:
95,126,162884,1,8,0:0:0:0:
51,241,163173,2,0,L|151:228,1,88,2|10,0:0|0:0,0:0:0:0:
255,255,163750,6,0,P|343:268|438:281,1,176,2|0,0:0|0:0,0:0:0:0:
477,130,164620,2,0,P|445:88|383:76,1,110,8|2,0:2|1:2,0:0:0:0:
245,42,165188,1,8,0:0:0:0:
134,98,165476,2,0,P|146:141|157:196,1,89.7187521903992,0|8,0:0|0:0,0:0:0:0:
176,311,166060,6,0,P|95:280|20:329,1,178.200004350586,2|2,1:2|1:2,0:0:0:0:
8,202,166921,1,8,0:0:0:0:
39,82,167210,2,0,P|126:65|217:52,1,176,2|0,1:2|0:0,0:0:0:0:
359,16,168070,1,8,0:0:0:0:
464,79,168358,6,0,L|454:169,1,88,2|8,0:2|0:0,1:0:0:0:
355,247,168935,2,0,L|345:144,1,89.100002175293,0|8,0:0|0:0,0:0:0:0:
256,74,169504,1,2,0:0:0:0:
140,117,169792,2,0,P|94:109|41:100,1,88,8|0,0:0|0:0,0:0:0:0:
68,224,170369,1,10,0:0:0:0:
128,337,170663,6,0,P|196:280|280:298,1,178.200004350586,0|0,1:0|0:0,0:0:0:0:
391,357,171522,1,10,0:0:0:0:
391,357,171667,2,0,P|414:249|441:142,1,220,0|0,0:0|1:0,0:0:0:0:
336,33,172665,2,0,P|289:25|220:15,1,110,2|0,3:2|0:0,0:0:0:0:
92,26,173233,5,10,0:0:0:0:
92,26,173809,1,8,0:0:0:0:
13,297,174386,1,10,0:0:0:0:
13,297,174975,1,10,0:0:0:0:
111,133,175263,6,0,P|99:84|90:5,2,110,8|2|2,0:0|1:2|1:2,0:0:0:0:
238,197,176128,1,2,1:2:0:0:
385,157,176425,2,0,P|436:141|497:144,2,110,8|2|2,0:0|1:2|1:2,0:0:0:0:
238,197,177290,1,2,1:2:0:0:
256,192,177588,12,10,179353,1:2:0:0:
464,10,179923,6,0,P|454:54|446:130,1,121.000003692627,14|0,1:2|0:0,0:0:0:0:
504,275,180500,1,2,1:2:0:0:
382,369,180782,2,0,P|322:359|256:355,1,121.000003692627,8|2,0:0|1:2,0:0:0:0:
141,256,181355,2,0,P|201:251|261:242,1,121.000003692627,8|2,0:0|1:2,0:0:0:0:
289,87,181931,2,0,P|259:81|229:76,1,60.5000018463135,8|0,0:0|0:0,0:0:0:0:
155,17,182220,5,2,1:2:0:0:
4,73,182515,2,8,P|13:131|19:202,1,121.000003692627,8|2,0:0|1:2,0:0:0:0:
67,342,183091,1,8,0:0:0:0:
225,370,183380,2,0,P|284:359|344:355,1,121.000003692627,2|8,1:2|0:0,0:0:0:0:
437,321,183804,2,0,P|466:325|497:328,2,60.5000018463135,8|0|8,0:0|1:0|0:0,0:0:0:0:
368,250,184236,1,8,3:0:0:0:
464,118,184525,6,0,P|414:73|340:86,1,125.399998469238,6|8,1:2|0:0,0:0:0:0:
272,119,184959,1,8,0:0:0:0:
272,119,185103,2,0,L|138:106,1,121.000003692627,0|8,1:0|0:0,0:0:0:0:
30,206,185668,2,0,P|1:255|14:315,1,121.000003692627,8|8,3:0|0:0,0:0:0:0:
176,319,186254,2,0,P|189:261|157:209,1,121.000003692627,2|8,1:2|1:2,0:0:0:0:
41,95,186838,6,0,P|100:85|160:77,1,121.000003692627,6|8,0:0|0:0,0:0:0:0:
290,19,187408,1,2,0:0:0:0:
428,54,187696,2,0,P|450:103|429:171,1,110,8|2,0:0|1:2,0:0:0:0:
320,234,188273,1,8,0:0:0:0:
214,330,188562,2,0,L|342:346,1,110,2|8,1:2|0:0,0:0:0:0:
421,362,188995,1,8,0:0:0:0:
421,362,189149,6,0,P|441:305|430:246,1,121.000003692627,6|8,0:0|0:0,0:0:0:0:
363,97,189737,1,2,1:2:0:0:
223,168,190025,2,0,L|102:156,1,121.000003692627,8|2,0:0|1:2,0:0:0:0:
6,37,190594,2,0,L|138:18,1,121.000003692627,8|2,0:0|1:2,0:0:0:0:
279,35,191170,2,0,P|282:65|268:111,1,60.5000018463135,8|0,0:0|0:0,0:0:0:0:
223,168,191449,5,2,1:2:0:0:
312,336,191737,2,0,P|371:362|442:345,1,121.000003692627,8|2,0:0|1:2,0:0:0:0:
507,219,192314,1,8,0:0:0:0:
403,100,192602,2,0,L|384:227,1,121.000003692627,2|8,1:2|0:0,0:0:0:0:
290,242,193045,2,0,P|284:213|278:181,2,60.5000018463135,8|0|8,0:0|1:0|0:0,0:0:0:0:
225,311,193477,1,8,3:0:0:0:
71,371,193766,6,0,P|22:337|4:280,1,121.000003692627,6|8,0:0|0:0,0:0:0:0:
9,185,194185,1,8,0:0:0:0:
9,185,194329,2,0,L|139:162,1,121.000003692627,2|8,1:2|0:0,0:0:0:0:
272,224,194912,2,0,P|247:172|254:103,1,121.000003692627,2|8,0:0|0:0,0:0:0:0:
385,21,195494,2,0,P|453:39|518:57,1,121.000003692627,2|8,1:2|0:0,0:0:0:0:
511,209,196070,6,0,P|450:220|372:237,1,121.000003692627,6|8,0:0|0:0,1:0:0:0:
253,309,196647,2,0,P|247:249|211:201,1,121.000003692627,2|8,0:0|0:2,0:0:0:0:
122,79,197219,1,0,1:0:0:0:
122,79,197363,2,0,P|134:44|145:5,2,60.5000018463135,8|8|8,0:0|0:0|0:0,0:0:0:0:
34,117,197793,2,0,L|44:195,1,60.5000018463135,8|8,0:0|0:0,0:0:0:0:
122,220,198088,2,0,L|111:298,1,60.5000018463135,8|8,0:0|0:0,0:0:0:0:
39,335,198376,6,0,P|89:370|165:353,1,121.000003692627,6|8,0:0|0:0,0:0:0:0:
258,249,198952,2,0,L|273:384,1,121.000003692627,2|8,1:2|0:0,0:0:0:0:
426,351,199519,2,0,L|440:218,1,121.000003692627,2|8,1:2|0:0,0:0:0:0:
508,88,200096,1,2,1:2:0:0:
369,14,200384,1,10,0:0:0:0:
241,106,200673,6,0,P|185:78|113:91,2,121.000003692627,2|8|0,1:2|0:0|1:0,0:0:0:0:
348,228,201547,1,8,0:0:0:0:
252,352,201835,2,0,P|139:360|88:240,1,250.822924321175,2|10,1:2|1:2,0:0:0:0:
67,164,202561,2,0,L|-3:154,2,60.5000018463135,8|2|0,1:2|1:2|0:0,0:0:0:0:
128,83,203005,6,0,L|262:73,1,121.000003692627,4|8,1:2|0:0,0:0:0:0:
347,72,203433,2,0,P|430:122|429:224,1,181.500005538941,10|8,0:0|0:0,0:0:0:0:
408,358,204161,2,0,L|274:347,1,121.000003692627,8|8,3:0|1:2,0:0:0:0:
190,330,204593,2,0,P|174:239|241:194,1,181.500005538941,0|8,0:0|2:0,0:0:0:0:
188,37,205314,6,0,L|56:13,1,121.000003692627,6|8,1:2|0:0,0:0:0:0:
17,93,205732,2,0,P|0:183|74:244,1,181.500005538941,8|8,0:0|0:0,0:0:0:0:
224,242,206459,1,0,1:0:0:0:
224,242,206603,2,0,L|237:381,1,124.300000379334,2|10,1:2|1:2,0:0:0:0:
330,376,207035,1,10,1:2:0:0:
473,304,207339,2,0,P|480:270|487:244,1,55,10|10,1:2|1:2,0:0:0:0:
505,157,207628,6,0,P|452:128|394:140,1,121.000003692627,4|8,0:0|0:0,0:0:0:0:
284,251,208198,2,0,L|155:231,1,121.000003692627,0|8,1:0|0:0,0:0:0:0:
13,275,208774,1,2,2:0:0:0:
42,118,209063,2,0,L|161:98,1,121.000003692627,8|0,0:0|1:0,0:0:0:0:
300,26,209637,2,0,P|334:25|360:32,1,60.5000018463135,8|0,0:0|0:0,0:0:0:0:
447,69,209925,6,0,L|430:198,1,121.000003692627,2|8,2:0|0:0,0:0:0:0:
415,340,210486,2,0,P|351:357|291:328,1,121.000003692627,2|8,1:2|0:0,0:0:0:0:
158,276,211062,2,0,L|139:34,1,242.000007385254,2|8,1:2|0:0,0:0:0:0:
5,125,211916,1,2,3:0:0:0:
30,276,212225,5,10,0:0:0:0:
23,18,215686,5,4,0:0:0:0:
105,121,215975,2,0,L|247:108,1,132,10|0,0:0|0:0,0:0:0:0:
282,82,216551,2,0,L|336:91,1,44,8|0,0:0|0:0,0:0:0:0:
378,76,216840,1,2,1:2:0:0:
485,155,217128,6,0,P|471:216|457:287,1,132,8|0,0:0|0:0,0:0:0:0:
443,335,217700,2,0,P|412:325|384:321,1,44,8|0,0:0|0:0,0:0:0:0:
356,339,217975,1,0,0:0:0:0:
226,362,218263,6,0,P|173:366|110:311,1,132,8|0,0:0|0:0,0:0:0:0:
80,278,218839,2,0,L|89:221,1,44,8|0,0:0|0:0,0:0:0:0:
72,182,219128,1,0,0:0:0:0:
89,50,219417,6,0,P|146:28|216:65,1,132,8|0,0:0|0:0,0:0:0:0:
246,91,219993,2,0,L|305:96,1,44,8|0,0:0|0:0,0:0:0:0:
326,134,220282,6,0,P|354:55|446:36,1,176
493,152,221148,1,8,0:0:0:0:
398,243,221436,2,0,L|413:391,2,132,0|0|8,0:0|0:0|0:0,0:0:0:0:
269,212,222590,2,0,P|225:215|182:226,1,88,0|8,0:0|0:0,0:0:0:0:
61,265,223167,6,0,L|51:167,1,88,0|8,0:0|0:0,0:0:0:0:
33,35,223755,1,0,0:0:0:0:
183,63,224043,1,8,0:0:0:0:
183,63,224188,2,0,P|247:48|313:43,1,132,0|8,0:0|0:0,0:0:0:0:
431,100,224900,6,0,P|372:159|396:239,1,176,0|0,1:0|1:2,0:0:0:0:
484,338,225765,1,8,0:0:0:0:
356,371,226053,2,0,P|294:364|213:353,2,132,0|0|8,0:0|0:0|0:0,0:0:0:0:
396,239,227207,2,0,L|308:227,1,88,0|8,0:0|0:0,0:0:0:0:
228,127,227768,6,0,L|140:138,1,88,0|8,0:0|0:0,0:0:0:0:
27,70,228344,1,0,0:0:0:0:
8,200,228633,2,0,P|20:242|25:285,1,88,8|0,0:0|0:0,0:0:0:0:
125,371,229226,1,8,0:0:0:0:
241,320,229503,6,0,L|343:309,2,88,2|8|0,3:0|0:0|0:0,0:0:0:0:
174,212,230368,1,10,0:0:0:0:
174,212,230512,2,0,P|189:148|251:120,1,132,0|8,0:0|0:0,0:0:0:0:
357,188,231233,1,0,0:0:0:0:
474,100,231531,2,0,L|466:45,1,55,8|0,0:0|0:0,0:0:0:0:
420,24,231819,6,0,P|357:7|300:37,1,132,0|0,1:0|0:0,0:0:0:0:
254,66,232406,2,0,L|243:7,2,55,0|0|10,0:0|0:0|0:0,0:0:0:0:
209,98,232838,2,0,L|31:81,1,165,0|8,0:0|0:0,0:0:0:0:
6,208,233559,1,0,0:0:0:0:
129,254,233848,2,0,L|190:245,1,44,10|0,0:0|0:0,0:0:0:0:
225,243,234136,6,0,P|238:279|226:340,2,88,0|10|2,0:0|0:0|0:0,0:0:0:0:
344,184,235002,2,8,L|395:189,1,44,10|0,0:0|0:0,0:0:0:0:
420,234,235290,2,0,L|512:222,1,88,2|10,1:2|0:0,0:0:0:0:
486,352,235852,1,0,0:0:0:0:
354,354,236140,2,0,L|290:361,1,44,10|0,0:0|0:0,0:0:0:0:
260,370,236419,5,8,0:0:0:0:
260,370,236707,1,2,0:0:0:0:
141,312,236995,1,2,0:0:0:0:
141,312,237284,1,2,0:0:0:0:
202,196,237597,5,2,0:0:0:0:
202,196,237752,2,0,P|223:140|248:83,1,110,2|2,0:0|0:0,0:0:0:0:
265,49,238191,1,2,0:0:0:0:
392,17,238479,1,2,0:0:0:0:
490,139,238784,5,6,0:0:0:0:
