osu file format v14

[General]
AudioFilename: audio.mp3
AudioLeadIn: 0
PreviewTime: 56147
Countdown: 0
SampleSet: Soft
StackLeniency: 0.6
Mode: 0
LetterboxInBreaks: 0
WidescreenStoryboard: 0

[Editor]
Bookmarks: 65680,140680,140968,141149,141329,141473,141617,141798,141942,142086,142230,142375,142519,142663,142807,142952,143096,143240,143384,143528,143637,143781,143925,144069,144214,144322,144466,144610,144718,144863,144971,145079,145187,145367,145512,145656,145764,145944,146089,146233,146377,146521,146665,146846,146954,147134,147278,147459,147603,147747,147927,148072,148252,148396,148540,148721,148865,149045,149189,149370,149514,149658,149839,149911
DistanceSpacing: 1.3
BeatDivisor: 8
GridSize: 16
TimelineZoom: 2.2

[Metadata]
Title:Zokkon
TitleUnicode:ゾッコン
Artist:MONO NO AWARE
ArtistUnicode:MONO NO AWARE
Creator:Cubby
Version:Expert
Source:海辺のエトランゼ
Tags:Ark with a Line L'étranger de la Plage 行列のできる方舟 addy2607 shota on osu Shunao Cubbby Chompy arronchu1207 haruto The Stranger by the Beach Umibe no Étranger Mio Chibana Hashimoto Shun yaoi bl boys love rock japanese j-rock KaedeharaKazuha chu モノノアワレ movie
BeatmapID:3121919
BeatmapSetID:1525899

[Difficulty]
HPDrainRate:5
CircleSize:4.4
OverallDifficulty:7.7
ApproachRate:9.3
SliderMultiplier:2.05
SliderTickRate:1

[Events]
//Background and Video events
0,0,"wp8634609-umibe-no-etranger-wallpapers_waifu2x_art_noise1_scale_tta_1.jpg",0,0
//Break Periods
2,140896,149337
2,212425,215102
//Storyboard Layer 0 (Background)
//Storyboard Layer 1 (Fail)
//Storyboard Layer 2 (Pass)
//Storyboard Layer 3 (Foreground)
//Storyboard Layer 4 (Overlay)
//Storyboard Sound Samples

[TimingPoints]
1065,288.461538461538,4,2,2,40,1,0
1363,288.461538461538,4,2,2,40,1,0
1363,-83.3333333333333,4,2,2,50,0,0
1641,-200,4,2,2,50,0,0
1931,288.461538461538,4,2,2,40,1,0
1931,-83.3333333333333,4,2,2,50,0,0
2239,288.461538461538,4,2,2,40,1,0
2239,-100,4,2,2,50,0,0
2323,288.461538461538,4,2,2,40,1,0
2529,288.461538461538,4,2,2,40,1,0
2668,288.461538461538,4,2,2,40,1,0
2814,288.461538461538,4,2,2,40,1,0
2952,288.461538461538,4,2,2,40,1,0
3084,-83.3333333333333,4,2,2,50,0,0
3384,288.461538461538,4,2,2,40,1,0
3672,-83.3333333333333,4,2,2,50,0,0
4264,288.461538461538,4,2,2,40,1,0
4264,-100,4,2,2,50,0,0
4415,288.461538461538,4,2,2,40,1,0
4415,-133.333333333333,4,2,2,50,0,0
4566,288.461538461538,4,2,2,40,1,0
4846,288.461538461538,4,2,2,40,1,0
4969,288.461538461538,4,2,2,40,1,0
5267,288.461538461538,4,2,2,40,1,0
5691,288.461538461538,4,2,2,40,1,0
5691,-100,4,2,2,50,0,0
5968,-83.3333333333333,4,2,2,50,0,0
6553,288.461538461538,4,2,2,40,1,0
6553,-83.3333333333333,4,2,2,50,0,0
6846,288.461538461538,4,2,2,40,1,0
6846,-100,4,2,2,50,0,0
7142,288.461538461538,4,2,2,40,1,0
7283,288.461538461538,4,2,2,40,1,0
7424,288.461538461538,4,2,2,40,1,0
7699,-83.3333333333333,4,2,2,50,0,0
7988,-100,4,2,2,50,0,0
8276,-83.3333333333333,4,2,2,50,0,0
8875,288.461538461538,4,2,2,40,1,0
8875,-100,4,2,2,50,0,0
8997,-133.333333333333,4,2,2,50,0,0
9178,288.461538461538,4,2,2,40,1,0
9312,288.461538461538,4,2,2,40,1,0
9448,288.461538461538,4,2,2,40,1,0
9587,288.461538461538,4,2,2,40,1,0
9733,288.461538461538,4,2,2,40,1,0
9733,-100,4,2,2,50,0,0
10031,288.461538461538,4,2,2,40,1,0
10031,-83.3333333333333,4,2,2,50,0,0
10316,288.461538461538,4,2,2,40,1,0
10316,-100,4,2,2,50,0,0
12314,-83.3333333333333,4,2,2,50,0,0
12603,-100,4,2,2,50,0,0
12919,288.461538461538,4,2,2,40,1,0
13204,288.461538461538,4,2,2,40,1,0
13481,288.461538461538,4,2,2,40,1,0
14054,288.461538461538,4,2,2,40,1,0
14629,288.461538461538,4,2,2,40,1,0
14630,-83.3333333333333,4,2,2,50,0,0
14911,-100,4,2,2,50,0,0
15776,-83.3333333333333,4,2,2,50,0,0
16064,-100,4,2,2,50,0,0
16930,-83.3333333333333,4,2,2,50,0,0
18386,288.461538461538,4,2,2,40,1,0
18525,288.461538461538,4,2,2,40,1,0
18666,288.461538461538,4,2,2,40,1,0
18800,288.461538461538,4,2,2,40,1,0
18961,288.461538461538,4,2,2,40,1,0
19238,288.461538461538,4,2,2,40,1,0
19526,288.461538461538,4,2,2,40,1,0
19526,-133.333333333333,4,2,2,40,0,0
22404,288.461538461538,4,2,2,40,1,0
22692,-133.333333333333,4,2,2,40,0,0
23261,288.461538461538,4,2,2,40,1,0
23261,-133.333333333333,4,2,2,40,0,0
24126,288.461538461538,4,2,2,40,1,0
24126,-133.333333333333,4,2,2,40,0,0
24401,288.461538461538,4,2,2,40,1,0
24401,-133.333333333333,4,2,2,40,0,0
26695,288.461538461538,4,2,2,40,1,0
26695,-133.333333333333,4,2,2,40,0,0
27870,288.461538461538,4,2,2,40,1,0
27870,-133.333333333333,4,2,2,40,0,0
28750,288.461538461538,4,2,2,40,1,0
28750,-100,4,2,2,40,0,0
29022,288.461538461538,4,2,2,40,1,0
30769,288.461538461538,4,2,2,40,1,0
31057,-133.333333333333,4,2,2,40,0,0
31345,-100,4,2,2,40,0,0
31641,288.461538461538,4,2,2,40,1,0
32217,288.461538461538,4,2,2,40,1,0
33082,-166.666666666667,4,2,2,40,0,0
33370,-100,4,2,2,40,0,0
35668,288.461538461538,4,2,2,40,1,0
35956,-83.3333333333333,4,2,2,40,0,0
36257,-133.333333333333,4,2,2,40,0,0
36543,288.461538461538,4,2,2,40,1,0
36543,-83.3333333333333,4,2,2,40,0,0
39424,288.461538461538,4,2,2,40,1,0
39424,-83.3333333333333,4,2,2,40,0,0
40572,288.461538461538,4,2,2,40,1,0
40572,-83.3333333333333,4,2,2,40,0,0
41738,288.461538461538,4,2,2,40,1,0
42026,-83.3333333333333,4,2,2,40,0,0
42888,288.461538461538,4,2,2,40,1,0
42888,-83.3333333333333,4,2,2,40,0,0
44053,288.461538461538,4,2,2,40,1,0
44053,-83.3333333333333,4,2,2,40,0,0
44328,288.461538461538,4,2,2,40,1,0
44328,-83.3333333333333,4,2,2,40,0,0
45770,-200,4,2,2,40,0,0
46063,288.461538461538,4,2,2,40,1,0
46916,288.461538461538,4,2,2,40,1,0
46916,-83.3333333333333,4,2,2,40,0,0
48797,288.461538461538,4,2,2,40,1,0
48941,-133.333333333333,4,2,2,40,0,0
49229,-83.3333333333333,4,2,2,40,0,0
49821,288.461538461538,4,2,2,40,1,0
49821,-83.3333333333333,4,2,2,40,0,0
50119,288.461538461538,4,2,2,40,1,0
50119,-83.3333333333333,4,2,2,40,0,0
51257,-133.333333333333,4,2,2,40,0,0
51545,-83.3333333333333,4,2,2,40,0,0
53564,-133.333333333333,4,2,2,40,0,0
54139,288.461538461538,4,2,2,40,1,0
54139,-83.3333333333333,4,2,2,40,0,0
54437,288.461538461538,4,2,2,40,1,0
54437,-83.3333333333333,4,2,2,40,0,0
55592,288.461538461538,4,2,2,40,1,0
55867,288.461538461538,4,2,2,40,1,0
56147,288.461538461538,4,2,2,40,1,0
56300,288.461538461538,4,2,2,40,1,0
56441,288.461538461538,4,2,2,40,1,0
56441,-71.4285714285714,4,2,2,50,0,0
56729,-133.333333333333,4,2,2,50,0,0
57017,-71.4285714285714,4,2,2,50,0,0
57313,288.461538461538,4,2,2,40,1,0
57313,-133.333333333333,4,2,2,50,0,0
57603,288.461538461538,4,2,2,40,1,0
57603,-71.4285714285714,4,2,2,50,0,0
57885,288.461538461538,4,2,2,40,1,0
57885,-133.333333333333,4,2,2,50,0,0
58165,288.461538461538,4,2,2,40,1,0
58165,-71.4285714285714,4,2,2,50,0,0
58460,288.461538461538,4,2,2,40,1,0
58460,-133.333333333333,4,2,2,50,0,0
58748,-71.4285714285714,4,2,2,50,0,0
59043,288.461538461538,4,2,2,40,1,0
59043,-133.333333333333,4,2,2,50,0,0
59331,-71.4285714285714,4,2,2,50,0,0
59619,-133.333333333333,4,2,2,50,0,0
59908,-71.4285714285714,4,2,2,50,0,0
60196,-133.333333333333,4,2,2,50,0,0
60487,288.461538461538,4,2,2,40,1,0
60631,-133.333333333333,4,2,2,50,0,0
60764,288.461538461538,4,2,2,40,1,0
61052,-71.4285714285714,4,2,2,50,0,0
61340,-100,4,2,2,50,0,0
61497,288.461538461538,4,2,2,40,1,0
61641,288.461538461538,4,2,2,40,1,0
61641,-71.4285714285714,4,2,2,50,0,0
62224,288.461538461538,4,2,2,40,1,0
62224,-133.333333333333,4,2,2,50,0,0
62507,-71.4285714285714,4,2,2,50,0,0
62795,-133.333333333333,4,2,2,50,0,0
63084,-71.4285714285714,4,2,2,50,0,0
63375,288.461538461538,4,2,2,40,1,0
63375,-71.4285714285714,4,2,2,50,0,0
63652,288.461538461538,4,2,2,40,1,0
63652,-133.333333333333,4,2,2,50,0,0
63940,-71.4285714285714,4,2,2,50,0,0
64217,288.461538461538,4,2,2,40,1,0
64217,-71.4285714285714,4,2,2,50,0,0
64502,288.461538461538,4,2,2,40,1,0
64800,288.461538461538,4,2,2,40,1,0
64814,-133.333333333333,4,2,2,50,0,0
64927,288.461538461538,4,2,2,40,1,0
65097,288.461538461538,4,2,2,40,1,0
65384,288.461538461538,4,2,2,40,1,0
65384,-133.333333333333,4,2,2,40,0,0
65691,288.461538461538,4,2,2,40,1,0
65691,-71.4285714285714,4,2,2,50,0,0
65968,288.461538461538,4,2,2,40,1,0
65968,-133.333333333333,4,2,2,50,0,0
66267,288.461538461538,4,2,2,40,1,0
66267,-71.4285714285714,4,2,2,50,0,0
66545,-133.333333333333,4,2,2,50,0,0
66834,-71.4285714285714,4,2,2,50,0,0
67122,-133.333333333333,4,2,2,50,0,0
67411,288.461538461538,4,2,2,40,1,0
67411,-71.4285714285714,4,2,2,50,0,0
67699,-133.333333333333,4,2,2,50,0,0
67987,-71.4285714285714,4,2,2,50,0,0
68276,-133.333333333333,4,2,2,50,0,0
68564,-71.4285714285714,4,2,2,50,0,0
68853,-133.333333333333,4,2,2,50,0,0
69141,-71.4285714285714,4,2,2,50,0,0
69430,-133.333333333333,4,2,2,50,0,0
70295,-71.4285714285714,4,2,2,50,0,0
70584,-133.333333333333,4,2,2,50,0,0
70872,-71.4285714285714,4,2,2,50,0,0
71172,288.461538461538,4,2,2,40,1,0
71172,-133.333333333333,4,2,2,50,0,0
71449,-71.4285714285714,4,2,2,50,0,0
71760,288.461538461538,4,2,2,40,1,0
71760,-133.333333333333,4,2,2,50,0,0
72336,-71.4285714285714,4,2,2,50,0,0
72619,288.461538461538,4,2,2,40,1,0
72619,-71.4285714285714,4,2,2,50,0,0
72896,288.461538461538,4,2,2,40,1,0
72896,-133.333333333333,4,2,2,50,0,0
73763,288.461538461538,4,2,2,40,1,0
73763,-71.4285714285714,4,2,2,50,0,0
74058,288.461538461538,4,2,2,40,1,0
74058,-133.333333333333,4,2,2,30,0,0
74903,288.461538461538,4,2,2,40,1,0
74903,-100,4,2,2,30,0,0
75200,288.461538461538,4,2,2,40,1,0
75349,288.461538461538,4,2,2,40,1,0
75665,288.461538461538,4,2,2,40,1,0
75784,288.461538461538,4,2,2,40,1,0
76079,288.461538461538,4,2,2,40,1,0
76497,-133.333333333333,4,2,2,30,0,0
76797,288.461538461538,4,2,2,40,1,0
77218,-100,4,2,2,30,0,0
77657,288.461538461538,4,2,2,40,1,0
77960,288.461538461538,4,2,2,40,1,0
78089,288.461538461538,4,2,2,40,1,0
78372,288.461538461538,4,2,2,40,1,0
78372,-133.333333333333,4,2,2,30,0,0
78938,288.461538461538,4,2,2,40,1,0
78938,-133.333333333333,4,2,2,30,0,0
80081,288.461538461538,4,2,2,40,1,0
80081,-133.333333333333,4,2,2,30,0,0
80664,288.461538461538,4,2,2,40,1,0
80964,288.461538461538,4,2,2,40,1,0
81257,288.461538461538,4,2,2,40,1,0
81257,-133.333333333333,4,2,2,30,0,0
81850,288.461538461538,4,2,2,40,1,0
81850,-100,4,2,2,30,0,0
82026,-125,4,2,2,30,0,0
82218,-166.666666666667,4,2,2,30,0,0
82603,-125,4,2,2,30,0,0
82795,-100,4,2,2,30,0,0
82824,288.461538461538,4,2,2,40,1,0
82994,288.461538461538,4,2,2,40,1,0
82994,-133.333333333333,4,2,2,30,0,0
87306,288.461538461538,4,2,2,40,1,0
87306,-133.333333333333,4,2,2,30,0,0
87612,288.461538461538,4,2,2,40,1,0
88036,-200,4,2,2,30,0,0
88468,-100,4,2,2,30,0,0
89069,288.461538461538,4,2,2,40,1,0
89198,288.461538461538,4,2,2,40,1,0
89198,-200,4,2,2,30,0,0
89622,-100,4,2,2,30,0,0
90343,-200,4,2,2,30,0,0
90776,-100,4,2,2,30,0,0
91059,288.461538461538,4,2,2,40,1,0
92209,288.461538461538,4,2,2,40,1,0
93362,-83.3333333333333,4,2,2,30,0,0
94531,288.461538461538,4,2,2,40,1,0
94531,-83.3333333333333,4,2,2,30,0,0
94955,288.461538461538,4,2,2,40,1,0
94955,-83.3333333333333,4,2,2,30,0,0
95374,288.461538461538,4,2,2,40,1,0
95374,-83.3333333333333,4,2,2,30,0,0
95671,288.461538461538,4,2,2,40,1,0
95671,-83.3333333333333,4,2,2,30,0,0
96229,288.461538461538,4,2,2,40,1,0
96817,288.461538461538,4,2,2,40,1,0
96817,-71.4285714285714,4,2,2,50,0,0
97119,288.461538461538,4,2,2,40,1,0
97119,-133.333333333333,4,2,2,50,0,0
97411,288.461538461538,4,2,2,40,1,0
97411,-71.4285714285714,4,2,2,50,0,0
97699,-133.333333333333,4,2,2,50,0,0
97988,-71.4285714285714,4,2,2,50,0,0
98276,-133.333333333333,4,2,2,50,0,0
98564,-71.4285714285714,4,2,2,50,0,0
98853,-133.333333333333,4,2,2,50,0,0
99141,-71.4285714285714,4,2,2,50,0,0
99440,288.461538461538,4,2,2,40,1,0
99440,-133.333333333333,4,2,2,50,0,0
99718,-71.4285714285714,4,2,2,50,0,0
100007,-133.333333333333,4,2,2,50,0,0
100295,-71.4285714285714,4,2,2,50,0,0
100584,-133.333333333333,4,2,2,50,0,0
101036,288.461538461538,4,2,2,40,1,0
101036,-133.333333333333,4,2,2,50,0,0
101167,288.461538461538,4,2,2,40,1,0
101468,288.461538461538,4,2,2,40,1,0
101468,-71.4285714285714,4,2,2,50,0,0
101745,288.461538461538,4,2,2,40,1,0
101745,-133.333333333333,4,2,2,50,0,0
102045,288.461538461538,4,2,2,40,1,0
102045,-71.4285714285714,4,2,2,50,0,0
102314,-133.333333333333,4,2,2,50,0,0
102603,-71.4285714285714,4,2,2,50,0,0
102891,-133.333333333333,4,2,2,50,0,0
103468,-71.4285714285714,4,2,2,50,0,0
104053,288.461538461538,4,2,2,40,1,0
104053,-133.333333333333,4,2,2,50,0,0
104194,288.461538461538,4,2,2,40,1,0
104194,-133.333333333333,4,2,2,50,0,0
104334,-71.4285714285714,4,2,2,50,0,0
104622,288.461538461538,4,2,2,40,1,0
104622,-133.333333333333,4,2,2,50,0,0
104904,288.461538461538,4,2,2,40,1,0
105769,-133.333333333333,4,2,2,50,0,0
106064,288.461538461538,4,2,2,40,1,0
106064,-71.4285714285714,4,2,2,50,0,0
106361,288.461538461538,4,2,2,40,1,0
106361,-133.333333333333,4,2,2,50,0,0
106641,-71.4285714285714,4,2,2,50,0,0
106930,-133.333333333333,4,2,2,50,0,0
107218,-71.4285714285714,4,2,2,50,0,0
107507,-133.333333333333,4,2,2,50,0,0
107795,-71.4285714285714,4,2,2,50,0,0
108084,-133.333333333333,4,2,2,50,0,0
108372,-71.4285714285714,4,2,2,50,0,0
108661,-133.333333333333,4,2,2,50,0,0
108949,-71.4285714285714,4,2,2,50,0,0
109238,-133.333333333333,4,2,2,50,0,0
109526,-71.4285714285714,4,2,2,50,0,0
109548,288.461538461538,4,2,2,40,1,0
109548,-71.4285714285714,4,2,2,50,0,0
109821,288.461538461538,4,2,2,40,1,0
109821,-133.333333333333,4,2,2,50,0,0
110680,-71.4285714285714,4,2,2,50,0,0
110968,-133.333333333333,4,2,2,50,0,0
111257,-71.4285714285714,4,2,2,50,0,0
111565,288.461538461538,4,2,2,40,1,0
111565,-133.333333333333,4,2,2,50,0,0
111834,-71.4285714285714,4,2,2,50,0,0
112122,-133.333333333333,4,2,2,50,0,0
112988,-71.4285714285714,4,2,2,50,0,0
113284,288.461538461538,4,2,2,40,1,0
113284,-133.333333333333,4,2,2,50,0,0
113564,-71.4285714285714,4,2,2,50,0,0
113853,-133.333333333333,4,2,2,50,0,0
114141,288.461538461538,4,2,2,40,1,0
114141,-71.4285714285714,4,2,2,50,0,0
114430,-133.333333333333,4,2,2,50,0,0
114717,-71.4285714285714,4,2,2,50,0,0
115003,288.461538461538,4,2,2,40,1,0
115003,-133.333333333333,4,2,2,50,0,0
115579,-71.4285714285714,4,2,2,50,0,0
115716,288.461538461538,4,2,2,40,1,0
115872,288.461538461538,4,2,2,40,1,0
115872,-71.4285714285714,4,2,2,50,0,0
116136,288.461538461538,4,2,2,40,1,0
116136,-71.4285714285714,4,2,2,50,0,0
116432,288.461538461538,4,2,2,40,1,0
116720,-133.333333333333,4,2,2,50,0,0
116868,288.461538461538,4,2,2,40,1,0
116868,-71.4285714285714,4,2,2,50,0,0
117290,288.461538461538,4,2,2,40,1,0
117290,-71.4285714285714,4,2,2,50,0,0
117595,288.461538461538,4,2,2,40,1,0
117595,-133.333333333333,4,2,2,50,0,0
117867,288.461538461538,4,2,2,40,1,0
117867,-71.4285714285714,4,2,2,50,0,0
118308,288.461538461538,4,2,2,40,1,0
118308,-71.4285714285714,4,2,2,50,0,0
118462,288.461538461538,4,2,2,40,1,0
118462,-133.333333333333,4,2,2,50,0,0
119324,288.461538461538,4,2,2,40,1,0
119612,-133.333333333333,4,2,2,50,0,0
119911,-100,4,2,2,50,0,0
120348,288.461538461538,4,2,2,40,1,0
120494,288.461538461538,4,2,2,40,1,0
120643,288.461538461538,4,2,2,40,1,0
120784,288.461538461538,4,2,2,40,1,0
120939,288.461538461538,4,2,2,40,1,0
121088,288.461538461538,4,2,2,40,1,0
121235,288.461538461538,4,2,2,40,1,0
121383,288.461538461538,4,2,2,40,1,0
121472,288.461538461538,4,2,2,40,1,0
121545,288.461538461538,4,2,2,40,1,0
121684,288.461538461538,4,2,2,40,1,0
121965,288.461538461538,4,2,2,40,1,0
122262,288.461538461538,4,2,2,40,1,0
122262,-71.4285714285714,4,2,2,50,0,0
123114,288.461538461538,4,2,2,40,1,0
123114,-71.4285714285714,4,2,2,50,0,0
124257,288.461538461538,4,2,2,40,1,0
124257,-133.333333333333,4,2,2,50,0,0
124559,288.461538461538,4,2,2,40,1,0
124559,-71.4285714285714,4,2,2,50,0,0
124827,288.461538461538,4,2,2,40,1,0
124827,-71.4285714285714,4,2,2,50,0,0
124973,288.461538461538,4,2,2,40,1,0
124973,-71.4285714285714,4,2,2,50,0,0
125391,-133.333333333333,4,2,2,50,0,0
125680,-71.4285714285714,4,2,2,50,0,0
126545,-133.333333333333,4,2,2,50,0,0
126834,-71.4285714285714,4,2,2,50,0,0
127133,288.461538461538,4,2,2,40,1,0
127133,-71.4285714285714,4,2,2,50,0,0
127271,288.461538461538,4,2,2,40,1,0
127271,-71.4285714285714,4,2,2,50,0,0
127553,288.461538461538,4,2,2,40,1,0
127553,-71.4285714285714,4,2,2,50,0,0
127992,288.461538461538,4,2,2,40,1,0
127992,-133.333333333333,4,2,2,50,0,0
128869,288.461538461538,4,2,2,40,1,0
128869,-133.333333333333,4,2,2,50,0,0
129145,288.461538461538,4,2,2,40,1,0
129212,288.461538461538,4,2,2,40,1,0
129286,-100,4,2,2,50,0,0
129418,288.461538461538,4,2,2,40,1,0
129716,288.461538461538,4,2,2,40,1,0
130011,288.461538461538,4,2,2,40,1,0
130594,288.461538461538,4,2,2,40,1,0
130872,-71.4285714285714,4,2,2,50,0,0
131182,288.461538461538,4,2,2,40,1,0
131470,-71.4285714285714,4,2,2,50,0,0
132039,288.461538461538,4,2,2,40,1,0
132039,-71.4285714285714,4,2,2,50,0,0
132747,288.461538461538,4,2,2,40,1,0
132901,288.461538461538,4,2,2,40,1,0
132901,-133.333333333333,4,2,2,50,0,0
133180,-71.4285714285714,4,2,2,50,0,0
133489,288.461538461538,4,2,2,40,1,0
133489,-133.333333333333,4,2,2,50,0,0
133781,288.461538461538,4,2,2,40,1,0
133781,-71.4285714285714,4,2,2,50,0,0
134633,288.461538461538,4,2,2,40,1,0
134633,-133.333333333333,4,2,2,50,0,0
134911,-71.4285714285714,4,2,2,50,0,0
135776,-133.333333333333,4,2,2,50,0,0
136064,-71.4285714285714,4,2,2,50,0,0
136357,288.461538461538,4,2,2,40,1,0
136357,-71.4285714285714,4,2,2,50,0,0
136778,288.461538461538,4,2,2,40,1,0
136778,-71.4285714285714,4,2,2,50,0,0
137504,288.461538461538,4,2,2,40,1,0
137651,-133.333333333333,4,2,2,50,0,0
137655,288.461538461538,4,2,2,40,1,0
137655,-133.333333333333,4,2,2,50,0,0
138365,288.461538461538,4,2,2,40,1,0
138365,-71.4285714285714,4,2,2,50,0,0
138557,-76.9230769230769,4,2,2,50,0,0
138629,288.461538461538,4,2,2,40,1,0
138762,288.461538461538,4,2,2,40,1,0
138762,-83.3333333333333,4,2,2,50,0,0
138931,288.461538461538,4,2,2,40,1,0
138931,-71.4285714285714,4,2,2,50,0,0
139116,288.461538461538,4,2,2,40,1,0
139116,-76.9230769230769,4,2,2,50,0,0
139331,288.461538461538,4,2,2,40,1,0
139331,-83.3333333333333,4,2,2,50,0,0
139533,288.461538461538,4,2,2,40,1,0
139933,288.461538461538,4,2,2,40,1,0
140120,288.461538461538,4,2,2,40,1,0
140120,-133.333333333333,4,2,2,50,0,0
149921,288.461538461538,4,2,2,40,1,0
149921,-133.333333333333,4,2,2,30,0,0
151658,288.461538461538,4,2,2,30,1,0
151658,-133.333333333333,4,2,2,30,0,0
152201,288.461538461538,4,2,2,30,1,0
152201,-133.333333333333,4,2,2,30,0,0
152767,288.461538461538,4,2,2,30,1,0
152767,-133.333333333333,4,2,2,30,0,0
153343,-133.333333333333,4,2,2,30,0,0
154514,288.461538461538,4,2,2,30,1,0
155372,288.461538461538,4,2,2,40,1,0
155653,288.461538461538,4,2,2,40,1,0
156813,288.461538461538,4,2,2,40,1,0
156813,-83.3333333333333,4,2,2,30,0,0
157693,288.461538461538,4,2,2,40,1,0
157693,-83.3333333333333,4,2,2,30,0,0
157975,-133.333333333333,4,2,2,30,0,0
158267,288.461538461538,4,2,2,40,1,0
158267,-83.3333333333333,4,2,2,30,0,0
158552,-133.333333333333,4,2,2,30,0,0
158840,-83.3333333333333,4,2,2,30,0,0
159142,288.461538461538,4,2,2,40,1,0
159142,-83.3333333333333,4,2,2,30,0,0
159425,288.461538461538,4,2,2,40,1,0
159425,-133.333333333333,4,2,2,30,0,0
159999,288.461538461538,4,2,2,40,1,0
159999,-133.333333333333,4,2,2,30,0,0
161147,288.461538461538,4,2,2,40,1,0
161147,-133.333333333333,4,2,2,30,0,0
161731,288.461538461538,4,2,2,40,1,0
161731,-133.333333333333,4,2,2,30,0,0
164620,288.461538461538,4,2,2,40,1,0
164620,-133.333333333333,4,2,2,30,0,0
165188,288.461538461538,4,2,2,40,1,0
165188,-133.333333333333,4,2,2,30,0,0
165766,288.461538461538,4,2,2,40,1,0
165766,-133.333333333333,4,2,2,30,0,0
166060,288.461538461538,4,2,2,40,1,0
166060,-100,4,2,2,30,0,0
166345,288.461538461538,4,2,2,40,1,0
166345,-100,4,2,2,30,0,0
166629,-133.333333333333,4,2,2,30,0,0
166917,-100,4,2,2,30,0,0
167206,-133.333333333333,4,2,2,30,0,0
167494,-100,4,2,2,30,0,0
168070,288.461538461538,4,2,2,40,1,0
168070,-100,4,2,2,30,0,0
169216,288.461538461538,4,2,2,40,1,0
169216,-100,4,2,2,30,0,0
170663,288.461538461538,4,2,2,40,1,0
170946,288.461538461538,4,2,2,40,1,0
172109,288.461538461538,4,2,2,40,1,0
172382,288.461538461538,4,2,2,40,1,0
172382,-83.3333333333333,4,2,2,30,0,0
172665,288.461538461538,4,2,2,40,1,0
172665,-133.333333333333,4,2,2,30,0,0
173233,288.461538461538,4,2,2,40,1,0
173233,-83.3333333333333,4,2,2,30,0,0
174975,288.461538461538,4,2,2,40,1,0
174975,-83.3333333333333,4,2,2,30,0,0
176425,288.461538461538,4,2,2,40,1,0
176425,-83.3333333333333,4,2,2,30,0,0
177588,288.461538461538,4,2,2,40,1,0
177588,-83.3333333333333,4,2,2,30,0,0
177884,288.461538461538,4,2,2,40,1,0
178024,288.461538461538,4,2,2,40,1,0
178161,288.461538461538,4,2,2,40,1,0
178319,288.461538461538,4,2,2,40,1,0
178465,288.461538461538,4,2,2,40,1,0
178919,288.461538461538,4,2,2,40,1,0
179068,288.461538461538,4,2,2,40,1,0
179202,288.461538461538,4,2,2,40,1,0
179353,288.461538461538,4,2,2,40,1,0
179797,288.461538461538,4,2,2,40,1,0
179923,288.461538461538,4,2,2,40,1,0
179923,-71.4285714285714,4,2,2,50,0,0
180225,288.461538461538,4,2,2,40,1,0
180225,-133.333333333333,4,2,2,50,0,0
180500,288.461538461538,4,2,2,40,1,0
180500,-71.4285714285714,4,2,2,50,0,0
180782,288.461538461538,4,2,2,40,1,0
180782,-133.333333333333,4,2,2,50,0,0
181052,-71.4285714285714,4,2,2,50,0,0
181355,288.461538461538,4,2,2,40,1,0
181355,-133.333333333333,4,2,2,50,0,0
181629,-71.4285714285714,4,2,2,50,0,0
181917,-133.333333333333,4,2,2,50,0,0
182206,-71.4285714285714,4,2,2,50,0,0
182515,288.461538461538,4,2,2,40,1,0
182515,-133.333333333333,4,2,2,50,0,0
182783,-71.4285714285714,4,2,2,50,0,0
183071,-133.333333333333,4,2,2,50,0,0
183360,-71.4285714285714,4,2,2,50,0,0
183660,288.461538461538,4,2,2,40,1,0
183660,-133.333333333333,4,2,2,50,0,0
184513,-71.4285714285714,4,2,2,50,0,0
184803,288.461538461538,4,2,2,40,1,0
184803,-133.333333333333,4,2,2,50,0,0
184959,288.461538461538,4,2,2,40,1,0
184959,-133.333333333333,4,2,2,50,0,0
185090,-71.4285714285714,4,2,2,50,0,0
185380,288.461538461538,4,2,2,40,1,0
185380,-133.333333333333,4,2,2,50,0,0
185966,288.461538461538,4,2,2,40,1,0
185966,-71.4285714285714,4,2,2,50,0,0
186244,-133.333333333333,4,2,2,50,0,0
186533,-71.4285714285714,4,2,2,50,0,0
186838,288.461538461538,4,2,2,40,1,0
186838,-71.4285714285714,4,2,2,50,0,0
187120,288.461538461538,4,2,2,40,1,0
187120,-133.333333333333,4,2,2,50,0,0
187398,-71.4285714285714,4,2,2,50,0,0
187687,-133.333333333333,4,2,2,50,0,0
187975,-71.4285714285714,4,2,2,50,0,0
188263,-133.333333333333,4,2,2,50,0,0
188552,-71.4285714285714,4,2,2,50,0,0
188840,-133.333333333333,4,2,2,50,0,0
189149,288.461538461538,4,2,2,40,1,0
189149,-71.4285714285714,4,2,2,50,0,0
189449,288.461538461538,4,2,2,40,1,0
189449,-133.333333333333,4,2,2,50,0,0
189706,-71.4285714285714,4,2,2,50,0,0
189994,-133.333333333333,4,2,2,50,0,0
190283,-71.4285714285714,4,2,2,50,0,0
190594,288.461538461538,4,2,2,40,1,0
190594,-133.333333333333,4,2,2,50,0,0
190860,-71.4285714285714,4,2,2,50,0,0
191148,-133.333333333333,4,2,2,50,0,0
191449,288.461538461538,4,2,2,40,1,0
191449,-71.4285714285714,4,2,2,50,0,0
191725,-133.333333333333,4,2,2,50,0,0
192013,-71.4285714285714,4,2,2,50,0,0
192302,-133.333333333333,4,2,2,50,0,0
192590,-71.4285714285714,4,2,2,50,0,0
192879,-133.333333333333,4,2,2,50,0,0
193045,288.461538461538,4,2,2,40,1,0
193045,-133.333333333333,4,2,2,50,0,0
193744,-71.4285714285714,4,2,2,50,0,0
194041,288.461538461538,4,2,2,40,1,0
194041,-133.333333333333,4,2,2,50,0,0
194321,-71.4285714285714,4,2,2,50,0,0
194624,288.461538461538,4,2,2,40,1,0
194624,-133.333333333333,4,2,2,50,0,0
194898,-71.4285714285714,4,2,2,50,0,0
195187,-133.333333333333,4,2,2,50,0,0
195350,288.461538461538,4,2,2,40,1,0
195350,-133.333333333333,4,2,2,50,0,0
195494,288.461538461538,4,2,2,40,1,0
195494,-71.4285714285714,4,2,2,50,0,0
195763,-133.333333333333,4,2,2,50,0,0
196052,-71.4285714285714,4,2,2,50,0,0
196340,-133.333333333333,4,2,2,50,0,0
196931,288.461538461538,4,2,2,40,1,0
196931,-71.4285714285714,4,2,2,50,0,0
197793,288.461538461538,4,2,2,40,1,0
198088,288.461538461538,4,2,2,40,1,0
198088,-71.4285714285714,4,2,2,50,0,0
198376,288.461538461538,4,2,2,40,1,0
198376,-71.4285714285714,4,2,2,50,0,0
198648,-133.333333333333,4,2,2,50,0,0
198937,-71.4285714285714,4,2,2,50,0,0
199231,288.461538461538,4,2,2,40,1,0
199231,-133.333333333333,4,2,2,50,0,0
199513,-71.4285714285714,4,2,2,50,0,0
199802,-133.333333333333,4,2,2,50,0,0
200090,-71.4285714285714,4,2,2,50,0,0
200379,-133.333333333333,4,2,2,50,0,0
200673,288.461538461538,4,2,2,40,1,0
200673,-133.333333333333,4,2,2,50,0,0
200956,-71.4285714285714,4,2,2,50,0,0
201547,288.461538461538,4,2,2,40,1,0
201547,-71.4285714285714,4,2,2,50,0,0
202432,288.461538461538,4,2,2,40,1,0
202561,288.461538461538,4,2,2,40,1,0
202705,288.461538461538,4,2,2,40,1,0
202705,-133.333333333333,4,2,2,50,0,0
203005,288.461538461538,4,2,2,40,1,0
203005,-71.4285714285714,4,2,2,50,0,0
203282,288.461538461538,4,2,2,40,1,0
203282,-133.333333333333,4,2,2,50,0,0
203433,288.461538461538,4,2,2,40,1,0
203433,-133.333333333333,4,2,2,50,0,0
203552,-71.4285714285714,4,2,2,50,0,0
203840,-133.333333333333,4,2,2,50,0,0
204161,288.461538461538,4,2,2,40,1,0
204417,-71.4285714285714,4,2,2,50,0,0
204706,-133.333333333333,4,2,2,50,0,0
204958,-71.4285714285714,4,2,2,50,0,0
205588,288.461538461538,4,2,2,40,1,0
205588,-133.333333333333,4,2,2,50,0,0
205860,-71.4285714285714,4,2,2,50,0,0
206171,288.461538461538,4,2,2,40,1,0
206171,-133.333333333333,4,2,2,50,0,0
206881,288.461538461538,4,2,2,40,1,0
207035,288.461538461538,4,2,2,40,1,0
207188,288.461538461538,4,2,2,40,1,0
207339,288.461538461538,4,2,2,40,1,0
207475,288.461538461538,4,2,2,40,1,0
207628,288.461538461538,4,2,2,40,1,0
207628,-62.5,4,2,2,60,0,0
207910,288.461538461538,4,2,2,40,1,0
207910,-62.5,4,2,2,60,0,0
209349,288.461538461538,4,2,2,40,1,0
209349,-62.5,4,2,2,60,0,0
210206,288.461538461538,4,2,2,40,1,0
210206,-62.5,4,2,2,60,0,0
210486,288.461538461538,4,2,2,40,1,0
210486,-62.5,4,2,2,60,0,0
210763,-133.333333333333,4,2,2,50,0,0
211052,-62.5,4,2,2,60,0,0
211340,-133.333333333333,4,2,2,60,0,0
211348,288.461538461538,4,2,2,40,1,0
211348,-133.333333333333,4,2,2,60,0,0
211643,288.461538461538,4,2,2,40,1,0
211643,-133.333333333333,4,2,2,60,0,0
211916,288.461538461538,4,2,2,40,1,0
211916,-133.333333333333,4,2,2,60,0,0
212225,288.461538461538,4,2,2,40,1,0
215667,-100,4,2,2,30,0,0
217412,288.461538461538,4,2,2,40,1,0
217975,288.461538461538,4,2,2,40,1,0
220282,-133.333333333333,4,2,2,30,0,0
223467,288.461538461538,4,2,2,40,1,0
223467,-133.333333333333,4,2,2,30,0,0
224324,288.461538461538,4,2,2,40,1,0
224324,-133.333333333333,4,2,2,30,0,0
224900,288.461538461538,4,2,2,40,1,0
224900,-133.333333333333,4,2,2,30,0,0
227488,288.461538461538,4,2,2,40,1,0
227488,-133.333333333333,4,2,2,30,0,0
227768,288.461538461538,4,2,2,40,1,0
227768,-133.333333333333,4,2,2,30,0,0
228938,288.461538461538,4,2,2,40,1,0
228938,-133.333333333333,4,2,2,30,0,0
229503,288.461538461538,4,2,2,40,1,0
229503,-133.333333333333,4,2,2,30,0,0
231531,288.461538461538,4,2,2,40,1,0
231531,-133.333333333333,4,2,2,30,0,0
232124,288.461538461538,4,2,2,40,1,0
232124,-133.333333333333,4,2,2,30,0,0
232262,288.461538461538,4,2,2,40,1,0
232262,-133.333333333333,4,2,2,30,0,0
232983,288.461538461538,4,2,2,40,1,0
232983,-133.333333333333,4,2,2,30,0,0
235564,288.461538461538,4,2,2,40,1,0
235564,-133.333333333333,4,2,2,30,0,0
236419,288.461538461538,4,2,2,40,1,0
237597,288.461538461538,4,2,2,40,1,0
237752,288.461538461538,4,2,2,40,1,0
238027,288.461538461538,4,2,2,40,1,0
238191,288.461538461538,4,2,2,40,1,0
238784,288.461538461538,4,2,2,40,1,0

[Colours]
Combo1 : 255,117,83
Combo2 : 128,255,128

[HitObjects]
130,103,1065,6,0,P|130:77|146:58,3,51.25,2|2|2|2,0:0|0:0|0:0|0:0,0:0:0:0:
27,114,1363,6,0,P|116:127|195:222,1,184.499994369507,8|0,1:2|0:0,0:0:0:0:
81,262,1651,6,0,P|66:209|98:191,1,76.875,0|0,1:0|0:0,0:0:0:0:
182,190,1931,6,0,P|153:277|134:368,1,184.499994369507,8|0,1:2|0:0,0:0:0:0:
288,359,2239,5,2,0:0:0:0:
294,335,2323,1,2,0:0:0:0:
288,310,2395,1,2,0:0:0:0:
269,294,2467,1,2,0:0:0:0:
243,291,2529,6,0,P|221:340|220:362,1,51.25,10|0,0:0|0:0,0:0:0:0:
81,262,2668,2,0,P|82:236|76:211,1,51.25,8|0,0:0|0:0,0:0:0:0:
137,125,2814,5,2,0:0:0:0:
161,130,2886,1,2,0:0:0:0:
179,148,2952,1,2,0:0:0:0:
184,172,3024,1,2,0:0:0:0:
174,193,3096,6,0,P|183:102|210:14,1,184.499994369507,10|0,0:0|0:0,0:0:0:0:
288,46,3384,5,0,1:0:0:0:
288,46,3672,2,0,P|371:60|398:13,1,122.999996246338,8|0,0:0|0:0,0:0:0:0:
481,265,3960,6,0,P|398:279|361:187,1,184.499994369507,0|0,1:0|0:0,0:0:0:0:
386,88,4264,6,0,L|391:26,1,51.25,8|0,0:0|0:0,0:0:0:0:
474,88,4415,2,0,L|479:26,1,38.4375014662743,8|0,3:0|0:0,0:0:0:0:
288,46,4566,5,2,1:2:0:0:
260,130,4710,1,2,1:2:0:0:
204,18,4846,1,10,1:2:0:0:
176,102,4969,1,2,1:2:0:0:
20,159,5113,5,2,1:2:0:0:
48,243,5267,1,2,1:2:0:0:
104,131,5411,1,10,1:2:0:0:
132,215,5555,1,2,1:2:0:0:
48,243,5691,6,0,L|38:313,3,51.25,4|2|2|2,0:0|0:0|0:0|0:0,0:0:0:0:
111,361,5979,6,0,B|206:352|206:352|214:347|214:347|305:339,1,184.499994369507,8|0,0:0|0:0,0:0:0:0:
421,280,6267,5,0,1:0:0:0:
411,367,6412,1,0,1:0:0:0:
387,197,6553,6,8,B|430:177|435:121|435:121|430:177|477:213,1,184.499994369507,8|0,1:2|0:0,0:0:0:0:
350,123,6846,6,0,P|337:100|316:88,3,51.25,2|2|2|2,0:0|0:0|0:0|0:0,0:0:0:0:
286,20,7142,2,0,P|260:19|238:31,1,51.25,8|0,1:2|0:0,0:0:0:0:
268,219,7283,2,0,P|281:197|281:172,1,51.25,8|0,1:2|0:3,0:3:0:0:
205,120,7424,6,0,P|116:127|51:133,1,153.75
42,35,7712,6,0,B|33:130|33:130|28:138|28:138|20:229,1,184.499994369507,8|0,0:0|0:0,0:0:0:0:
31,308,8000,6,0,B|66:290|102:320|102:320|130:349|174:343,1,153.75,2|0,1:2|0:0,0:0:0:0:
301,306,8289,6,8,B|259:318|245:372|245:372|259:318|225:284,1,184.499994369507,8|0,1:2|0:0,0:0:0:0:
281,227,8577,1,0,1:0:0:0:
281,227,8722,1,0,1:0:0:0:
324,378,8875,6,0,P|350:379|371:365,1,51.25,8|0,0:0|0:0,0:0:0:0:
466,270,9019,6,0,P|476:254|480:235,1,38.4375014662743,8|0,3:0|0:0,0:0:0:0:
390,294,9178,5,2,1:2:0:0:
451,349,9312,1,2,1:2:0:0:
466,270,9448,5,10,3:0:0:0:
466,270,9587,1,10,3:0:0:0:
251,115,9733,6,0,P|252:41|316:6,1,153.75,0|0,1:0|0:0,0:0:0:0:
499,102,10031,6,0,B|404:93|404:93|396:88|396:88|305:80,1,184.499994369507,8|0,0:0|0:0,0:0:0:0:
241,191,10316,6,0,P|289:223|305:143,1,153.75,4|0,0:0|0:0,0:0:0:0:
29,116,10604,6,0,B|40:139|37:163|37:163|66:187|115:172|127:128,1,153.75,10|0,0:0|0:0,0:0:0:0:
96,45,10892,2,0,B|70:43|50:28|50:28|15:42|3:91|36:124,1,153.75,2|0,0:0|0:0,0:0:0:0:
124,136,11181,2,0,B|138:114|160:105|160:105|166:67|130:32|85:44,1,153.75,10|0,0:0|0:0,0:0:0:0:
12,228,11469,6,0,B|45:249|37:295|37:295|25:334|53:369,1,153.75,2|0,1:2|0:0,0:0:0:0:
153,264,11758,2,0,B|117:280|81:250|81:250|53:221|11:228,1,153.75,10|0,1:2|0:0,0:0:0:0:
51,367,12046,2,0,B|53:326|97:311|97:311|137:300|152:259,1,153.75,2|0,0:2|0:0,0:0:0:0:
246,101,12335,6,0,B|214:103|193:124|193:124|69:102,1,184.499994369507,8|0,1:2|0:0,0:0:0:0:
63,22,12623,6,0,P|158:53|162:111,1,153.75,0|0,1:0|0:0,0:0:0:0:
339,303,12919,6,0,B|350:338|333:334|325:381|325:381|308:331|339:303,1,153.75,10|0,1:2|0:0,0:0:0:0:
305,223,13204,2,0,B|268:215|280:202|243:171|243:171|295:182|305:223,1,153.75,2|0,0:0|0:0,0:0:0:0:
395,231,13481,2,0,B|419:202|425:220|470:203|470:203|434:243|395:231,1,153.75,10|0,1:2|0:0,0:0:0:0:
357,45,13769,6,0,B|315:91|357:141|357:141|418:108,1,153.75,2|0,1:2|0:0,0:0:0:0:
443,47,14054,2,0,B|424:-12|359:-1|359:-1|357:68,1,153.75,10|0,1:2|0:0,0:0:0:0:
398,118,14342,2,0,B|458:131|481:70|481:70|422:33,1,153.75,2|0,0:2|0:3,0:3:0:0:
208,72,14630,6,0,B|113:63|113:63|105:58|105:58|14:50,1,184.499994369507,8|0,0:0|0:0,0:0:0:0:
28,174,14917,6,0,B|5:221|55:263|55:263|59:231|97:206,1,153.75,2|0,1:2|0:0,0:0:0:0:
140,161,15205,2,0,P|145:143|145:162,1,51.25,8|0,0:0|0:0,0:0:0:0:
4,332,15350,6,0,P|66:289|142:289,1,153.75,2|0,0:0|0:0,0:0:0:0:
201,344,15638,1,0,0:0:0:0:
140,161,15782,6,0,B|161:207|225:202|245:120|176:89,1,184.499994369507,8|0,1:2|0:0,0:0:0:0:
41,20,16071,6,0,L|25:195,1,153.75,2|0,1:2|0:0,0:0:0:0:
0,258,16359,6,0,P|1:267|3:254,1,51.25,8|0,1:2|0:2,0:0:0:0:
63,333,16503,6,0,B|98:315|134:345|134:345|162:374|206:368,1,153.75,0|0,1:2|0:0,0:0:0:0:
264,315,16792,1,0,0:0:0:0:
373,188,16936,6,0,B|366:267|366:267|361:275|361:275|352:370,1,184.499994369507,4|0,1:2|0:0,0:0:0:0:
444,344,17225,6,0,B|460:340|460:340|444:340,1,30.7499990615845,8|0,0:0|0:0,0:0:0:0:
0,32,18386,5,2,0:0:0:0:
48,96,18525,1,2,0:0:0:0:
128,80,18666,1,2,0:0:0:0:
176,144,18800,1,2,0:0:0:0:
256,128,18961,5,2,0:0:0:0:
292,198,19238,5,2,0:0:0:0:
401,357,19526,6,0,P|399:301|481:252,2,153.750005865097,6|8|0,0:0|0:0|0:0,0:0:0:0:
446,106,20391,2,0,P|479:120|482:156,1,76.8750029325486,8|0,0:0|0:0,0:0:0:0:
377,273,20680,6,0,L|262:262,1,115.312504398823,2|0,0:0|0:0,0:0:0:0:
186,197,20968,2,0,B|173:215|173:215|200:373,2,153.750005865097,8|0|8,0:0|0:0|0:0,0:0:0:0:
0,323,21834,6,0,L|114:333,1,115.312504398823,0|0,1:0|0:0,0:0:0:0:
254,235,22122,6,0,B|294:190|294:190|269:136,1,115.312504398823,8|0,0:0|0:0,0:0:0:0:
234,64,22404,1,0,0:0:0:0:
158,222,22692,6,0,B|135:172|135:172|176:128,1,115.312504398823,8|0,0:0|0:0,0:0:0:0:
270,139,22980,6,0,B|296:125|323:147|323:147|344:169|377:165,1,115.312504398823,0|0,0:2|0:0,0:0:0:0:
494,230,23261,6,0,P|447:261|445:316,1,115.312504398823,8|0,0:0|0:0,0:0:0:0:
510,369,23549,1,0,3:0:0:0:
510,369,23693,1,0,3:0:0:0:
365,366,23837,6,0,P|318:335|316:280,1,115.312504398823,8|0,0:0|0:0,0:0:0:0:
294,192,24126,6,0,L|438:176,1,115.312504398823
230,145,24401,6,0,P|258:192|241:246,1,115.312504398823,8|0,0:0|0:0,0:0:0:0:
169,293,24689,1,0,0:0:0:0:
169,293,24833,1,0,0:0:0:0:
98,329,24977,6,0,P|154:333|203:362,1,115.312504398823,8|0,0:0|0:0,0:0:0:0:
271,319,25266,2,0,P|269:261|294:210,1,115.312504398823,2|0,0:0|0:0,0:0:0:0:
351,133,25554,6,0,B|386:113|423:143|423:143|452:174|497:168,2,153.750005865097,8|0|8,0:2|0:0|0:0,0:0:0:0:
11,55,26420,6,0,L|22:180,1,115.312504398823
159,263,26695,6,8,P|113:231|59:245,1,115.312504398823,8|0,0:0|0:0,0:0:0:0:
12,303,26983,1,0,0:0:0:0:
286,186,27271,5,8,0:0:0:0:
286,186,27416,1,0,0:0:0:0:
216,150,27560,6,0,P|243:177|240:216,1,76.8750029325486
59,245,27870,6,0,L|70:117,1,115.312504398823,8|0,1:2|0:0,0:0:0:0:
76,51,28158,6,0,P|104:4|139:14,1,76.8750029325486,0|0,1:0|0:0,0:0:0:0:
68,130,28446,6,0,P|4:178|-10:159,1,115.312504398823,8|0,0:0|0:0,0:0:0:0:
0,86,28750,6,0,B|74:92|74:92|81:97|81:97|151:103,1,153.75,6|0,1:2|0:0,0:0:0:0:
219,61,29022,6,0,P|233:66|224:66,1,51.25,8|0,0:0|0:0,0:0:0:0:
216,140,29166,1,0,1:0:0:0:
261,257,29310,6,0,P|209:181|128:196,1,153.75,2|0,0:0|0:0,0:0:0:0:
83,129,29598,6,0,P|62:143|54:167,1,51.25,10|0,0:0|0:0,0:0:0:0:
89,246,29743,1,0,0:0:0:0:
0,315,29887,6,0,B|26:318|46:335|46:335|157:344,1,153.75,2|0,1:2|0:0,0:0:0:0:
197,281,30175,6,0,P|200:263|193:279,1,51.25,8|0,0:0|0:0,0:0:0:0:
227,349,30320,2,0,P|240:274|256:199,1,153.75,0|0,1:0|0:0,0:0:0:0:
274,123,30608,1,0,1:0:0:0:
329,296,30769,6,0,B|364:278|400:308|400:308|428:337|472:331,1,153.75,10|0,1:2|0:0,0:0:0:0:
512,257,31057,6,0,L|499:400,1,115.312504398823,0|0,1:0|0:0,0:0:0:0:
408,218,31345,6,0,L|397:144,1,51.25,10|0,1:2|0:2,0:0:0:0:
427,309,31641,5,2,1:2:0:0:
408,218,31785,1,0,0:0:0:0:
512,257,31929,5,10,0:0:0:0:
329,296,32073,1,0,0:0:0:0:
469,86,32217,6,0,B|399:80|399:80|392:75|392:75|318:69,1,153.75,2|0,1:2|0:0,0:0:0:0:
153,5,32505,6,0,P|145:53|183:85,1,102.5,10|0,0:0|0:0,0:0:0:0:
302,199,32793,2,0,P|263:168|217:185,1,102.5,2|0,0:0|0:0,0:0:0:0:
59,231,33082,6,0,P|101:216|115:174,1,92.2499971847535,10|0,0:0|0:0,0:0:0:0:
25,146,33370,6,0,L|9:321,1,153.75,0|0,1:0|0:0,0:0:0:0:
164,356,33659,6,0,P|108:363|90:323,1,102.5,10|0,0:0|0:0,0:0:0:0:
59,231,33947,5,2,0:0:0:0:
149,211,34092,1,0,0:0:0:0:
243,154,34236,5,10,0:0:0:0:
333,174,34380,1,0,0:0:0:0:
397,250,34524,5,2,1:2:0:0:
397,250,34668,1,0,0:0:0:0:
487,230,34813,1,10,0:0:0:0:
487,230,34957,1,0,0:0:0:0:
438,327,35101,6,0,L|454:151,1,153.75,2|0,0:0|0:0,0:0:0:0:
457,43,35390,6,0,B|473:56|506:58|506:58|475:68|464:84,1,102.5,10|0,0:0|0:0,0:0:0:0:
273,153,35668,6,0,P|310:89|383:73,1,153.75,6|0,0:0|0:0,0:0:0:0:
498,194,35956,6,0,P|403:213|361:136,1,184.499994369507,10|0,0:0|0:0,0:0:0:0:
305,64,36244,1,2,0:0:0:0:
305,64,36389,1,2,0:0:0:0:
285,363,36543,6,0,B|264:409|200:404|175:322|250:282,1,184.499994369507,8|0,1:2|0:0,0:0:0:0:
218,212,36831,1,2,0:0:0:0:
301,233,36975,1,2,0:0:0:0:
180,108,37119,5,10,0:0:0:0:
97,129,37264,1,10,0:0:0:0:
62,241,37408,6,0,L|78:57,1,184.499994369507,2|0,0:0|0:0,0:0:0:0:
0,280,37696,6,0,B|41:258|84:294|84:294|116:332|170:321,1,184.499994369507,10|0,1:2|0:0,0:0:0:0:
361,326,37985,6,0,B|379:338|434:329|434:329|300:352,1,184.499994369507,6|0,0:0|0:0,0:0:0:0:
229,247,38273,2,0,P|225:232|230:245,1,61.499998123169,10|0,0:0|0:0,0:0:0:0:
245,384,38418,5,0,0:0:0:0:
245,384,38562,2,0,B|252:298|252:298|258:289|258:289|265:199,1,184.499994369507,0|0,0:2|0:0,0:0:0:0:
223,77,38850,6,0,P|282:85|311:137,1,122.999996246338,10|0,0:0|0:0,0:0:0:0:
480,176,39139,6,0,B|490:228|428:254|428:254|421:198|373:187,1,184.499994369507,0|0,1:2|0:0,0:0:0:0:
311,137,39424,2,0,B|344:96|336:49|336:49|344:96|401:118,1,184.499994369507,10|0,0:0|0:0,0:0:0:0:
349,264,39712,6,0,B|261:257|261:257|252:251|252:251|166:244,1,184.499994369507,0|0,1:2|0:0,0:0:0:0:
74,140,40000,2,0,B|95:155|95:155|64:329,1,184.499994369507,10|0,0:0|0:0,0:0:0:0:
65,330,40289,6,0,L|-15:346,1,61.499998123169
0,121,40572,6,0,L|231:74,1,184.499994369507,8|0,0:0|0:0,0:0:0:0:
190,65,40860,1,2,0:0:0:0:
166,323,41148,6,0,L|144:380,1,61.499998123169,10|0,0:0|0:0,0:0:0:0:
391,131,41437,6,0,B|410:82|375:47|375:47|436:71|425:137,1,184.499994369507,2|0,0:0|0:0,0:0:0:0:
421,205,41738,5,10,0:0:0:0:
421,205,41882,1,2,0:0:0:0:
318,345,42026,6,0,B|299:296|334:261|334:261|273:285|284:351,1,184.499994369507,2|0,0:0|0:0,0:0:0:0:
203,362,42314,6,0,B|289:369|289:369|298:375|298:375|386:382,1,184.499994369507,10|0,0:2|0:0,0:0:0:0:
465,364,42603,1,4,0:0:0:0:
404,311,42747,1,0,0:0:0:0:
203,362,42888,6,0,B|154:343|140:296|140:296|154:343|121:384,1,184.499994369507,10|0,0:0|0:0,0:0:0:0:
228,280,43176,5,0,0:0:0:0:
242,182,43320,1,0,0:0:0:0:
228,280,43464,1,10,0:0:0:0:
242,182,43609,1,0,0:0:0:0:
74,320,43753,6,0,P|0:271|7:183,1,184.499994369507,0|0,1:0|0:0,0:0:0:0:
3,41,44053,6,0,P|43:54|8:32,1,122.999996246338,10|0,0:0|0:0,0:0:0:0:
147,83,44328,6,0,P|92:155|89:245,1,184.499994369507
0,302,44616,6,0,P|55:328|81:383,1,122.999996246338,10|0,0:0|0:0,0:0:0:0:
165,186,44904,6,0,B|206:164|249:200|249:200|281:238|335:227,1,184.499994369507,0|0,1:2|0:0,0:0:0:0:
404,194,45193,2,0,P|416:193|399:189,1,61.499998123169,10|0,0:0|0:0,0:0:0:0:
403,271,45337,1,2,0:0:0:0:
324,66,45481,6,0,B|278:48|267:0|267:0|278:48|245:89,1,184.499994369507,2|0,1:2|0:0,0:0:0:0:
245,298,45770,6,0,L|257:382,1,76.875,8|0,0:0|0:0,0:0:0:0:
80,160,46063,5,10,0:0:0:0:
400,216,46255,5,10,0:0:0:0:
192,208,46447,5,10,0:0:0:0:
304,160,46639,5,10,0:0:0:0:
1,306,46916,6,0,P|28:325|36:362,1,61.499998123169,8|0,0:0|0:0,0:0:0:0:
132,251,47060,2,0,P|129:283|101:309,1,61.499998123169,8|0,0:0|0:0,0:0:0:0:
48,236,47204,5,4,0:0:0:0:
48,236,47348,1,0,0:0:0:0:
117,382,47492,2,0,P|147:387|175:375,2,61.499998123169,10|0|0,0:0|0:0|0:0,0:0:0:0:
15,159,47781,6,0,P|102:167|131:250,1,184.499994369507,2|0,0:0|0:0,0:0:0:0:
175,375,48069,6,0,L|298:348,1,122.999996246338,10|0,0:0|0:0,0:0:0:0:
408,277,48358,6,0,L|227:243,1,184.499994369507,2|0,0:0|0:0,0:0:0:0:
340,182,48646,6,0,L|409:168,1,61.499998123169,10|0,0:0|0:0,0:0:0:0:
475,153,48797,1,0,0:0:0:0:
480,358,48941,6,0,L|502:244,1,115.312504398823,2|0,3:0|0:0,0:0:0:0:
360,0,49229,6,0,B|353:86|353:86|347:95|347:95|340:183,1,184.499994369507,10|0,0:2|0:0,0:0:0:0:
398,280,49518,6,0,B|352:298|341:346|341:346|352:298|319:257,1,184.499994369507,0|0,1:0|0:0,0:0:0:0:
260,195,49821,6,0,P|238:192|260:189,1,61.499998123169,10|0,0:0|0:0,0:0:0:0:
340,182,49965,1,0,0:0:0:0:
267,320,50119,6,0,L|85:354,1,184.499994369507,2|0,3:0|0:0,0:0:0:0:
7,225,50407,6,0,L|134:248,1,122.999996246338,10|0,0:0|0:0,0:0:0:0:
260,195,50695,6,0,P|260:127|161:92,1,184.499994369507,2|0,1:2|0:0,0:0:0:0:
123,185,50984,2,0,L|131:287,2,61.499998123169,10|0|0,0:0|0:0|0:0,0:0:0:0:
235,65,51272,6,0,P|249:13|303:11,1,115.312504398823,2|0,3:0|0:0,0:0:0:0:
351,169,51561,2,0,L|343:271,1,61.499998123169,10|0,0:0|0:0,0:0:0:0:
346,252,51705,1,0,0:0:0:0:
428,132,51849,5,0,0:0:0:0:
357,83,51994,1,0,0:0:0:0:
499,181,52138,5,10,0:0:0:0:
428,132,52282,1,0,0:0:0:0:
357,83,52426,2,0,B|271:76|271:76|262:70|262:70|174:63,1,184.499994369507,2|0,3:0|0:0,0:0:0:0:
0,183,52715,2,0,B|81:129|81:129|8:64,1,184.499994369507,10|0,0:0|0:0,0:0:0:0:
32,262,53003,6,0,L|21:384,1,122.999996246338,2|0,0:0|0:0,0:0:0:0:
224,307,53292,6,0,B|278:322|295:365|295:365|291:320|337:280,1,184.499994369507,10|0,0:0|0:0,0:0:0:0:
315,165,53580,6,0,P|253:201|270:248,1,115.312504398823,2|0,3:0|0:0,0:0:0:0:
382,359,53868,6,0,P|399:348|410:324,1,38.4375014662743,10|2,0:0|0:0,0:0:0:0:
500,327,54013,2,0,P|500:305|484:284,1,38.4375014662743,8|0,0:0|0:0,0:0:0:0:
258,234,54139,6,0,B|217:212|174:248|174:248|142:286|88:275,1,184.499994369507,6|0,1:2|0:0,0:0:0:0:
4,105,54437,2,0,B|20:78|14:51|14:51|46:24|102:41|115:91,1,184.499994369507,10|0,0:0|0:0,0:0:0:0:
53,197,54725,6,0,B|62:282|62:282|57:292|57:292|66:380,1,184.499994369507,2|0,0:0|0:0,0:0:0:0:
259,234,55013,6,0,B|224:270|166:243|175:159|250:154,1,184.499994369507,10|0,0:2|0:0,0:0:0:0:
322,89,55302,6,0,B|363:67|406:103|406:103|438:141|492:130,1,184.499994369507,2|0,0:2|0:0,0:0:0:0:
454,23,55592,5,8,0:0:0:0:
454,23,55736,1,8,0:0:0:0:
416,201,55867,5,8,0:0:0:0:
416,201,56011,1,8,0:0:0:0:
373,384,56147,5,8,0:0:0:0:
373,384,56300,1,8,0:0:0:0:
351,131,56441,6,0,B|409:194|351:263|351:263|267:217,1,215.249993431091,4|0,0:2|0:0,0:0:0:0:
256,156,56729,2,0,P|243:134|262:153,1,76.8750029325486,8|0,0:0|0:0,0:0:0:0:
163,297,57017,6,0,B|155:199|155:199|149:189|149:189|138:72,1,215.249993431091,2|0,1:2|0:0,0:0:0:0:
79,22,57313,2,0,B|44:8|44:8|78:31,1,76.8750029325486,8|0,0:0|0:0,0:0:0:0:
256,156,57603,6,0,B|304:187|354:139|354:139|399:89|452:120,1,215.249993431091,2|0,1:2|0:0,0:0:0:0:
505,178,57885,2,0,P|517:191|502:178,1,76.8750029325486,8|0,0:0|0:0,0:0:0:0:
288,89,58165,6,0,B|265:56|277:21|277:21|236:-12|166:9|149:71,1,215.249993431091,2|0,1:2|0:0,0:0:0:0:
34,115,58460,2,0,P|82:122|120:175,1,115.312504398823,8|0,0:0|0:0,0:0:0:0:
226,271,58748,6,0,L|12:252,1,215.249993431091,2|0,1:2|0:0,0:0:0:0:
0,379,59043,2,0,P|35:373|63:334,1,76.8750029325486,8|0,0:0|0:0,0:0:0:0:
278,154,59331,6,0,B|268:258|268:258|262:268|262:268|254:366,1,215.249993431091,2|0,1:2|0:0,0:0:0:0:
345,337,59619,2,0,L|430:323,1,76.8750029325486,8|0,0:0|0:0,0:0:0:0:
474,62,59908,6,0,B|512:78|518:115|518:115|469:48|366:60,1,215.249993431091,2|0,1:2|0:0,0:0:0:0:
269,44,60196,6,0,P|300:40|309:27,1,38.4375014662743,8|0,0:0|0:0,0:0:0:0:
252,128,60341,2,0,P|270:152|286:154,1,38.4375014662743,8|0,0:0|0:0,0:0:0:0:
169,155,60488,5,2,0:0:0:0:
104,94,60631,2,8,P|91:108|91:127,1,38.4375014662743,8|0,0:0|0:0,0:0:0:0:
21,182,60764,5,8,3:0:0:0:
21,182,60908,1,8,3:0:0:0:
45,353,61052,6,0,B|105:363|105:363|151:318|144:249|105:225,1,215.249993431091,6|0,0:0|0:0,0:0:0:0:
36,266,61340,6,0,B|10:275|10:275|42:272,1,51.25,8|0,0:0|0:0,0:0:0:0:
168,307,61497,1,10,0:0:0:0:
168,307,61641,2,0,B|216:338|266:290|266:290|311:240|364:271,1,215.249993431091,2|0,0:0|0:0,0:0:0:0:
483,305,61929,6,0,B|442:307|423:348|423:348|359:284|423:220,1,215.249993431091,10|0,0:0|0:0,0:0:0:0:
463,154,62224,6,0,P|464:115|456:154,1,115.312504398823,2|0,1:2|0:0,0:0:0:0:
483,305,62512,6,0,P|444:203|341:179,1,215.249993431091,10|0,0:0|0:0,0:0:0:0:
324,52,62800,6,0,P|283:83|283:107,1,76.8750029325486
423,15,63089,6,0,B|325:23|325:23|315:29|315:29|211:39,1,215.249993431091,10|0,1:2|0:0,0:0:0:0:
44,102,63375,6,0,B|93:133|82:196|82:196|93:133|165:115,1,215.249993431091,6|0,0:0|0:0,0:0:0:0:
133,12,63652,6,0,P|117:35|117:61,1,38.4375014662743,8|0,0:0|0:0,0:0:0:0:
210,39,63796,2,0,P|221:64|244:77,1,38.4375014662743,8|0,0:0|0:0,0:0:0:0:
285,147,63940,6,0,B|333:116|383:164|383:164|428:214|481:183,1,215.249993431091,2|0,0:0|0:0,0:0:0:0:
512,69,64217,2,0,L|490:312,1,215.249993431091,10|0,0:0|0:0,0:0:0:0:
395,345,64502,5,2,0:0:0:0:
309,360,64646,1,2,0:0:0:0:
395,345,64800,1,8,0:0:0:0:
309,360,64927,1,2,0:0:0:0:
189,308,65097,5,2,0:0:0:0:
103,323,65241,1,2,0:0:0:0:
189,308,65385,2,0,L|194:252,1,38.4375014662743,10|0,0:0|0:0,0:0:0:0:
103,323,65528,2,0,L|108:267,1,38.4375014662743,10|0,0:0|0:0,0:0:0:0:
321,92,65691,6,0,B|344:59|332:24|332:24|373:-9|443:12|460:74,1,215.249993431091,6|0,1:2|0:0,0:0:0:0:
486,135,65968,2,0,P|509:151|492:130,1,76.8750029325486,8|0,0:0|0:0,0:0:0:0:
381,270,66267,6,0,B|333:239|283:287|283:287|238:337|185:306,1,215.249993431091,2|0,1:2|0:0,0:0:0:0:
71,299,66555,2,0,P|99:323|101:360,1,76.8750029325486,8|0,0:0|0:0,0:0:0:0:
165,18,66843,6,0,P|132:120|111:226,1,215.249993431091,2|0,1:2|0:0,0:0:0:0:
33,126,67132,2,0,P|31:88|3:64,1,76.8750029325486,8|0,0:0|0:0,0:0:0:0:
71,299,67411,6,0,B|126:312|137:375|137:375|126:312|174:281,1,215.249993431091,2|0,1:2|0:0,0:0:0:0:
246,115,67699,2,0,P|217:139|216:176,1,76.8750029325486,8|0,0:0|0:0,0:0:0:0:
219,348,67987,6,0,B|317:356|317:356|327:362|327:362|431:372,1,215.249993431091,2|0,1:2|0:0,0:0:0:0:
387,227,68276,2,0,P|350:254|345:290,1,76.8750029325486,8|0,0:0|0:0,0:0:0:0:
512,216,68564,6,0,B|505:255|505:255|448:277|382:226|405:152,1,215.249993431091,2|0,1:2|0:0,0:0:0:0:
353,88,68853,2,0,B|378:68|381:39|381:39|393:65|425:73,1,115.312504398823,8|0,0:0|0:0,0:0:0:0:
301,26,69141,6,0,B|250:46|250:104|250:104|198:43|225:-3,1,215.249993431091,2|0,1:2|0:0,0:0:0:0:
424,72,69430,6,0,L|419:119,1,38.4375014662743,8|0,0:0|0:0,0:0:0:0:
485,142,69574,2,0,L|480:189,1,38.4375014662743,8|0,0:0|0:0,0:0:0:0:
475,257,69718,1,0,0:0:0:0:
358,233,69862,6,0,L|353:280,1,38.4375014662743,8|0,0:0|0:0,0:0:0:0:
342,344,70007,1,8,3:0:0:0:
342,344,70151,1,8,3:0:0:0:
223,384,70295,6,0,B|204:366|197:346|197:346|23:316,1,215.249993431091,6|0,0:0|0:0,0:0:0:0:
127,296,70584,6,0,P|123:263|116:252,1,38.4375014662743,8|0,0:0|0:0,0:0:0:0:
176,197,70728,2,0,P|145:183|132:184,1,38.4375014662743,8|0,0:0|0:3,0:3:0:0:
0,96,70872,6,0,B|7:135|7:135|64:157|130:106|107:32,1,215.249993431091,0|0,1:0|0:0,0:0:0:0:
29,11,71172,6,0,P|12:-5|28:14,1,76.8750029325486,8|0,0:0|0:0,0:0:0:0:
139,105,71460,6,0,B|237:113|237:113|247:119|247:119|351:129,1,215.249993431091,2|0,1:2|0:0,0:0:0:0:
497,96,71760,6,0,B|464:98|447:121|447:121|449:92|428:68,1,115.312504398823,8|0,0:0|0:0,0:0:0:0:
485,21,72048,1,0,1:0:0:0:
485,21,72192,1,0,1:0:0:0:
512,234,72336,6,0,P|440:137|328:139,1,215.249993431091,8|0,0:0|0:0,0:0:0:0:
203,363,72619,6,0,B|263:373|263:373|309:328|302:259|263:235,1,215.249993431091,4|0,0:0|0:0,0:0:0:0:
138,287,72896,6,0,L|176:282,1,38.4375014662743,8|0,0:0|0:0,0:0:0:0:
196,278,73040,1,2,1:2:0:0:
369,187,73184,5,2,0:0:0:0:
369,187,73328,2,0,L|330:182,1,38.4375014662743,8|0,0:0|0:0,0:0:0:0:
159,93,73472,6,0,B|120:50|120:50|161:9,1,115.312504398823,2|0,0:0|0:0,0:0:0:0:
258,93,73763,6,0,L|249:164,1,71.7499978103638,8|0,0:0|0:0,0:0:0:0:
15,283,74058,5,2,0:0:0:0:
90,261,74202,2,0,L|100:215,1,38.4375014662743,10|0,0:0|0:0,0:0:0:0:
76,337,74346,1,2,1:2:0:0:
79,340,74490,1,2,1:2:0:0:
153,310,74634,1,2,1:2:0:0:
153,310,74779,1,2,1:2:0:0:
385,183,74903,6,0,B|377:227|377:227|312:243|307:316,1,153.75,10|0,0:0|0:0,0:0:0:0:
294,374,75200,1,0,0:0:0:0:
277,164,75349,6,0,B|269:208|269:208|325:245|305:316,1,153.75,10|0,0:0|0:0,0:0:0:0:
294,374,75665,1,0,0:0:0:0:
385,309,75784,5,2,1:2:0:0:
234,278,75928,1,0,1:0:0:0:
59,88,76079,6,0,B|62:109|62:109|88:123|97:150|97:150|96:122|118:100|118:100|114:78,1,153.75,8|0,0:0|0:0,0:0:0:0:
76,20,76367,1,2,0:0:0:0:
39,200,76511,6,0,L|0:203,1,38.4375014662743,10|0,0:0|0:0,0:0:0:0:
100,155,76655,1,2,1:2:0:0:
100,155,76797,1,2,1:2:0:0:
112,229,76941,1,2,1:2:0:0:
112,229,77085,1,2,1:2:0:0:
298,315,77229,6,0,B|332:337|368:302|368:302|400:266|438:289,1,153.75,10|0,0:0|0:0,0:0:0:0:
512,305,77518,1,0,0:0:0:0:
331,194,77657,6,0,B|372:193|382:241|382:241|395:289|437:287,1,153.75,10|0,0:0|0:0,0:0:0:0:
512,305,77960,5,0,1:0:0:0:
489,234,78089,1,2,1:2:0:0:
459,360,78233,1,0,1:0:0:0:
331,194,78372,6,0,P|318:144|393:83,1,153.750005865097,2|0,1:2|0:0,0:0:0:0:
98,315,78938,6,0,L|93:362,1,38.4375014662743,8|0,0:0|0:0,0:0:0:0:
108,234,79082,1,0,0:0:0:0:
189,244,79226,1,0,1:0:0:0:
179,325,79370,1,0,0:0:0:0:
108,234,79514,6,0,L|235:222,1,115.312504398823,0|0,1:0|0:0,0:0:0:0:
272,160,79803,1,0,0:0:0:0:
272,160,79947,1,0,0:0:0:0:
385,286,80081,6,0,L|380:238,1,38.4375014662743,8|0,0:0|0:0,0:0:0:0:
395,367,80225,1,0,0:0:0:0:
466,276,80369,1,0,1:0:0:0:
476,357,80513,1,0,0:0:0:0:
385,286,80664,5,0,1:0:0:0:
476,357,80964,5,0,1:0:0:0:
466,276,81257,6,0,L|461:228,1,38.4375014662743,8|0,0:0|0:0,0:0:0:0:
395,367,81545,6,0,B|349:370|349:370|345:367|345:367|281:372,1,115.312504398823
218,203,81850,6,0,P|207:170|210:137,1,68.3333333333333,2|0,1:2|0:0,0:0:0:0:
105,187,82042,6,0,P|104:159|113:133,1,54.6666666666667,2|0,0:0|0:0,0:0:0:0:
12,141,82234,6,0,P|17:121|28:103,1,40.9999987487793,2|0,2:0|0:0,0:0:0:0:
271,100,82426,6,0,P|260:82|254:62,1,40.9999987487793,10|0,0:0|0:0,0:0:0:0:
355,69,82619,6,0,P|346:43|346:15,1,54.6666666666667,2|0,0:0|0:0,0:0:0:0:
453,66,82824,6,0,P|449:32|460:0,1,68.3333333333333,2|0,0:0|0:0,0:0:0:0:
503,155,82994,6,0,P|439:171|413:220,1,115.312504398823
332,324,83282,2,0,P|383:340|401:291,1,115.312504398823,0|0,1:0|0:0,0:0:0:0:
331,235,83570,6,0,L|292:238,1,38.4375014662743,8|0,0:0|0:0,0:0:0:0:
174,23,83859,6,0,L|182:111,1,76.8750029325486,0|0,1:0|1:0,1:0:0:0:
0,222,84147,5,0,1:0:0:0:
27,149,84291,1,0,0:0:0:0:
73,248,84435,1,0,1:0:0:0:
99,176,84580,1,0,0:0:0:0:
186,283,84724,5,8,1:2:0:0:
213,356,84868,1,0,0:0:0:0:
259,257,85012,1,0,1:0:0:0:
285,329,85157,1,0,0:0:0:0:
186,283,85301,5,0,0:0:0:0:
285,329,85590,5,0,0:0:0:0:
259,257,85878,6,0,L|264:193,1,38.4375014662743,8|0,0:0|0:0,0:0:0:0:
213,356,86167,6,0,L|98:341,1,115.312504398823,2|0,3:0|0:0,0:0:0:0:
0,202,86455,5,10,0:0:0:0:
288,154,86647,5,10,0:0:0:0:
96,186,86840,5,10,0:0:0:0:
192,170,87032,5,10,0:0:0:0:
406,245,87306,6,0,L|419:169,1,76.8750029325486
482,282,87612,6,0,B|470:348|470:348|416:369|377:309,1,153.75,4|0,0:0|0:0,0:0:0:0:
327,278,87900,5,2,0:0:0:0:
308,371,88044,2,0,B|301:308|301:308|305:301|305:301|298:240,1,128.125,2|0,3:0|0:0,0:0:0:0:
282,79,88477,6,0,B|310:46|307:6|307:6|330:38|375:40,1,153.75,8|0,0:0|0:0,0:0:0:0:
498,174,88765,6,0,P|422:189|366:142,1,153.75,2|0,1:2|0:0,0:0:0:0:
359,126,89069,1,2,0:0:0:0:
499,18,89198,6,0,P|455:42|446:116,1,128.125,2|0,3:0|0:0,0:0:0:0:
464,323,89630,6,0,B|428:303|396:333|396:333|368:369|322:358,1,153.75,8|0,0:2|0:0,0:0:0:0:
114,276,89919,6,0,B|88:286|84:311|84:311|117:266|186:274,1,153.75,2|0,1:2|0:0,0:0:0:0:
252,277,90207,1,2,0:0:0:0:
257,371,90351,6,0,P|256:307|284:250,1,128.125,2|0,3:0|0:0,0:0:0:0:
428,103,90784,6,0,B|452:106|471:134|471:134|518:87|471:40,1,153.75,8|0,0:0|0:0,0:0:0:0:
404,24,91059,5,2,0:0:0:0:
476,46,91203,1,2,0:0:0:0:
405,175,91347,6,0,L|416:336,1,153.75,2|0,0:0|0:0,0:0:0:0:
341,362,91634,5,2,2:0:0:0:
269,340,91779,1,2,2:0:0:0:
186,268,91923,5,10,2:0:0:0:
114,290,92068,1,2,2:0:0:0:
0,348,92209,6,0,L|13:246,1,102.5,2|0,3:0|0:0,0:0:0:0:
0,348,92641,6,0,L|29:129,1,205,2|0,3:0|0:0,0:0:0:0:
38,71,93074,1,0,0:0:0:0:
38,71,93218,1,0,0:0:0:0:
206,329,93362,6,0,B|212:391|286:377|312:309|238:249,1,184.499994369507,8|0,0:0|0:0,0:0:0:0:
247,187,93651,1,2,0:0:0:0:
250,174,93795,1,2,0:0:0:0:
332,90,93939,5,2,2:0:0:0:
404,112,94084,1,2,2:0:0:0:
505,239,94228,5,2,2:0:0:0:
433,217,94372,1,2,2:0:0:0:
332,90,94531,6,0,B|304:57|318:15|318:15|274:-21|197:2|179:70,1,245.999992492676,8|0,0:0|0:0,0:0:0:0:
36,284,94955,6,0,B|43:357|128:351|128:351|179:299|149:245,1,245.999992492676,8|0,0:0|0:0,0:0:0:0:
37,140,95374,6,0,B|125:147|125:147|134:152|134:152|219:160,1,184.499994369507,8|0,1:2|0:0,0:0:0:0:
278,219,95671,6,0,B|306:236|306:236|275:226,1,61.499998123169,8|0,0:0|0:0,0:0:0:0:
37,140,96229,5,8,0:0:0:0:
35,129,96301,1,8,0:0:0:0:
33,118,96373,1,8,0:0:0:0:
31,106,96445,1,8,0:0:0:0:
29,95,96517,1,8,0:0:0:0:
27,84,96589,1,8,0:0:0:0:
25,72,96661,1,8,0:0:0:0:
23,61,96733,1,8,0:0:0:0:
20,48,96817,6,0,L|229:99,1,215.249993431091,6|0,0:0|0:0,0:0:0:0:
236,115,97119,2,0,L|252:195,1,76.8750029325486,8|0,0:0|0:0,0:0:0:0:
483,281,97411,6,0,B|455:279|426:297|426:297|252:266,1,215.249993431091,2|0,1:2|0:0,0:0:0:0:
158,237,97699,2,0,L|142:161,1,76.8750029325486,8|0,0:0|0:0,0:0:0:0:
17,262,97988,6,0,P|85:241|181:339,1,215.249993431091,2|0,1:2|0:0,0:0:0:0:
312,354,98276,2,0,P|291:383|256:375,1,76.8750029325486,8|0,0:0|0:0,0:0:0:0:
229,73,98564,6,0,P|248:141|150:237,1,215.249993431091,2|0,1:2|0:0,0:0:0:0:
8,132,98853,2,0,P|43:122|64:152,1,76.8750029325486,8|0,0:0|0:0,0:0:0:0:
98,384,99141,6,0,L|322:352,1,215.249993431091,2|0,1:2|0:0,0:0:0:0:
365,286,99440,2,0,P|380:283|363:285,1,76.8750029325486,8|0,0:0|0:0,0:0:0:0:
475,0,99728,6,0,L|443:224,1,215.249993431091,2|0,1:2|0:0,0:0:0:0:
483,287,100016,2,0,P|468:290|485:288,1,76.8750029325486,8|0,0:0|0:0,0:0:0:0:
375,101,100305,6,0,B|343:98|324:71|324:71|264:93|264:93|291:145|257:192,1,215.249993431091,2|0,1:2|0:0,0:0:0:0:
157,139,100593,6,0,P|183:134|203:140,1,38.4375014662743,8|0,0:0|0:0,0:0:0:0:
129,217,100738,2,0,P|146:237|151:257,1,38.4375014662743,8|0,0:0|0:0,0:0:0:0:
49,242,100882,5,2,0:0:0:0:
95,75,101036,2,0,P|103:49|118:35,1,38.4375014662743,8|0,0:0|0:0,0:0:0:0:
193,53,101167,5,8,3:0:0:0:
193,53,101311,1,8,3:0:0:0:
214,274,101468,6,0,B|163:304|174:367|174:367|163:304|100:292,1,215.249993431091,6|0,0:0|0:0,0:0:0:0:
129,217,101745,6,0,P|134:182|145:173,1,38.4375014662743,8|0,0:0|0:0,0:0:0:0:
220,193,101889,2,0,P|252:179|266:184,1,38.4375014662743,8|0,0:0|0:0,0:0:0:0:
351,116,102045,6,0,L|319:340,1,215.249993431091,2|0,1:2|0:0,0:0:0:0:
427,342,102333,6,0,B|460:344|477:367|477:367|475:338|496:314,1,115.312504398823,8|0,0:0|0:0,0:0:0:0:
510,127,102621,6,0,B|406:137|406:137|396:143|396:143|298:151,1,215.249993431091,2|0,1:2|0:0,0:0:0:0:
262,13,102910,6,0,P|310:13|337:77,1,115.312504398823,8|0,0:0|0:0,0:0:0:0:
405,173,103198,5,2,0:0:0:0:
405,173,103343,1,0,0:0:0:0:
236,250,103487,6,0,B|295:282|295:282|353:213|295:150,1,215.249993431091,10|0,0:2|0:0,0:0:0:0:
186,68,103775,6,0,B|175:124|112:135|112:135|175:124|205:175,1,215.249993431091,6|0,0:0|0:0,0:0:0:0:
295,150,104053,6,0,L|299:102,1,38.4375014662743,8|0,0:0|0:0,0:0:0:0:
302,41,104194,2,0,L|306:-6,1,38.4375014662743,8|0,0:0|0:0,0:0:0:0:
205,174,104338,6,0,L|429:148,1,215.249993431091,2|0,1:2|0:0,0:0:0:0:
483,93,104622,6,0,B|511:114|511:114|495:208,1,115.312504398823,8|0,0:0|0:0,0:0:0:0:
368,295,104904,5,2,0:0:0:0:
464,279,105048,1,2,0:0:0:0:
368,295,105192,1,10,0:0:0:0:
464,279,105336,1,2,0:0:0:0:
301,190,105480,5,2,1:2:0:0:
205,174,105625,1,2,0:0:0:0:
301,190,105769,2,0,L|296:142,1,38.4375014662743,8|0,0:0|0:0,0:0:0:0:
205,174,105913,2,0,L|200:126,1,38.4375014662743,8|0,0:0|0:0,0:0:0:0:
194,304,106064,6,0,B|146:273|96:321|96:321|51:371|-2:340,1,215.249993431091,6|0,0:0|0:0,0:0:0:0:
78,290,106361,2,0,P|76:275|81:293,1,76.8750029325486,8|0,0:0|0:0,0:0:0:0:
7,118,106649,6,0,P|85:186|77:289,1,215.249993431091,2|0,1:2|0:0,0:0:0:0:
5,345,106937,2,0,P|-15:361|3:342,1,76.8750029325486,8|0,0:0|0:0,0:0:0:0:
163,123,107226,6,0,B|126:137|120:172|120:172|167:108|264:120,1,215.249993431091,2|0,1:2|0:0,0:0:0:0:
313,66,107514,2,0,P|337:54|311:60,1,76.8750029325486,8|0,0:0|0:0,0:0:0:0:
510,253,107803,6,0,B|503:214|503:214|446:192|380:243|403:317,1,215.249993431091,2|0,1:2|0:0,0:0:0:0:
410,382,108091,2,0,P|449:371|469:339,1,76.8750029325486,8|0,0:0|0:0,0:0:0:0:
443,183,108380,6,0,P|342:163|312:65,1,215.249993431091,2|0,1:2|0:0,0:0:0:0:
409,32,108668,2,0,P|419:67|399:99,1,76.8750029325486,8|0,0:0|0:0,0:0:0:0:
226,228,108957,6,0,B|187:221|157:248|157:248|18:223,1,215.249993431091,2|0,1:2|0:0,0:0:0:0:
81,105,109245,2,0,P|120:124|134:161,1,76.8750029325486,8|0,0:0|0:0,0:0:0:0:
225,384,109548,6,0,B|210:327|266:296|266:296|326:255|291:189,1,215.249993431091,2|0,1:2|0:0,0:0:0:0:
222,190,109821,6,0,P|221:216|231:235,1,38.4375014662743,8|0,0:0|0:0,0:0:0:0:
342,118,109965,2,0,P|364:131|385:132,1,38.4375014662743,8|0,0:0|0:0,0:0:0:0:
448,133,110109,5,8,3:0:0:0:
344,22,110253,6,0,P|367:9|378:-8,1,38.4375014662743,8|0,0:0|0:0,0:0:0:0:
257,115,110397,5,8,3:0:0:0:
257,115,110542,1,8,3:0:0:0:
323,358,110686,6,0,B|386:346|386:346|409:304|395:236|332:226,1,215.249993431091,6|0,0:0|0:0,0:0:0:0:
255,266,110974,6,0,P|260:284|275:295,1,38.4375014662743,8|0,0:0|0:0,0:0:0:0:
336,227,111119,2,0,P|354:231|371:223,1,38.4375014662743,8|0,0:0|0:0,0:0:0:0:
377,94,111263,6,0,L|162:75,1,215.249993431091,2|0,1:2|0:0,0:0:0:0:
55,94,111565,2,0,P|52:38|5:9,1,115.312504398823,8|0,0:0|0:0,0:0:0:0:
13,284,111853,6,0,B|69:295|80:358|80:358|69:295|120:265,1,215.249993431091,2|0,1:2|0:0,0:0:0:0:
66,207,112141,2,0,P|59:178|62:211,1,115.312504398823,8|0,0:0|0:0,0:0:0:0:
154,333,112430,5,2,0:0:0:0:
257,309,112574,1,8,3:0:0:0:
371,357,112718,6,0,B|433:363|433:363|439:366|439:366|499:371,1,115.312504398823,8|0,1:2|0:0,0:0:0:0:
422,83,113007,6,0,B|400:105|400:105|433:294,1,215.249993431091,6|0,0:0|0:0,0:0:0:0:
494,200,113284,6,0,L|497:161,1,38.4375014662743,8|0,0:0|0:0,0:0:0:0:
508,88,113428,2,0,L|511:49,1,38.4375014662743,8|0,0:0|0:0,0:0:0:0:
422,83,113572,6,0,B|415:44|415:44|358:22|292:73|315:147,1,215.249993431091,2|0,1:2|0:0,0:0:0:0:
333,220,113860,6,0,P|342:257|337:219,1,115.312504398823,8|0,0:0|0:0,0:0:0:0:
289,68,114141,6,0,B|237:38|191:88|191:88|139:140|95:106,1,215.249993431091,2|0,1:2|0:0,0:0:0:0:
28,58,114430,2,0,L|24:19,1,38.4375014662743,8|0,0:0|0:0,0:0:0:0:
205,178,114573,2,0,L|201:216,1,38.4375014662743,8|0,0:0|0:0,0:0:0:0:
96,261,114717,6,0,P|111:154|129:48,1,215.249993431091,2|0,1:2|0:0,0:0:0:0:
201,0,115003,2,0,P|249:34|226:93,1,115.312504398823,8|0,0:0|0:0,0:0:0:0:
38,144,115291,6,0,P|-10:178|13:237,1,115.312504398823,2|0,1:2|0:0,0:0:0:0:
193,231,115579,6,0,P|213:243|194:228,1,71.7499978103638,8|0,0:0|0:0,0:0:0:0:
145,166,115716,1,0,0:0:0:0:
90,261,115872,2,0,B|200:271|200:271|211:277|211:277|316:285,1,215.249993431091,2|0,1:2|0:0,0:0:0:0:
489,240,116136,6,0,P|400:276|400:404,1,215.249993431091,8|0,0:0|0:0,0:0:0:0:
469,371,116432,1,2,1:2:0:0:
469,371,116576,1,2,1:2:0:0:
397,230,116720,6,0,L|400:182,1,38.4375014662743,8|0,0:0|0:0,0:0:0:0:
472,144,116868,6,0,B|403:112|408:22|408:22|403:112|327:136,1,286.999991241455,0|0,1:0|0:0,0:0:0:0:
166,117,117290,6,0,P|220:30|320:45,1,215.249993431091,8|0,0:0|0:0,0:0:0:0:
494,60,117595,2,0,P|513:107|467:144,1,115.312504398823,0|0,1:0|0:3,0:0:0:0:
391,237,117867,6,0,P|410:228|391:240,1,71.7499978103638,8|0,0:0|0:0,0:0:0:0:
400,115,118011,2,0,P|381:221|367:327,1,215.249993431091,0|0,1:0|0:0,0:0:0:0:
435,380,118308,2,0,P|480:372|486:346,1,71.7499978103638,8|0,0:0|0:0,0:0:0:0:
298,166,118462,6,0,P|248:189|246:244,1,115.312504398823,8|0,3:0|0:0,0:0:0:0:
466,265,118750,1,6,3:2:0:0:
466,265,118894,2,0,P|471:224|480:179,2,76.8750029325486,2|0|8,0:0|1:0|0:0,0:0:0:0:
298,166,119324,5,8,0:0:0:0:
389,144,119468,1,8,0:0:0:0:
138,65,119612,6,0,P|100:52|64:42,1,76.8750029325486,2|2,0:0|0:0,0:0:0:0:
121,300,119901,5,6,1:2:0:0:
112,305,119973,1,0,1:0:0:0:
104,316,120045,2,0,P|96:341|102:368,1,51.25,0|0,1:0|1:0,1:0:0:0:
96,228,120189,5,10,1:3:0:0:
96,217,120261,1,0,1:0:0:0:
90,205,120348,2,0,P|72:185|45:177,1,51.25,0|0,1:0|1:0,1:0:0:0:
170,242,120494,5,10,1:3:0:0:
180,247,120566,1,0,1:0:0:0:
193,248,120643,2,0,P|218:242|239:223,1,51.25,0|0,1:0|1:0,1:0:0:0:
121,300,120784,5,8,1:3:0:0:
112,305,120856,1,0,1:0:0:0:
104,316,120939,2,0,P|96:341|102:368,1,51.25,0|0,1:0|1:0,1:0:0:0:
278,345,121088,5,10,1:3:0:0:
318,363,121160,5,0,1:0:0:0:
359,349,121235,5,0,1:0:0:0:
381,311,121307,5,0,1:0:0:0:
372,268,121383,5,10,1:3:0:0:
363,225,121472,5,0,1:0:0:0:
384,187,121545,5,0,1:0:0:0:
426,173,121617,5,0,1:0:0:0:
466,190,121684,6,0,L|477:291,1,102.5,10|0,1:3|1:2,0:2:0:0:
150,149,121965,5,10,1:3:0:0:
152,123,122037,1,0,1:0:0:0:
155,98,122109,1,2,1:2:0:0:
158,72,122181,1,0,1:0:0:0:
160,45,122262,6,0,L|388:15,1,215.249993431091,4|0,1:2|0:0,0:0:0:0:
425,136,122550,6,0,P|412:154|430:138,1,71.7499978103638,8|0,0:0|0:0,0:0:0:0:
494,0,122694,2,0,P|461:102|425:286,1,286.999991241455,2|0,1:2|0:0,0:0:0:0:
302,122,123114,6,0,P|313:156|322:191,1,71.7499978103638,10|0,0:2|0:0,0:0:0:0:
492,374,123258,2,0,P|500:340|512:306,1,71.7499978103638,2|0,1:2|0:0,0:0:0:0:
425,278,123402,6,0,B|397:276|368:294|368:294|194:263,1,215.249993431091,2|0,1:2|0:0,0:0:0:0:
81,216,123690,2,0,P|112:231|121:264,1,71.7499978103638,8|0,0:0|0:0,0:0:0:0:
38,343,123835,6,0,L|63:48,1,286.999991241455,2|0,1:2|0:0,0:0:0:0:
200,261,124257,6,0,B|168:253|156:227|156:227|153:256|128:276,1,115.312504398823,10|0,0:0|0:0,0:0:0:0:
200,261,124559,6,0,B|231:234|265:249|265:249|298:211|277:144|217:128,1,215.249993431091,6|0,0:0|0:0,0:0:0:0:
181,65,124827,2,0,P|177:47|178:68,1,71.7499978103638,8|0,0:0|0:0,0:0:0:0:
340,81,124973,6,0,P|198:106|61:149,1,286.999991241455,2|0,1:2|0:0,0:0:0:0:
410,226,125405,6,0,B|435:246|438:275|438:275|450:249|482:241,1,115.312504398823,10|0,0:0|0:0,0:0:0:0:
410,226,125694,6,0,B|403:187|403:187|346:165|280:216|303:290,1,215.249993431091,2|0,1:2|0:0,0:0:0:0:
365,333,125982,2,0,P|379:354|370:330,1,71.7499978103638,8|0,0:0|0:0,0:0:0:0:
233,351,126126,6,0,P|369:308|511:283,1,286.999991241455,2|0,1:2|0:0,0:0:0:0:
379,23,126559,6,0,P|345:9|376:26,1,115.312504398823,10|0,0:0|0:0,0:0:0:0:
490,264,126848,6,0,P|503:161|424:95,1,215.249993431091,2|0,1:2|0:0,0:0:0:0:
216,17,127133,2,0,P|221:56|271:57,1,71.7499978103638,8|0,0:0|0:0,0:0:0:0:
379,23,127271,6,0,P|336:90|305:244,1,215.249993431091,0|0,1:0|0:0,0:0:0:0:
304,298,127553,2,0,P|297:315|308:297,1,71.7499978103638,8|0,0:0|0:0,0:0:0:0:
223,263,127697,6,0,B|222:218|169:193|128:203|128:203|135:254|95:281,1,215.249993431091,2|0,1:2|0:0,0:0:0:0:
88,357,127992,6,0,P|37:335|17:282,1,115.312504398823,10|0,0:0|0:0,0:0:0:0:
51,215,128280,1,0,1:0:0:0:
206,339,128424,5,8,0:0:0:0:
303,308,128568,1,8,0:0:0:0:
400,277,128713,1,8,3:0:0:0:
480,128,128869,6,0,L|492:28,1,76.8750029325486,2|2,0:0|0:0,0:0:0:0:
386,23,129145,5,6,1:2:0:0:
375,22,129212,1,0,1:0:0:0:
365,21,129284,2,0,L|301:15,1,51.25,0|0,1:0|1:0,1:0:0:0:
246,86,129418,5,10,1:3:0:0:
245,97,129490,1,0,1:0:0:0:
244,107,129562,2,0,L|238:170,1,51.25,0|0,1:0|1:0,1:0:0:0:
177,227,129716,5,10,1:3:0:0:
166,228,129788,1,0,1:0:0:0:
156,229,129860,2,0,L|92:234,1,51.25,0|0,1:0|1:0,1:0:0:0:
26,286,130011,5,10,1:3:0:0:
25,297,130083,1,0,1:0:0:0:
24,307,130155,2,0,L|18:370,1,51.25,0|0,1:0|1:0,1:0:0:0:
233,363,130299,5,10,1:3:0:0:
241,319,130371,5,0,1:0:0:0:
249,275,130443,5,0,1:0:0:0:
257,230,130515,5,0,1:0:0:0:
264,187,130594,5,10,1:3:0:0:
273,142,130666,5,0,1:0:0:0:
281,98,130738,5,0,1:0:0:0:
288,54,130810,5,0,1:0:0:0:
296,10,130882,6,0,L|310:163,1,143.499995620728,10|0,1:3|1:0,0:0:0:0:
86,49,131182,5,2,1:2:0:0:
50,45,131254,1,0,1:0:0:0:
19,62,131326,1,2,1:2:0:0:
3,94,131398,1,0,1:0:0:0:
6,134,131470,2,0,P|123:146|173:72,1,215.249993431091,2|0,1:2|0:0,0:0:0:0:
352,105,131758,6,0,P|339:83|347:107,1,71.7499978103638,8|0,0:0|0:0,0:0:0:0:
394,169,131903,1,0,1:0:0:0:
381,14,132039,6,0,L|360:261,1,215.249993431091,0|0,1:0|0:0,0:0:0:0:
511,354,132327,6,0,B|510:309|457:284|416:294|416:294|423:345|383:372,1,215.249993431091,10|0,1:2|0:0,0:0:0:0:
337,307,132615,1,2,1:2:0:0:
337,307,132747,1,0,1:0:0:0:
512,176,132901,6,0,P|489:194|479:218,1,38.4375014662743,8|0,0:0|0:0,0:0:0:0:
375,184,133045,2,0,P|380:212|395:233,1,38.4375014662743,8|0,0:0|0:0,0:0:0:0:
511,354,133189,6,0,L|492:130,1,215.249993431091,0|0,1:0|0:0,0:0:0:0:
338,0,133489,2,0,B|332:60|332:60|329:66|329:66|324:124,1,115.312504398823,10|0,1:2|0:0,0:0:0:0:
144,269,133781,6,0,B|192:238|242:286|242:286|287:336|340:305,1,215.249993431091,6|0,0:0|0:0,0:0:0:0:
400,263,134069,2,0,P|421:250|402:266,1,71.7499978103638,8|0,0:0|0:0,0:0:0:0:
253,384,134213,6,0,P|242:205|238:89,1,286.999991241455,0|0,1:0|0:0,0:0:0:0:
389,42,134633,6,0,B|414:62|417:91|417:91|429:65|461:57,1,115.312504398823,10|0,0:0|0:0,0:0:0:0:
389,42,134921,2,0,B|285:32|285:32|275:26|275:26|177:18,1,215.249993431091,2|0,1:2|0:0,0:0:0:0:
46,132,135209,6,0,B|11:150|11:150|42:141,1,71.7499978103638,8|0,0:0|0:0,0:0:0:0:
62,285,135354,2,0,L|94:0,1,286.999991241455,0|0,1:0|0:0,0:0:0:0:
179,240,135786,6,0,P|234:272|231:328,1,115.312504398823,10|0,0:0|0:0,0:0:0:0:
136,368,136075,6,0,L|360:336,1,215.249993431091,2|0,1:2|0:0,0:0:0:0:
491,359,136357,6,0,P|457:347|442:316,1,71.7499978103638,8|0,0:0|0:0,0:0:0:0:
398,42,136501,6,0,P|423:144|378:239,1,215.249993431091,0|0,1:0|0:0,0:0:0:0:
349,337,136778,2,0,P|328:343|351:340,1,71.7499978103638,8|0,0:0|0:0,0:0:0:0:
275,254,136922,6,0,L|61:284,1,215.249993431091,2|0,1:2|3:0,3:0:0:0:
40,126,137210,6,0,P|76:137|88:179,1,71.7499978103638,10|0,0:0|0:0,0:0:0:0:
21,216,137354,1,0,1:0:0:0:
21,216,137504,1,0,1:0:0:0:
176,201,137655,6,0,P|182:227|196:245,1,38.4375014662743,8|0,0:0|0:3,0:0:0:0:
275,254,137799,2,0,P|263:278|262:301,1,38.4375014662743,8|0,0:0|0:0,0:0:0:0:
381,259,137943,2,0,P|358:273|346:293,1,38.4375014662743,8|0,0:0|0:0,0:0:0:0:
409,148,138087,6,0,P|465:154|507:117,1,115.312504398823,2|0,1:2|0:0,0:0:0:0:
248,24,138365,6,0,B|218:63|218:63|218:63|245:105,1,95.6666637471518,6|0,0:0|0:0,0:0:0:0:
130,35,138557,6,0,B|115:65|115:65|115:65|131:94,1,66.6249969501497,2|8,0:0|0:0,0:0:0:0:
29,64,138762,6,0,B|9:101|9:101|9:101|50:124,1,81.9999974975587,6|0,0:0|0:0,0:0:0:0:
224,260,138931,6,0,P|256:294|253:341,1,95.6666637471518,6|0,0:0|0:0,0:0:0:0:
371,240,139116,6,0,P|384:281|367:321,1,88.8333292668662,10|0,0:0|0:0,0:0:0:0:
508,278,139331,6,0,P|504:318|475:346,1,81.9999974975587,6|0,0:0|0:0,0:0:0:0:
160,192,139533,5,6,0:0:0:0:
353,104,139725,5,0,0:0:0:0:
224,64,139933,5,0,0:0:0:0:
256,0,140120,6,0,L|256:160,2,153.750005865097,2|0|4,1:2|0:0|0:0,0:0:0:0:
35,71,149921,6,0,B|45:30|96:14|134:45|137:84|119:110|119:110|95:144|116:193|163:203|195:180|204:149,2,307.500011730195,4|0|2,0:0|0:0|0:0,0:0:0:0:
0,319,151363,1,0,0:0:0:0:
0,319,151658,2,0,B|7:348|45:360|73:338|76:308|62:289|62:289|44:264|60:228|95:221|119:238|125:260,1,230.625008797646,2|0,3:0|0:0,0:0:0:0:
226,139,152201,6,0,P|206:252|189:366,1,230.625008797646
287,349,152767,2,0,P|352:349|349:266,1,153.750005865097
512,153,153343,6,0,B|498:122|462:110|430:127|420:155|420:155|408:185|371:200|339:183|328:157,1,230.625008797646
300,90,153920,1,0,0:0:0:0:
300,90,154209,2,2,L|288:217,1,115.312504398823,4|0,0:0|0:0,0:0:0:0:
151,301,154514,5,0,0:0:0:0:
151,301,154802,2,0,P|75:311|39:316,1,102.5,2|0,0:0|0:0,0:0:0:0:
31,165,155090,5,0,0:0:0:0:
31,165,155372,2,0,P|107:155|143:150,1,102.5,2|0,0:0|0:0,0:0:0:0:
240,365,155653,5,0,0:0:0:0:
240,365,155941,2,0,P|246:314|253:263,1,102.5,2|0,0:0|0:0,0:0:0:0:
87,31,156229,5,0,0:0:0:0:
87,31,156518,1,2,0:0:0:0:
100,132,156662,1,0,0:0:0:0:
0,251,156813,6,0,P|86:269|123:350,1,184.499994369507,6|0,0:0|0:0,0:0:0:0:
130,293,157101,6,0,B|115:238|166:212|166:212|217:190|211:128,1,184.499994369507,8|0,0:0|0:0,0:0:0:0:
180,49,157389,1,0,0:0:0:0:
180,49,157534,1,0,0:0:0:0:
100,132,157693,2,0,B|187:124|187:124|204:130|204:130|291:123,1,184.499994369507,8|0,0:0|0:0,0:0:0:0:
368,77,157981,6,0,B|385:103|385:103|369:187,1,115.312504398823,2|0,0:0|0:0,0:0:0:0:
309,269,158267,6,0,P|377:212|466:222,1,184.499994369507,8|0,0:0|0:0,0:0:0:0:
488,322,158555,2,0,P|426:325|407:276,1,115.312504398823
221,198,158843,6,0,B|211:252|257:279|257:279|308:301|302:363,1,184.499994369507,10|0,0:0|0:0,0:0:0:0:
112,217,159142,6,0,P|192:182|196:95,1,184.499994369507,4|0,0:0|0:0,0:0:0:0:
141,8,159425,6,0,P|101:56|131:134,1,153.750005865097,8|0,0:0|0:0,0:0:0:0:
294,278,159999,2,0,P|299:201|320:127,1,153.750005865097,8|0,0:0|1:0,0:0:0:0:
41,363,160575,2,0,P|35:286|14:212,1,153.750005865097,8|0,0:0|0:0,0:0:0:0:
166,242,161147,5,8,0:0:0:0:
166,242,161435,2,0,P|171:193|110:152,1,115.312504398823
22,80,161731,6,0,L|186:57,1,153.750005865097,8|0,0:0|0:0,0:0:0:0:
503,201,162307,2,0,L|339:178,1,153.750005865097,8|0,0:0|1:0,0:0:0:0:
191,354,162884,1,8,0:0:0:0:
191,354,163173,2,0,L|204:236,1,115.312504398823,2|0,0:0|0:0,0:0:0:0:
295,245,163461,2,0,L|282:359,1,115.312504398823,10|0,0:0|0:0,0:0:0:0:
103,285,163750,6,0,P|74:238|105:194,1,115.312504398823,2|0,0:0|0:0,0:0:0:0:
39,76,164038,6,0,B|75:57|112:87|112:87|141:117|187:112,1,153.750005865097,8|0,0:2|0:0,0:0:0:0:
339,271,164620,2,0,B|311:256|283:279|283:279|261:302|227:298,1,115.312504398823,8|0,0:2|0:0,0:0:0:0:
410,296,164908,6,0,P|409:240|371:199,1,115.312504398823,2|0,1:2|0:0,0:0:0:0:
262,72,165188,6,0,P|270:38|381:29,1,153.750005865097,8|0,0:0|0:0,0:0:0:0:
152,207,165766,2,0,P|146:181|64:175,1,115.312504398823,8|0,0:0|0:0,0:0:0:0:
101,278,166060,6,0,P|164:236|239:242,1,153.75,2|0,1:2|0:0,0:0:0:0:
383,335,166345,6,0,P|330:288|361:209,1,153.75,8|0,0:0|0:0,0:0:0:0:
407,149,166633,6,0,P|417:118|411:153,1,115.312504398823,2|0,1:2|0:0,0:0:0:0:
475,228,166921,6,0,L|488:74,1,153.75,8|0,0:0|0:0,0:0:0:0:
395,6,167210,6,0,P|342:14|338:68,1,115.312504398823,2|0,1:2|0:0,0:0:0:0:
407,149,167498,6,0,L|182:166,1,205,8|0,0:0|0:0,0:0:0:0:
41,136,168070,2,0,L|28:290,1,153.75,8|0,0:0|0:0,0:0:0:0:
96,326,168358,6,0,P|179:313|164:249,1,153.75,2|0,0:2|0:0,1:0:0:0:
169,76,168646,2,0,P|51:72|42:141,1,205,8|0,0:0|0:0,1:0:0:0:
416,359,169216,6,0,P|458:324|407:342,1,153.75,8|0,0:0|0:0,0:0:0:0:
284,297,169504,6,0,P|234:242|259:167,1,153.75,2|0,0:0|0:0,1:0:0:0:
503,155,169792,2,0,P|429:176|300:228,1,205,8|0,0:0|0:0,0:0:0:0:
175,289,170369,6,0,P|120:239|45:264,1,153.75,10|0,0:0|0:0,1:0:0:0:
14,336,170663,6,0,B|38:335|57:355|57:355|93:293|44:253,1,153.75,0|0,1:0|0:0,0:0:0:0:
0,173,170946,6,0,B|80:165|80:165|93:158|93:158|150:153,1,153.75,8|0,0:0|0:0,0:0:0:0:
229,152,171234,1,0,0:0:0:0:
229,152,171378,1,0,0:0:0:0:
51,91,171522,6,0,P|52:41|93:13,1,102.5,10|0,0:0|0:0,0:0:0:0:
338,299,171811,6,0,B|373:278|411:311|411:311|442:339|480:326,1,153.75,0|0,1:0|0:0,0:0:0:0:
307,377,172109,2,0,P|307:305|238:287,1,153.75,8|0,0:0|0:0,0:0:0:0:
183,351,172382,6,0,B|107:344|107:344|99:347|99:347|0:338,1,184.499994369507,0|0,1:0|0:0,0:0:0:0:
28,193,172665,6,0,P|78:215|84:270,1,115.312504398823,2|0,3:2|0:0,0:0:0:0:
183,351,172953,5,0,0:0:0:0:
183,351,173233,2,0,P|190:307|208:207,1,122.999996246338,8|0,0:0|0:0,0:0:0:0:
6,72,173521,5,0,0:0:0:0:
6,72,173809,2,0,P|13:116|31:215,1,122.999996246338,8|0,0:0|0:0,0:0:0:0:
283,121,174098,5,0,0:0:0:0:
283,121,174386,2,0,P|239:113|139:95,1,122.999996246338,8|0,0:0|0:0,0:0:0:0:
4,298,174675,5,0,0:0:0:0:
4,298,174975,2,0,P|48:290|147:272,1,122.999996246338,8|0,0:0|0:0,0:0:0:0:
431,301,175263,6,0,P|515:311|485:238,1,184.499994369507,8|0,0:0|0:0,0:0:0:0:
263,266,175551,6,0,B|312:239|351:279|351:279|388:319|447:295,1,184.499994369507,2|0,1:2|0:0,0:0:0:0:
377,138,175840,2,0,B|375:193|321:207|321:207|268:219|259:282,1,184.499994369507,2|0,1:2|0:0,0:0:0:0:
430,300,176128,2,0,B|382:271|397:217|397:217|413:165|363:126,1,184.499994369507,2|0,1:2|0:0,0:0:0:0:
233,29,176425,6,0,P|149:19|179:92,1,184.499994369507,8|0,0:0|0:0,0:0:0:0:
1,142,176713,6,0,P|92:139|173:80,1,184.499994369507,2|0,1:2|0:0,0:0:0:0:
132,257,177001,2,0,P|83:180|-7:140,1,184.499994369507,2|0,1:2|0:0,0:0:0:0:
167,87,177290,2,0,P|123:168|134:266,1,184.499994369507,2|0,1:2|0:0,0:0:0:0:
194,345,177588,5,10,0:0:0:0:
273,333,177732,1,0,0:0:0:0:
432,240,177884,5,10,0:0:0:0:
511,252,178024,1,0,0:0:0:0:
347,182,178161,5,10,0:0:0:0:
373,313,178319,1,8,0:0:0:0:
417,123,178465,5,10,0:0:0:0:
377,320,178609,1,8,0:0:0:0:
334,99,178753,5,0,1:0:0:0:
334,99,178825,1,0,1:0:0:0:
334,99,178919,1,0,1:0:0:0:
419,217,179068,5,10,1:2:0:0:
451,32,179202,1,10,0:0:0:0:
347,182,179353,5,10,1:2:0:0:
282,6,179497,1,10,0:0:0:0:
275,231,179641,5,10,1:2:0:0:
130,112,179797,1,10,0:0:0:0:
70,365,179923,6,0,B|62:267|62:267|56:257|56:257|46:153,1,215.249993431091,14|0,1:2|0:0,0:0:0:0:
0,59,180225,2,0,P|37:61|47:16,1,76.8750029325486,8|0,0:0|0:0,0:0:0:0:
130,112,180500,6,0,B|178:81|228:129|228:129|273:179|326:148,1,215.249993431091,2|0,1:2|0:0,0:0:0:0:
432,118,180782,2,0,P|407:147|405:185,1,76.8750029325486,8|0,0:0|0:0,0:0:0:0:
502,340,181070,6,0,B|463:321|470:266|470:266|391:256|374:330,1,215.249993431091,2|0,1:2|0:0,0:0:0:0:
316,379,181355,2,0,P|268:351|273:297,1,115.312504398823,8|0,0:0|0:0,0:0:0:0:
401,168,181643,6,0,L|186:149,1,215.249993431091,2|0,1:2|0:0,0:0:0:0:
164,70,181931,2,0,P|149:45|163:73,1,115.312504398823,8|0,0:0|0:0,0:0:0:0:
401,168,182220,6,0,B|442:170|461:211|461:211|525:147|461:83,1,215.249993431091,2|0,1:2|0:0,0:0:0:0:
311,23,182515,2,8,P|370:38|379:88,1,115.312504398823,8|0,0:0|0:0,0:0:0:0:
385,252,182803,6,0,B|334:282|345:345|345:345|334:282|278:271,1,215.249993431091,2|0,1:2|0:0,0:0:0:0:
309,193,183091,2,0,P|292:160|310:192,1,115.312504398823,8|0,0:0|0:0,0:0:0:0:
259,349,183380,6,0,P|166:338|109:224,1,215.249993431091,2|0,1:2|0:0,0:0:0:0:
11,165,183660,6,0,P|42:174|54:189,1,38.4375014662743,8|0,0:0|0:0,0:0:0:0:
98,102,183804,2,0,P|120:125|123:144,1,38.4375014662743,8|0,0:0|0:0,0:0:0:0:
128,154,183948,1,2,1:2:0:0:
204,90,184092,6,0,P|211:121|204:139,1,38.4375014662743,8|0,0:0|0:0,0:0:0:0:
211,157,184236,1,8,3:0:0:0:
211,157,184381,1,8,3:0:0:0:
378,4,184525,6,0,B|380:32|362:61|362:61|393:235,1,215.249993431091,6|0,1:2|0:0,0:0:0:0:
448,281,184803,6,0,L|495:285,1,38.4375014662743,8|0,0:0|0:0,0:0:0:0:
412,365,184959,2,0,L|450:368,1,38.4375014662743,8|0,0:0|0:0,0:0:0:0:
320,310,185103,6,0,B|313:271|313:271|256:249|190:300|213:374,1,215.249993431091,2|0,1:2|0:0,0:0:0:0:
95,324,185380,6,0,P|91:267|48:231,1,115.312504398823,8|0,0:0|0:0,0:0:0:0:
22,305,185668,1,8,3:0:0:0:
22,305,185812,1,8,3:0:0:0:
35,56,185966,6,0,B|42:17|42:17|99:-5|165:46|142:120,1,215.249993431091,10|0,0:2|0:0,0:0:0:0:
129,188,186254,2,0,P|92:180|70:149,1,76.8750029325486,0|0,1:0|0:0,0:0:0:0:
154,36,186542,6,0,B|258:46|258:46|268:52|268:52|366:60,1,215.249993431091,10|0,1:2|0:0,0:0:0:0:
512,195,186838,6,0,B|473:228|484:291|484:291|473:228|412:219,1,215.249993431091,6|0,0:0|0:0,0:0:0:0:
429,113,187120,6,0,P|450:139|449:156,1,38.4375014662743,8|0,0:0|0:0,0:0:0:0:
338,147,187264,2,0,P|343:180|333:194,1,38.4375014662743,8|0,0:0|0:0,0:0:0:0:
193,313,187408,6,0,L|407:294,1,215.249993431091,2|0,0:0|0:0,0:0:0:0:
512,195,187696,6,0,P|519:140|476:104,1,115.312504398823,8|0,0:0|0:0,0:0:0:0:
133,145,187985,6,0,B|166:150|186:173|186:173|360:142,1,215.249993431091,2|0,1:2|0:0,0:0:0:0:
286,21,188273,6,0,P|228:45|216:98,1,115.312504398823,10|0,0:0|0:0,0:0:0:0:
0,215,188562,2,0,B|34:235|23:277|23:277|67:302|130:270|135:208,1,215.249993431091,2|0,1:2|0:0,0:0:0:0:
133,145,188850,6,0,L|137:97,1,38.4375014662743,8|0,0:0|0:0,0:0:0:0:
141,38,188995,2,0,L|145:-9,1,38.4375014662743,8|0,0:0|0:0,0:0:0:0:
290,103,189149,6,0,B|297:59|297:59|333:42|338:13|338:13|333:42|361:70|361:70|354:112,1,215.249993431091,6|0,0:2|0:0,0:0:0:0:
310,188,189449,2,0,B|298:226|298:226|303:188,1,76.8750029325486,8|0,0:0|0:0,0:0:0:0:
512,273,189737,6,0,B|473:306|484:369|484:369|473:306|412:297,1,215.249993431091,2|0,1:2|0:0,0:0:0:0:
444,213,190025,2,0,B|439:176|439:176|451:214,1,76.8750029325486,8|0,0:0|0:0,0:0:0:0:
263,297,190314,6,0,B|276:356|187:403|117:321|159:272,1,215.249993431091,2|0,1:2|0:0,0:0:0:0:
224,216,190594,2,0,P|234:190|232:218,1,76.8750029325486,8|0,0:0|0:0,0:0:0:0:
41,363,190882,6,0,L|70:149,1,215.249993431091,2|0,1:2|0:0,0:0:0:0:
88,52,191170,2,0,B|107:47|120:32|120:32|119:52|134:69,1,76.8750029325486,8|0,0:0|0:0,0:0:0:0:
209,307,191449,6,0,B|250:354|319:322|309:221|219:215,1,215.249993431091,2|0,1:2|0:0,0:0:0:0:
246,0,191737,2,0,P|231:54|259:102,1,115.312504398823,8|0,0:0|0:0,0:0:0:0:
473,173,192025,6,0,P|417:83|318:44,1,215.249993431091,2|0,1:2|0:0,0:0:0:0:
464,7,192314,2,8,P|463:44|433:65,1,76.8750029325486,8|0,0:0|0:0,0:0:0:0:
300,238,192602,6,0,B|404:248|404:248|414:254|414:254|512:262,1,215.249993431091,2|0,1:2|0:0,0:0:0:0:
397,317,192891,6,0,P|397:298|406:282,1,38.4375014662743,8|0,0:0|0:0,0:0:0:0:
498,370,193045,2,0,P|487:353|486:334,1,38.4375014662743,8|0,0:0|0:0,0:0:0:0:
473,173,193189,5,2,1:2:0:0:
345,135,193333,6,0,P|361:144|371:160,1,38.4375014662743,8|0,0:0|0:0,0:0:0:0:
300,238,193477,1,8,3:0:0:0:
300,238,193621,1,8,3:0:0:0:
457,60,193766,6,0,L|217:39,1,215.249993431091,6|0,0:0|0:0,0:0:0:0:
163,45,194041,6,0,P|154:28|154:9,1,38.4375014662743,8|0,0:0|0:0,0:0:0:0:
117,115,194185,2,0,P|97:114|81:104,1,38.4375014662743,8|0,0:0|0:0,0:0:0:0:
0,59,194329,6,0,B|10:163|10:163|16:173|16:173|24:271,1,215.249993431091,2|0,1:2|0:0,0:0:0:0:
87,333,194624,6,0,P|77:361|90:332,1,115.312504398823,8|0,0:0|0:0,0:0:0:0:
87,333,194912,6,0,B|112:333|139:356|139:356|186:308|166:239|114:214,1,215.249993431091,2|0,0:0|0:0,0:0:0:0:
121,78,195200,6,0,P|114:95|116:114,1,38.4375014662743,8|0,0:0|0:0,0:0:0:0:
16,148,195350,2,0,P|19:166|30:182,1,38.4375014662743,8|0,0:0|0:0,0:0:0:0:
125,220,195494,6,0,L|365:204,1,215.249993431091,2|0,1:2|0:0,0:0:0:0:
420,144,195782,6,0,B|437:157|437:157|421:251,1,115.312504398823,8|0,0:0|0:0,0:0:0:0:
305,324,196070,6,0,B|338:329|358:352|358:352|532:321,1,215.249993431091,6|0,0:0|0:0,1:0:0:0:
460,346,196359,6,0,L|455:393,1,38.4375014662743,8|0,0:0|0:0,0:0:0:0:
421,249,196503,2,0,L|425:210,1,38.4375014662743,8|0,0:0|0:0,0:0:0:0:
260,247,196647,6,0,L|268:370,1,115.312504398823,2|0,0:0|0:0,0:0:0:0:
48,380,196931,6,0,P|44:298|161:261,1,215.249993431091,10|0,0:2|0:0,0:0:0:0:
180,326,197219,1,0,1:0:0:0:
16,267,197363,5,8,0:0:0:0:
16,267,197435,1,8,0:0:0:0:
16,267,197507,5,8,0:0:0:0:
41,177,197652,1,8,0:0:0:0:
140,127,197793,5,8,0:0:0:0:
230,152,197937,1,8,0:0:0:0:
314,90,198088,5,8,0:0:0:0:
289,0,198232,1,8,0:0:0:0:
101,251,198376,6,0,B|111:197|47:172|47:172|-13:144|2:80,1,215.249993431091,6|0,0:0|0:0,0:0:0:0:
102,39,198664,2,0,P|86:4|96:42,1,115.312504398823,8|0,0:0|0:0,0:0:0:0:
195,261,198952,6,0,B|246:243|236:175|236:175|230:108|293:90,1,215.249993431091,2|0,1:2|0:0,0:0:0:0:
350,41,199231,2,0,P|359:3|344:39,1,115.312504398823,8|0,0:0|0:0,0:0:0:0:
192,347,199519,6,0,B|232:383|286:340|286:340|341:301|388:347,1,215.249993431091,2|0,1:2|0:0,0:0:0:0:
464,343,199807,2,0,P|500:358|467:338,1,115.312504398823,8|0,0:0|0:0,0:0:0:0:
348,133,200096,6,0,P|370:246|389:370,1,215.249993431091,2|0,1:2|0:0,0:0:0:0:
247,272,200384,6,0,P|195:247|224:196,1,115.312504398823,10|0,0:0|0:0,0:0:0:0:
399,61,200673,5,2,1:2:0:0:
399,61,200817,1,0,1:0:0:0:
443,182,200961,6,0,P|379:97|280:58,1,215.249993431091,10|0,0:0|0:0,0:0:0:0:
202,54,201250,1,0,1:0:0:0:
202,54,201394,1,0,1:0:0:0:
412,264,201547,6,0,B|473:273|484:336|484:336|473:273|512:240,1,215.249993431091,10|0,0:0|0:0,0:0:0:0:
443,182,201835,1,2,1:2:0:0:
416,186,201907,1,0,1:0:0:0:
390,191,201979,1,0,1:0:0:0:
363,196,202051,1,0,1:0:0:0:
337,201,202123,5,8,1:2:0:0:
315,298,202268,1,0,1:0:0:0:
412,264,202432,5,10,1:2:0:0:
390,361,202561,1,8,1:2:0:0:
373,114,202705,6,2,L|389:-14,1,115.312504398823,2|2,1:2|0:2,0:2:0:0:
512,136,203005,6,0,B|414:144|414:144|404:150|404:150|300:160,1,215.249993431091,6|0,1:2|0:0,0:0:0:0:
217,113,203282,6,0,P|204:136|211:158,1,38.4375014662743,8|0,0:0|0:0,0:0:0:0:
299,160,203433,2,0,P|299:186|316:201,1,38.4375014662743,10|0,0:0|0:0,0:0:0:0:
271,49,203577,6,0,L|252:263,1,215.249993431091,2|0,1:2|0:0,0:0:0:0:
251,339,203865,6,0,P|242:370|255:338,1,115.312504398823,8|0,0:0|0:0,0:0:0:0:
252,263,204161,1,8,3:0:0:0:
252,263,204305,1,8,3:0:0:0:
454,305,204449,6,0,B|415:286|422:231|422:231|343:221|326:295,1,215.249993431091,10|0,1:2|0:0,0:0:0:0:
316,162,204737,6,0,P|318:107|271:62,1,115.312504398823,0|0,1:0|0:0,0:0:0:0:
43,131,205026,6,0,B|76:136|96:159|96:159|270:128,1,215.249993431091,10|0,2:0|0:0,1:0:0:0:
433,105,205314,6,0,P|398:209|375:318,1,215.249993431091,6|0,1:2|0:0,0:0:0:0:
453,371,205588,2,0,P|463:354|464:335,1,38.4375014662743,8|0,0:0|0:0,0:0:0:0:
288,271,205732,2,0,P|277:254|276:235,1,38.4375014662743,8|0,0:0|0:0,0:0:0:0:
433,105,205876,6,0,B|371:119|343:59|343:59|318:-4|264:5,1,215.249993431091,2|0,1:2|0:0,0:0:0:0:
82,32,206171,6,0,B|54:57|39:59|39:59|102:48,1,115.312504398823,8|0,0:0|0:0,0:0:0:0:
189,30,206459,1,0,1:0:0:0:
33,177,206603,5,2,1:2:0:0:
28,195,206675,1,0,1:0:0:0:
25,214,206747,1,10,1:2:0:0:
109,200,206881,1,10,1:2:0:0:
164,284,207035,5,10,1:2:0:0:
248,298,207188,1,10,1:2:0:0:
350,359,207339,5,10,1:2:0:0:
364,275,207475,1,10,1:2:0:0:
481,297,207628,6,0,B|465:299|473:347|473:347|445:189|445:189|405:171,1,246,4|0,0:0|0:0,0:0:0:0:
356,113,207910,1,8,0:0:0:0:
334,190,208054,1,0,1:0:0:0:
417,176,208198,5,0,1:0:0:0:
417,176,208342,1,0,1:0:0:0:
378,36,208486,1,8,0:0:0:0:
356,113,208631,1,0,1:0:0:0:
505,55,208775,6,0,B|468:60|446:85|446:85|255:51,1,246,2|0,2:0|0:0,0:0:0:0:
184,15,209063,5,8,0:0:0:0:
193,100,209208,1,0,0:0:0:0:
117,65,209349,5,0,1:0:0:0:
117,65,209493,1,0,1:0:0:0:
0,274,209637,6,0,B|75:259|75:259|96:195|60:129|3:123,1,246,8|0,0:0|0:0,0:0:0:0:
94,184,209925,6,0,B|157:161|205:217|205:217|253:281|309:252,1,246,2|0,2:0|0:0,0:0:0:0:
393,55,210206,6,0,P|273:19|290:119,1,246,8|0,0:0|0:0,0:0:0:0:
295,379,210486,6,0,P|315:277|407:166,1,246,2|0,1:2|0:0,0:0:0:0:
393,55,210774,6,0,P|422:88|418:108,1,38.4375014662743,8|0,0:0|0:0,0:0:0:0:
505,92,210918,2,0,P|505:111|497:128,1,38.4375014662743,8|0,0:0|0:0,0:0:0:0:
488,242,211062,6,0,L|445:0,1,246,2|0,1:2|0:0,0:0:0:0:
217,57,211348,5,8,0:0:0:0:
200,148,211492,1,0,0:0:0:0:
128,82,211643,5,8,0:0:0:0:
288,117,211787,1,8,0:0:0:0:
174,284,211916,6,0,L|196:163,1,115.312504398823,2|0,3:0|0:0,0:0:0:0:
200,148,212225,1,10,0:0:0:0:
31,85,215686,6,0,P|65:149|139:151,1,153.75,6|0,0:0|0:0,0:0:0:0:
293,23,215975,6,0,P|191:19|112:80,1,205,10|0,0:0|0:0,0:0:0:0:
139,151,216407,1,0,0:0:0:0:
293,22,216551,2,0,P|305:69|353:75,1,102.5,8|0,0:0|0:0,0:0:0:0:
500,28,216840,6,0,P|448:85|418:155,1,153.75,2|0,1:2|0:0,0:0:0:0:
392,267,217128,2,0,P|459:285|487:220,1,153.75,8|0,0:0|0:0,0:0:0:0:
415,159,217412,5,0,0:0:0:0:
415,159,217556,1,0,0:0:0:0:
392,267,217700,2,0,P|377:325|369:383,1,102.5,8|0,0:0|0:0,0:0:0:0:
117,70,217975,5,0,0:0:0:0:
117,70,218119,1,0,0:0:0:0:
140,178,218263,2,0,P|155:236|163:294,1,102.5,8|0,0:0|0:0,0:0:0:0:
305,303,218552,5,0,0:0:0:0:
305,303,218696,1,0,0:0:0:0:
479,231,218840,1,8,0:0:0:0:
392,267,218984,1,0,0:0:0:0:
317,209,219128,5,0,0:0:0:0:
317,209,219273,1,0,0:0:0:0:
467,324,219417,1,8,0:0:0:0:
392,267,219561,1,0,0:0:0:0:
404,173,219705,5,0,0:0:0:0:
404,173,219850,1,0,0:0:0:0:
380,361,219994,1,8,0:0:0:0:
392,267,220138,1,0,0:0:0:0:
156,254,220282,6,0,P|114:193|39:192,2,153.750005865097,0|8|0,0:0|0:0|0:0,0:0:0:0:
70,362,221148,2,0,P|53:305|83:256,1,115.312504398823,8|0,0:0|0:0,0:0:0:0:
139,184,221436,5,0,0:0:0:0:
463,334,221725,6,0,L|303:320,2,153.750005865097,8|0|8,0:0|0:0|0:0,0:0:0:0:
395,84,222590,6,0,P|343:122|360:179,1,115.312504398823
467,114,222878,2,0,P|467:58|431:15,1,115.312504398823,8|0,0:0|0:0,0:0:0:0:
496,50,223167,1,0,0:0:0:0:
363,319,223467,6,0,P|357:344|371:320,1,76.8750029325486,8|0,0:0|0:0,0:0:0:0:
254,200,223755,2,0,P|289:219|310:256,1,76.8750029325486
415,128,224043,2,0,P|385:175|386:235,1,115.312504398823,8|0,0:0|0:0,0:0:0:0:
363,319,224324,5,0,0:0:0:0:
363,319,224468,1,0,0:0:0:0:
263,334,224612,2,0,P|214:304|157:304,1,115.312504398823,8|0,0:0|0:0,0:0:0:0:
86,338,224900,1,0,1:0:0:0:
86,338,225045,1,0,0:0:0:0:
98,194,225189,2,0,L|109:66,1,115.312504398823,8|0,0:0|0:0,0:0:0:0:
121,6,225477,6,0,B|156:-12|192:18|192:18|220:47|264:41,2,153.75,0|8|0,1:2|0:0|0:0,0:0:0:0:
255,366,226343,2,0,P|221:299|254:233,2,153.750005865097,8|0|8,0:0|0:0|0:0,0:0:0:0:
396,325,227208,2,0,P|351:290|295:295,1,115.312504398823
313,167,227488,2,0,P|318:110|283:66,1,115.312504398823,8|0,0:0|0:0,0:0:0:0:
265,52,227768,5,0,0:0:0:0:
396,325,228056,2,0,L|510:314,1,115.312504398823,8|0,0:0|0:0,0:0:0:0:
493,193,228344,2,0,P|458:205|442:239,1,76.8750029325486
251,289,228633,2,0,P|286:300|317:369,1,115.312504398823,8|0,0:0|0:0,0:0:0:0:
129,151,228938,6,0,L|65:145,1,38.4375014662743
129,151,229226,6,0,L|-2:162,1,115.312504398823,8|0,0:0|0:0,0:0:0:0:
210,122,229503,6,0,P|170:162|180:216,1,115.312504398823,2|0,3:2|0:0,0:0:0:0:
251,289,229791,2,0,L|246:336,1,38.4375014662743,8|0,0:0|0:0,0:0:0:0:
179,367,229935,2,0,L|366:352,1,153.750005865097,2|0,1:2|0:0,0:0:0:0:
490,236,230368,2,0,B|469:260|471:289|471:289|454:266|421:264,1,115.312504398823,10|0,0:0|0:0,0:0:0:0:
307,147,230656,6,0,B|328:171|326:200|326:200|343:177|376:175,1,115.312504398823,2|0,0:0|0:0,0:0:0:0:
448,118,230945,2,0,L|453:54,1,38.4375014662743,8|0,0:0|0:0,0:0:0:0:
462,2,231089,2,0,P|410:-21|345:51,1,153.750005865097,0|0,1:0|0:0,0:0:0:0:
379,254,231531,6,0,P|396:286|384:249,1,115.312504398823,8|0,0:0|0:0,0:0:0:0:
287,308,231819,6,0,L|223:324,1,38.4375014662743,0|0,1:0|0:0,0:0:0:0:
27,177,232124,6,0,L|91:193,1,38.4375014662743,10|0,0:0|0:0,0:0:0:0:
177,183,232262,2,0,P|153:256|134:330,1,153.750005865097
379,254,232694,2,0,P|433:252|420:198,1,115.312504398823,10|0,0:0|0:0,0:0:0:0:
343,176,232983,6,0,L|293:188,1,38.4375014662743,2|0,1:2|0:0,0:0:0:0:
424,26,233271,6,0,L|474:38,1,38.4375014662743,8|0,0:0|0:0,0:0:0:0:
461,120,233415,2,0,P|386:99|312:81,1,153.750005865097
147,6,233848,6,0,L|163:57,1,38.4375014662743,10|0,0:0|0:0,0:0:0:0:
128,138,234136,5,0,0:0:0:0:
48,121,234281,1,0,0:0:0:0:
128,138,234425,1,10,0:0:0:0:
48,121,234569,1,0,0:0:0:0:
233,245,234713,6,0,L|249:373,1,115.312504398823,2|0,0:0|0:0,0:0:0:0:
281,367,235002,2,8,P|317:357|331:317,1,76.8750029325486,10|0,0:0|0:0,0:0:0:0:
466,150,235290,6,0,P|410:151|375:108,1,115.312504398823,2|0,1:2|0:0,0:0:0:0:
308,63,235564,2,0,L|313:0,1,38.4375014662743,10|0,0:0|0:0,0:0:0:0:
392,0,235708,2,0,L|239:15,1,153.750005865097
214,147,236140,2,0,L|217:185,1,38.4375014662743,10|0,0:0|0:0,0:0:0:0:
256,368,236419,5,8,0:0:0:0:
512,352,237597,5,2,0:0:0:0:
464,288,237752,1,2,0:0:0:0:
384,304,237896,1,2,0:0:0:0:
336,240,238027,1,2,0:0:0:0:
256,256,238191,5,2,0:0:0:0:
208,192,238479,5,2,0:0:0:0:
464,64,238784,5,6,0:0:0:0:
