osu file format v14

[General]
AudioFilename: audio.mp3
AudioLeadIn: 0
PreviewTime: 56147
Countdown: 0
SampleSet: Soft
StackLeniency: 0.5
Mode: 0
LetterboxInBreaks: 0
WidescreenStoryboard: 1

[Editor]
Bookmarks: 140576,149807
DistanceSpacing: 1.3
BeatDivisor: 8
GridSize: 4
TimelineZoom: 2.2

[Metadata]
Title:Zokkon
TitleUnicode:ゾッコン
Artist:MONO NO AWARE
ArtistUnicode:MONO NO AWARE
Creator:Cubby
Version:Chompy's Hyper
Source:海辺のエトランゼ
Tags:Ark with a Line L'étranger de la Plage 行列のできる方舟 addy2607 shota on osu Shunao Cubbby Chompy arronchu1207 haruto The Stranger by the Beach Umibe no Étranger Mio Chibana Hashimoto Shun yaoi bl boys love rock japanese j-rock KaedeharaKazuha chu モノノアワレ movie
BeatmapID:3121918
BeatmapSetID:1525899

[Difficulty]
HPDrainRate:4
CircleSize:3.6
OverallDifficulty:5.5
ApproachRate:8
SliderMultiplier:1.45
SliderTickRate:0.5

[Events]
//Background and Video events
0,0,"wp8634609-umibe-no-etranger-wallpapers_waifu2x_art_noise1_scale_tta_1.jpg",0,0
//Break Periods
2,140896,149171
2,212425,214917
//Storyboard Layer 0 (Background)
//Storyboard Layer 1 (Fail)
//Storyboard Layer 2 (Pass)
//Storyboard Layer 3 (Foreground)
//Storyboard Layer 4 (Overlay)
//Storyboard Sound Samples

[TimingPoints]
1065,288.461538461538,4,2,2,40,1,0
1363,288.461538461538,4,2,2,50,1,0
1651,-95.9692898272553,4,2,2,50,0,0
1931,288.461538461538,4,2,2,50,1,0
2239,288.461538461538,4,2,2,50,1,0
2323,288.461538461538,4,2,2,40,1,0
2529,288.461538461538,4,2,2,40,1,0
2668,288.461538461538,4,2,2,40,1,0
2814,288.461538461538,4,2,2,40,1,0
2814,-97.0873786407767,4,2,2,40,0,0
2952,288.461538461538,4,2,2,40,1,0
3084,-100,4,2,2,50,0,0
3384,288.461538461538,4,2,2,40,1,0
3672,-100,4,2,2,50,0,0
3960,-105.263157894737,4,2,2,50,0,0
4264,288.461538461538,4,2,2,50,1,0
4415,288.461538461538,4,2,2,50,1,0
4566,288.461538461538,4,2,2,40,1,0
4846,288.461538461538,4,2,2,40,1,0
4846,-83.3333333333333,4,2,2,40,0,0
4969,288.461538461538,4,2,2,40,1,0
5113,-103.092783505155,4,2,2,40,0,0
5267,288.461538461538,4,2,2,40,1,0
5680,-100,4,2,2,50,0,0
5691,288.461538461538,4,2,2,40,1,0
5968,-100,4,2,2,50,0,0
6553,288.461538461538,4,2,2,50,1,0
6846,288.461538461538,4,2,2,50,1,0
7142,288.461538461538,4,2,2,40,1,0
7283,288.461538461538,4,2,2,40,1,0
7424,288.461538461538,4,2,2,40,1,0
7699,-100,4,2,2,50,0,0
8875,288.461538461538,4,2,2,50,1,0
9178,288.461538461538,4,2,2,40,1,0
9178,-93.4579439252336,4,2,2,40,0,0
9312,288.461538461538,4,2,2,40,1,0
9448,288.461538461538,4,2,2,40,1,0
9448,-94.3396226415094,4,2,2,40,0,0
9587,288.461538461538,4,2,2,40,1,0
9733,288.461538461538,4,2,2,50,1,0
9733,-103.092783505155,4,2,2,50,0,0
10031,288.461538461538,4,2,2,50,1,0
10316,288.461538461538,4,2,2,50,1,0
12623,-102.040816326531,4,2,2,50,0,0
12919,288.461538461538,4,2,2,40,1,0
13204,288.461538461538,4,2,2,40,1,0
13204,-94.3396226415094,4,2,2,40,0,0
13481,288.461538461538,4,2,2,40,1,0
13769,-99.009900990099,4,2,2,40,0,0
14054,288.461538461538,4,2,2,40,1,0
14342,-99.502487562189,4,2,2,40,0,0
14629,288.461538461538,4,2,2,50,1,0
18386,288.461538461538,4,2,2,40,1,0
18525,288.461538461538,4,2,2,40,1,0
18666,288.461538461538,4,2,2,40,1,0
18800,288.461538461538,4,2,2,40,1,0
18961,288.461538461538,4,2,2,40,1,0
19238,288.461538461538,4,2,2,40,1,0
19526,288.461538461538,4,2,2,40,1,0
19526,-125,4,2,2,40,0,0
22404,288.461538461538,4,2,2,40,1,0
22404,-125,4,2,2,40,0,0
23261,288.461538461538,4,2,2,40,1,0
23549,-125,4,2,2,40,0,0
24126,288.461538461538,4,2,2,40,1,0
24126,-117.647058823529,4,2,2,40,0,0
24401,288.461538461538,4,2,2,40,1,0
24689,-125,4,2,2,40,0,0
26695,288.461538461538,4,2,2,40,1,0
26983,-125,4,2,2,40,0,0
27870,288.461538461538,4,2,2,40,1,0
28158,-125,4,2,2,40,0,0
28750,288.461538461538,4,2,2,40,1,0
28750,-125,4,2,2,40,0,0
29022,288.461538461538,4,2,2,40,1,0
29310,-125,4,2,2,40,0,0
30608,-138.888888888889,4,2,2,40,0,0
30769,288.461538461538,4,2,2,40,1,0
31057,-125,4,2,2,40,0,0
31641,288.461538461538,4,2,2,40,1,0
32217,288.461538461538,4,2,2,40,1,0
32217,-125,4,2,2,40,0,0
35668,288.461538461538,4,2,2,40,1,0
35668,-125,4,2,2,40,0,0
36543,288.461538461538,4,2,2,40,1,0
36543,-125,4,2,2,40,0,0
39139,-121.951219512195,4,2,2,40,0,0
39424,288.461538461538,4,2,2,40,1,0
39712,-125,4,2,2,40,0,0
40289,-121.951219512195,4,2,2,40,0,0
40572,288.461538461538,4,2,2,40,1,0
41148,-125,4,2,2,40,0,0
41738,288.461538461538,4,2,2,40,1,0
41738,-125,4,2,2,40,0,0
42603,-123.456790123457,4,2,2,40,0,0
42888,288.461538461538,4,2,2,40,1,0
43176,-125,4,2,2,40,0,0
43753,-129.87012987013,4,2,2,40,0,0
44053,288.461538461538,4,2,2,40,1,0
44328,288.461538461538,4,2,2,40,1,0
44328,-125,4,2,2,40,0,0
46063,288.461538461538,4,2,2,40,1,0
46063,-125,4,2,2,40,0,0
46916,288.461538461538,4,2,2,40,1,0
47204,-125,4,2,2,40,0,0
48797,288.461538461538,4,2,2,40,1,0
48941,-125,4,2,2,40,0,0
49821,288.461538461538,4,2,2,40,1,0
49965,-133.333333333333,4,2,2,40,0,0
50119,288.461538461538,4,2,2,40,1,0
50695,-125,4,2,2,40,0,0
54139,288.461538461538,4,2,2,40,1,0
54139,-128.205128205128,4,2,2,40,0,0
54437,288.461538461538,4,2,2,40,1,0
55592,288.461538461538,4,2,2,40,1,0
55592,-125,4,2,2,40,0,0
55867,288.461538461538,4,2,2,40,1,0
55867,-125,4,2,2,40,0,0
56147,288.461538461538,4,2,2,40,1,0
56300,288.461538461538,4,2,2,40,1,0
56441,288.461538461538,4,2,2,50,1,0
57017,-102.040816326531,4,2,2,50,0,0
57313,288.461538461538,4,2,2,50,1,0
57603,288.461538461538,4,2,2,50,1,0
57603,-97.0873786407767,4,2,2,50,0,0
57885,288.461538461538,4,2,2,50,1,0
58165,288.461538461538,4,2,2,50,1,0
58460,288.461538461538,4,2,2,50,1,0
58748,-102.040816326531,4,2,2,50,0,0
59043,288.461538461538,4,2,2,50,1,0
60487,288.461538461538,4,2,2,40,1,0
60631,-100,4,2,2,50,0,0
60764,288.461538461538,4,2,2,40,1,0
61052,-100,4,2,2,50,0,0
61497,288.461538461538,4,2,2,40,1,0
61641,288.461538461538,4,2,2,50,1,0
62224,288.461538461538,4,2,2,50,1,0
63375,288.461538461538,4,2,2,50,1,0
63652,288.461538461538,4,2,2,50,1,0
63940,-96.1538461538461,4,2,2,50,0,0
64217,288.461538461538,4,2,2,50,1,0
64502,288.461538461538,4,2,2,40,1,0
64800,288.461538461538,4,2,2,40,1,0
64800,-85.4700854700855,4,2,2,40,0,0
64814,-85.4700854700855,4,2,2,50,0,0
64927,288.461538461538,4,2,2,40,1,0
65097,288.461538461538,4,2,2,40,1,0
65384,288.461538461538,4,2,2,40,1,0
65691,288.461538461538,4,2,2,50,1,0
65691,-96.1538461538461,4,2,2,50,0,0
65968,288.461538461538,4,2,2,50,1,0
66267,288.461538461538,4,2,2,50,1,0
67411,288.461538461538,4,2,2,50,1,0
71172,288.461538461538,4,2,2,50,1,0
71460,-103.092783505155,4,2,2,50,0,0
71760,288.461538461538,4,2,2,50,1,0
72619,288.461538461538,4,2,2,50,1,0
72619,-95.2380952380952,4,2,2,50,0,0
72896,288.461538461538,4,2,2,50,1,0
73763,288.461538461538,4,2,2,50,1,0
73763,-128.205128205128,4,2,2,50,0,0
74058,288.461538461538,4,2,2,30,1,0
74346,-125,4,2,2,30,0,0
74903,288.461538461538,4,2,2,30,1,0
74903,-128.205128205128,4,2,2,30,0,0
75200,288.461538461538,4,2,2,40,1,0
75349,288.461538461538,4,2,2,40,1,0
75349,-125,4,2,2,40,0,0
75665,288.461538461538,4,2,2,40,1,0
75784,288.461538461538,4,2,2,40,1,0
76079,288.461538461538,4,2,2,40,1,0
76079,-125,4,2,2,40,0,0
76497,-125,4,2,2,30,0,0
76797,288.461538461538,4,2,2,40,1,0
77218,-100,4,2,2,30,0,0
77229,-125,4,2,2,30,0,0
77657,288.461538461538,4,2,2,40,1,0
77657,-125,4,2,2,40,0,0
77960,288.461538461538,4,2,2,40,1,0
78089,288.461538461538,4,2,2,40,1,0
78372,288.461538461538,4,2,2,30,1,0
78372,-125,4,2,2,30,0,0
78938,288.461538461538,4,2,2,30,1,0
78938,-125,4,2,2,30,0,0
80081,288.461538461538,4,2,2,30,1,0
80081,-125,4,2,2,30,0,0
80664,288.461538461538,4,2,2,40,1,0
80664,-129.87012987013,4,2,2,40,0,0
80964,288.461538461538,4,2,2,40,1,0
81257,288.461538461538,4,2,2,30,1,0
81850,288.461538461538,4,2,2,30,1,0
81850,-125,4,2,2,30,0,0
82824,288.461538461538,4,2,2,40,1,0
82994,288.461538461538,4,2,2,30,1,0
82994,-125,4,2,2,30,0,0
87306,288.461538461538,4,2,2,30,1,0
87306,-125,4,2,2,30,0,0
87612,288.461538461538,4,2,2,40,1,0
87612,-125,4,2,2,40,0,0
88036,-125,4,2,2,30,0,0
89069,288.461538461538,4,2,2,40,1,0
89198,288.461538461538,4,2,2,30,1,0
89486,-125,4,2,2,30,0,0
91059,288.461538461538,4,2,2,40,1,0
91059,-125,4,2,2,40,0,0
92209,288.461538461538,4,2,2,40,1,0
93362,-100,4,2,2,30,0,0
94531,288.461538461538,4,2,2,30,1,0
94531,-121.951219512195,4,2,2,30,0,0
94955,288.461538461538,4,2,2,30,1,0
95374,288.461538461538,4,2,2,30,1,0
95671,288.461538461538,4,2,2,30,1,0
95671,-125,4,2,2,30,0,0
96229,288.461538461538,4,2,2,40,1,0
96229,-125,4,2,2,40,0,0
96817,288.461538461538,4,2,2,50,1,0
96817,-86.2068965517241,4,2,2,50,0,0
97119,288.461538461538,4,2,2,50,1,0
97411,288.461538461538,4,2,2,50,1,0
97411,-83.3333333333333,4,2,2,50,0,0
99141,-85.4700854700855,4,2,2,50,0,0
99440,288.461538461538,4,2,2,50,1,0
100305,-83.3333333333333,4,2,2,50,0,0
100882,-86.9565217391304,4,2,2,50,0,0
101036,288.461538461538,4,2,2,50,1,0
101167,288.461538461538,4,2,2,40,1,0
101468,288.461538461538,4,2,2,50,1,0
101745,288.461538461538,4,2,2,50,1,0
102045,288.461538461538,4,2,2,50,1,0
104053,288.461538461538,4,2,2,50,1,0
104194,288.461538461538,4,2,2,50,1,0
104338,-98.0392156862745,4,2,2,50,0,0
104622,288.461538461538,4,2,2,50,1,0
104904,288.461538461538,4,2,2,40,1,0
105769,-100,4,2,2,50,0,0
106064,288.461538461538,4,2,2,50,1,0
106064,-85.4700854700855,4,2,2,50,0,0
106361,288.461538461538,4,2,2,50,1,0
106649,-83.3333333333333,4,2,2,50,0,0
109548,288.461538461538,4,2,2,50,1,0
109821,288.461538461538,4,2,2,50,1,0
111263,-104.166666666667,4,2,2,50,0,0
111565,288.461538461538,4,2,2,50,1,0
113007,-95.2380952380952,4,2,2,50,0,0
113284,288.461538461538,4,2,2,50,1,0
114141,288.461538461538,4,2,2,50,1,0
115003,288.461538461538,4,2,2,50,1,0
115716,288.461538461538,4,2,2,40,1,0
115872,288.461538461538,4,2,2,50,1,0
115872,-90.9090909090909,4,2,2,50,0,0
116136,288.461538461538,4,2,2,50,1,0
116432,288.461538461538,4,2,2,40,1,0
116720,-100,4,2,2,50,0,0
116868,288.461538461538,4,2,2,50,1,0
117290,288.461538461538,4,2,2,50,1,0
117595,288.461538461538,4,2,2,50,1,0
117595,-94.3396226415094,4,2,2,50,0,0
117867,288.461538461538,4,2,2,50,1,0
118308,288.461538461538,4,2,2,50,1,0
118462,288.461538461538,4,2,2,50,1,0
119324,288.461538461538,4,2,2,40,1,0
119612,-100,4,2,2,50,0,0
120348,288.461538461538,4,2,2,40,1,0
120494,288.461538461538,4,2,2,40,1,0
120494,-101.010101010101,4,2,2,40,0,0
120643,288.461538461538,4,2,2,40,1,0
120784,288.461538461538,4,2,2,40,1,0
120784,-104.166666666667,4,2,2,40,0,0
120939,288.461538461538,4,2,2,40,1,0
121088,288.461538461538,4,2,2,40,1,0
121235,288.461538461538,4,2,2,40,1,0
121383,288.461538461538,4,2,2,40,1,0
121383,-109.89010989011,4,2,2,40,0,0
121472,288.461538461538,4,2,2,40,1,0
121545,288.461538461538,4,2,2,40,1,0
121684,288.461538461538,4,2,2,40,1,0
121965,288.461538461538,4,2,2,40,1,0
122262,288.461538461538,4,2,2,50,1,0
123114,288.461538461538,4,2,2,50,1,0
124257,288.461538461538,4,2,2,50,1,0
124559,288.461538461538,4,2,2,50,1,0
124559,-91.743119266055,4,2,2,50,0,0
124827,288.461538461538,4,2,2,50,1,0
124973,288.461538461538,4,2,2,50,1,0
126848,-98.0392156862745,4,2,2,50,0,0
127133,288.461538461538,4,2,2,50,1,0
127271,288.461538461538,4,2,2,50,1,0
127553,288.461538461538,4,2,2,50,1,0
127992,288.461538461538,4,2,2,50,1,0
128869,288.461538461538,4,2,2,50,1,0
129145,288.461538461538,4,2,2,40,1,0
129212,288.461538461538,4,2,2,40,1,0
129286,-100,4,2,2,50,0,0
129418,288.461538461538,4,2,2,40,1,0
129716,288.461538461538,4,2,2,40,1,0
130011,288.461538461538,4,2,2,40,1,0
130594,288.461538461538,4,2,2,40,1,0
130872,-100,4,2,2,50,0,0
131182,288.461538461538,4,2,2,40,1,0
131470,-100,4,2,2,50,0,0
132039,288.461538461538,4,2,2,50,1,0
132615,-99.009900990099,4,2,2,50,0,0
132747,288.461538461538,4,2,2,40,1,0
132901,288.461538461538,4,2,2,50,1,0
133489,288.461538461538,4,2,2,50,1,0
133781,288.461538461538,4,2,2,50,1,0
134633,288.461538461538,4,2,2,50,1,0
136075,-98.0392156862745,4,2,2,50,0,0
136357,288.461538461538,4,2,2,50,1,0
136778,288.461538461538,4,2,2,50,1,0
137504,288.461538461538,4,2,2,40,1,0
137651,-100,4,2,2,50,0,0
137655,288.461538461538,4,2,2,50,1,0
138365,288.461538461538,4,2,2,50,1,0
138629,288.461538461538,4,2,2,40,1,0
138762,288.461538461538,4,2,2,50,1,0
138762,-121.951219512195,4,2,2,50,0,0
138931,288.461538461538,4,2,2,50,1,0
139116,288.461538461538,4,2,2,50,1,0
139260,-99.009900990099,4,2,2,50,0,0
139331,288.461538461538,4,2,2,50,1,0
139533,288.461538461538,4,2,2,40,1,0
139933,288.461538461538,4,2,2,40,1,0
140120,288.461538461538,4,2,2,50,1,0
149921,288.461538461538,4,2,2,30,1,0
149921,-250,4,2,2,30,0,0
151074,-251.256281407035,4,2,2,30,0,0
151658,288.461538461538,4,2,2,30,1,0
152201,288.461538461538,4,2,2,30,1,0
152201,-250,4,2,2,30,0,0
152767,288.461538461538,4,2,2,30,1,0
152767,-250,4,2,2,30,0,0
154514,288.461538461538,4,2,2,30,1,0
154514,-166.666666666667,4,2,2,30,0,0
155090,-163.934426229508,4,2,2,30,0,0
155372,288.461538461538,4,2,2,40,1,0
155653,288.461538461538,4,2,2,40,1,0
155653,-166.666666666667,4,2,2,40,0,0
156813,288.461538461538,4,2,2,30,1,0
156813,-125,4,2,2,30,0,0
157389,-129.87012987013,4,2,2,30,0,0
157693,288.461538461538,4,2,2,30,1,0
157981,-123.456790123457,4,2,2,30,0,0
158267,288.461538461538,4,2,2,30,1,0
158555,-125,4,2,2,30,0,0
159142,288.461538461538,4,2,2,30,1,0
159142,-123.456790123457,4,2,2,30,0,0
159425,288.461538461538,4,2,2,30,1,0
159713,-123.456790123457,4,2,2,30,0,0
159999,288.461538461538,4,2,2,30,1,0
160287,-125,4,2,2,30,0,0
160864,-123.456790123457,4,2,2,30,0,0
161147,288.461538461538,4,2,2,30,1,0
161435,-123.456790123457,4,2,2,30,0,0
161731,288.461538461538,4,2,2,30,1,0
162019,-125,4,2,2,30,0,0
164620,288.461538461538,4,2,2,30,1,0
164908,-116.279069767442,4,2,2,30,0,0
165188,288.461538461538,4,2,2,30,1,0
165476,-123.456790123457,4,2,2,30,0,0
165766,288.461538461538,4,2,2,30,1,0
166060,288.461538461538,4,2,2,30,1,0
166060,-123.456790123457,4,2,2,30,0,0
166345,288.461538461538,4,2,2,30,1,0
166633,-125,4,2,2,30,0,0
168070,288.461538461538,4,2,2,30,1,0
168358,-125,4,2,2,30,0,0
168935,-123.456790123457,4,2,2,30,0,0
169216,288.461538461538,4,2,2,30,1,0
169504,-125,4,2,2,30,0,0
170663,288.461538461538,4,2,2,40,1,0
170663,-123.456790123457,4,2,2,40,0,0
170946,288.461538461538,4,2,2,40,1,0
171234,-125,4,2,2,40,0,0
171811,-131.578947368421,4,2,2,40,0,0
172109,288.461538461538,4,2,2,40,1,0
172382,288.461538461538,4,2,2,30,1,0
172382,-120.481927710843,4,2,2,30,0,0
172665,288.461538461538,4,2,2,30,1,0
173233,288.461538461538,4,2,2,30,1,0
173233,-125,4,2,2,30,0,0
174975,288.461538461538,4,2,2,30,1,0
174975,-125,4,2,2,30,0,0
175263,-100,4,2,2,30,0,0
176425,288.461538461538,4,2,2,30,1,0
177588,288.461538461538,4,2,2,30,1,0
177884,288.461538461538,4,2,2,40,1,0
178024,288.461538461538,4,2,2,40,1,0
178161,288.461538461538,4,2,2,40,1,0
178161,-106.382978723404,4,2,2,40,0,0
178319,288.461538461538,4,2,2,40,1,0
178465,288.461538461538,4,2,2,40,1,0
178919,288.461538461538,4,2,2,40,1,0
179068,288.461538461538,4,2,2,40,1,0
179068,-89.2857142857143,4,2,2,40,0,0
179202,288.461538461538,4,2,2,40,1,0
179353,288.461538461538,4,2,2,40,1,0
179797,288.461538461538,4,2,2,40,1,0
179923,288.461538461538,4,2,2,50,1,0
179923,-87.719298245614,4,2,2,50,0,0
180225,288.461538461538,4,2,2,50,1,0
180500,288.461538461538,4,2,2,50,1,0
180500,-81.3008130081301,4,2,2,50,0,0
180782,288.461538461538,4,2,2,50,1,0
181070,-83.3333333333333,4,2,2,50,0,0
181355,288.461538461538,4,2,2,50,1,0
181643,-83.3333333333333,4,2,2,50,0,0
182220,-84.7457627118644,4,2,2,50,0,0
182515,288.461538461538,4,2,2,50,1,0
183380,-83.3333333333333,4,2,2,50,0,0
183660,288.461538461538,4,2,2,50,1,0
183948,-83.3333333333333,4,2,2,50,0,0
184525,-100,4,2,2,50,0,0
184803,288.461538461538,4,2,2,50,1,0
184959,288.461538461538,4,2,2,50,1,0
185103,-94.3396226415094,4,2,2,50,0,0
185380,288.461538461538,4,2,2,50,1,0
185668,-99.009900990099,4,2,2,50,0,0
185966,288.461538461538,4,2,2,50,1,0
186838,288.461538461538,4,2,2,50,1,0
186838,-97.0873786407767,4,2,2,50,0,0
187120,288.461538461538,4,2,2,50,1,0
189149,288.461538461538,4,2,2,50,1,0
189149,-84.7457627118644,4,2,2,50,0,0
189449,288.461538461538,4,2,2,50,1,0
189737,-83.3333333333333,4,2,2,50,0,0
190314,-80,4,2,2,50,0,0
190594,288.461538461538,4,2,2,50,1,0
191449,288.461538461538,4,2,2,50,1,0
191449,-83.3333333333333,4,2,2,50,0,0
193045,288.461538461538,4,2,2,50,1,0
193189,-83.3333333333333,4,2,2,50,0,0
193766,-100,4,2,2,50,0,0
194041,288.461538461538,4,2,2,50,1,0
194624,288.461538461538,4,2,2,50,1,0
195350,288.461538461538,4,2,2,50,1,0
195494,288.461538461538,4,2,2,50,1,0
196647,-98.0392156862745,4,2,2,50,0,0
196931,288.461538461538,4,2,2,50,1,0
197793,288.461538461538,4,2,2,40,1,0
198088,288.461538461538,4,2,2,50,1,0
198376,288.461538461538,4,2,2,50,1,0
198376,-83.3333333333333,4,2,2,50,0,0
198952,-78.125,4,2,2,50,0,0
199231,288.461538461538,4,2,2,50,1,0
199519,-83.3333333333333,4,2,2,50,0,0
200673,288.461538461538,4,2,2,50,1,0
200673,-83.3333333333333,4,2,2,50,0,0
201547,288.461538461538,4,2,2,50,1,0
201835,-83.3333333333333,4,2,2,50,0,0
202432,288.461538461538,4,2,2,40,1,0
202432,-72.992700729927,4,2,2,40,0,0
202561,288.461538461538,4,2,2,40,1,0
202705,288.461538461538,4,2,2,50,1,0
203005,288.461538461538,4,2,2,50,1,0
203005,-97.0873786407767,4,2,2,50,0,0
203282,288.461538461538,4,2,2,50,1,0
203433,288.461538461538,4,2,2,50,1,0
204161,288.461538461538,4,2,2,40,1,0
204417,-100,4,2,2,50,0,0
205588,288.461538461538,4,2,2,50,1,0
205876,-101.010101010101,4,2,2,50,0,0
206171,288.461538461538,4,2,2,50,1,0
206881,288.461538461538,4,2,2,40,1,0
207035,288.461538461538,4,2,2,40,1,0
207188,288.461538461538,4,2,2,40,1,0
207339,288.461538461538,4,2,2,40,1,0
207475,288.461538461538,4,2,2,40,1,0
207628,288.461538461538,4,2,2,60,1,0
207628,-81.9672131147541,4,2,2,60,0,0
207910,288.461538461538,4,2,2,60,1,0
208198,-83.3333333333333,4,2,2,60,0,0
209349,288.461538461538,4,2,2,60,1,0
209349,-83.3333333333333,4,2,2,60,0,0
210206,288.461538461538,4,2,2,60,1,0
210486,288.461538461538,4,2,2,60,1,0
210486,-83.3333333333333,4,2,2,60,0,0
210763,-83.3333333333333,4,2,2,50,0,0
211052,-83.3333333333333,4,2,2,60,0,0
211348,288.461538461538,4,2,2,60,1,0
211643,288.461538461538,4,2,2,60,1,0
211643,-83.3333333333333,4,2,2,60,0,0
211916,288.461538461538,4,2,2,60,1,0
211916,-83.3333333333333,4,2,2,60,0,0
212225,288.461538461538,4,2,2,40,1,0
215667,-100,4,2,2,30,0,0
215686,-125,4,2,2,30,0,0
217412,288.461538461538,4,2,2,40,1,0
217412,-125,4,2,2,40,0,0
217975,288.461538461538,4,2,2,40,1,0
217975,-125,4,2,2,40,0,0
220282,-125,4,2,2,30,0,0
223467,288.461538461538,4,2,2,30,1,0
223755,-125,4,2,2,30,0,0
224324,288.461538461538,4,2,2,30,1,0
224324,-125,4,2,2,30,0,0
224900,288.461538461538,4,2,2,30,1,0
224900,-125,4,2,2,30,0,0
227488,288.461538461538,4,2,2,30,1,0
227768,288.461538461538,4,2,2,30,1,0
227768,-125,4,2,2,30,0,0
228938,288.461538461538,4,2,2,30,1,0
228938,-125,4,2,2,30,0,0
229503,288.461538461538,4,2,2,30,1,0
229503,-125,4,2,2,30,0,0
231378,-131.578947368421,4,2,2,30,0,0
231531,288.461538461538,4,2,2,30,1,0
231819,-125,4,2,2,30,0,0
232124,288.461538461538,4,2,2,30,1,0
232124,-119.047619047619,4,2,2,30,0,0
232262,288.461538461538,4,2,2,30,1,0
232983,288.461538461538,4,2,2,30,1,0
232983,-125,4,2,2,30,0,0
235564,288.461538461538,4,2,2,30,1,0
235852,-125,4,2,2,30,0,0
236419,288.461538461538,4,2,2,40,1,0
236419,-125,4,2,2,40,0,0
237597,288.461538461538,4,2,2,40,1,0
237597,-135.135135135135,4,2,2,40,0,0
237752,288.461538461538,4,2,2,40,1,0
238027,288.461538461538,4,2,2,40,1,0
238191,288.461538461538,4,2,2,40,1,0
238191,-125,4,2,2,40,0,0
238784,288.461538461538,4,2,2,40,1,0

[Colours]
Combo1 : 255,117,83
Combo2 : 128,255,128

[HitObjects]
23,224,1065,6,0,P|17:206|16:188,2,36.25,2|2|2,0:0|0:0|0:0,0:0:0:0:
4,308,1363,2,0,P|39:314|71:298,1,72.5,8|0,1:2|0:0,0:0:0:0:
146,256,1651,2,0,B|180:244|218:264|207:282|248:301|280:284,1,147.095114666667,0|8,1:0|1:2,0:0:0:0:
464,216,2239,5,2,0:0:0:0:
464,216,2323,1,2,0:0:0:0:
464,216,2395,1,2,0:0:0:0:
400,152,2529,1,10,0:0:0:0:
400,152,2668,1,8,0:0:0:0:
485,134,2814,2,0,P|445:76|375:68,1,146.035493333333,2|10,0:0|0:0,0:0:0:0:
199,57,3384,6,0,B|161:40|161:40|193:161,1,145,0|8,1:0|0:0,0:0:0:0:
281,296,3960,2,0,P|233:260|154:293,1,145.477533333333,0|8,1:0|0:0,0:0:0:0:
103,354,4415,1,8,3:0:0:0:
40,293,4566,6,0,B|23:261|23:261|26:225,1,72.5,2|2,1:2|1:2,0:0:0:0:
101,180,4846,2,0,P|79:151|45:141,1,74.3096,10|2,1:2|1:2,0:0:0:0:
17,58,5113,2,0,P|38:29|72:19,1,75.42552,2|2,1:2|1:2,0:0:0:0:
161,41,5411,1,10,1:2:0:0:
326,96,5691,6,0,B|324:120|308:137|308:137|310:164|329:181|329:181|330:208|312:226,1,145,4|8,0:0|0:0,0:0:0:0:
175,332,6267,1,0,1:0:0:0:
175,332,6412,1,0,1:0:0:0:
249,287,6553,2,8,P|275:311|310:316,1,72.5,8|0,1:2|0:0,0:0:0:0:
442,327,6846,6,2,P|442:345|437:362,2,36.25
495,259,7142,1,8,1:2:0:0:
495,259,7283,1,8,1:2:0:0:
424,207,7424,2,0,B|439:179|471:171|471:171|495:134|472:92,1,145,0|8,0:0|0:0,0:0:0:0:
301,54,8000,6,0,P|231:41|176:85,1,145,2|8,1:2|1:2,0:0:0:0:
262,242,8577,1,0,1:0:0:0:
262,242,8722,1,0,1:0:0:0:
299,170,8875,2,0,P|283:137|251:122,1,72.5,8|8,0:0|3:0,0:0:0:0:
120,145,9178,6,0,B|85:134|85:134|50:142,1,72.5,2|2,1:2|1:2,0:0:0:0:
11,216,9448,2,0,P|37:241|53:274,1,74.09848,10|10,3:0|3:0,0:0:0:0:
46,360,9733,2,0,B|80:372|118:352|107:334|148:315|180:332,1,145.487586666667,0|8,1:0|0:0,0:0:0:0:
358,345,10316,6,0,P|350:281|413:286,1,145,4|10,0:0|0:0,0:0:0:0:
464,215,10748,1,0,0:0:0:0:
464,215,10892,2,0,B|430:179|377:180|377:180|406:171|420:148,1,145,2|10,0:0|0:0,0:0:0:0:
242,146,11469,6,0,P|182:182|116:158,1,145,2|10,1:2|1:2,0:0:0:0:
173,101,11902,1,0,0:0:0:0:
173,101,12046,2,0,B|192:85|195:60|195:60|231:74|268:63|282:37,1,145,2|8,0:2|1:2,0:0:0:0:
298,211,12623,6,0,B|262:232|264:276|264:276|294:295|297:330,1,145.985226666667,0|10,1:0|1:2,0:0:0:0:
212,348,13063,1,0,0:0:0:0:
212,348,13204,2,0,B|153:332|153:332|137:307|140:286|140:286|165:260,1,147.664133333333,2|10,0:0|1:2,0:0:0:0:
235,100,13769,6,0,P|194:42|124:33,1,145,2|10,1:2|1:2,0:0:0:0:
149,121,14198,1,0,0:0:0:0:
149,121,14342,2,0,B|85:138|47:86|47:86|15:100,1,145,2|8,0:2|0:0,0:3:0:0:
15,272,14917,6,0,B|40:341|40:341|109:321,1,145,2|8,1:2|0:0,0:0:0:0:
185,371,15350,1,2,0:0:0:0:
185,371,15494,2,0,B|201:352|201:322|201:322|214:297|245:290|245:290|276:313,1,145,0|8,0:0|1:2,0:0:0:0:
502,244,16071,6,0,B|416:237|416:237|396:259|364:263,1,145,2|8,1:2|1:2,0:0:0:0:
353,180,16504,1,0,1:2:0:0:
353,180,16648,2,0,B|309:133|352:71|352:71|370:88,1,145,2|4,0:0|1:2,0:0:0:0:
203,38,17225,5,8,0:0:0:0:
203,38,19526,6,0,B|148:18|148:18|118:66,1,116,4|8,0:0|0:0,0:0:0:0:
114,206,20103,2,0,P|91:187|63:185,1,58
4,241,20391,1,8,0:0:0:0:
145,279,20680,6,0,P|187:241|186:171,1,116,2|8,0:0|0:0,0:0:0:0:
299,96,21257,2,0,B|329:73|367:92|367:92|375:113|393:125,1,116,0|8,0:0|0:0,0:0:0:0:
500,215,21834,6,0,P|480:235|472:263,1,58,0|0,1:0|0:0,0:0:0:0:
499,339,22122,1,8,0:0:0:0:
336,332,22404,2,0,B|312:349|312:349|283:351,2,58,0|0|8,0:0|0:0|0:0,0:0:0:0:
285,176,22980,6,0,P|306:195|334:201,1,58,0|0,0:2|0:0,0:0:0:0:
363,119,23261,1,8,0:0:0:0:
286,91,23405,1,0,0:0:0:0:
286,91,23549,2,0,P|257:91|232:107,2,58,0|0|8,3:0|3:0|0:0,0:0:0:0:
82,177,24126,6,0,P|137:188|166:237,1,117.709066666667,0|8,0:0|0:0,0:0:0:0:
241,280,24545,1,0,0:0:0:0:
241,280,24689,2,0,P|199:318|142:319,1,116,0|8,0:0|0:0,0:0:0:0:
346,291,25266,6,0,P|393:278|469:279,1,116,2|8,0:0|0:2,0:0:0:0:
428,101,25843,2,0,B|457:89|457:89|487:128|456:167,1,116,0|8,0:0|0:0,0:0:0:0:
293,155,26420,6,0,P|268:140|255:114,1,58
279,36,26695,1,8,0:0:0:0:
116,33,26983,2,0,B|86:30|86:30|60:43,2,58,0|0|8,0:0|0:0|0:0,0:0:0:0:
62,220,27560,6,0,P|61:191|75:166,1,58
144,214,27870,1,8,1:2:0:0:
66,355,28158,2,0,P|46:334|18:325,2,58,0|0|8,1:0|0:0|0:0,0:0:0:0:
234,293,28750,6,0,B|257:279|257:279|288:285,1,58,6|0,1:2|0:0,0:0:0:0:
346,341,29022,1,10,0:0:0:0:
424,198,29310,2,0,P|419:169|430:143,1,58,2|0,0:0|0:0,0:0:0:0:
496,96,29598,1,10,0:0:0:0:
496,96,29743,6,0,P|422:57|356:106,1,174,0|8,0:0|0:0,0:0:0:0:
281,72,30320,1,0,1:0:0:0:
212,206,30608,2,0,P|223:231|217:259,1,58.36192,0|8,1:0|1:2,0:0:0:0:
283,312,30913,1,0,0:0:0:0:
283,312,31057,6,0,P|262:331|234:340,1,58,2|0,1:2|0:0,0:0:0:0:
159,373,31345,2,0,P|131:364|110:345,1,58,10|0,1:2|0:0,0:0:0:0:
81,268,31641,1,2,1:2:0:0:
81,268,31785,1,0,0:0:0:0:
122,164,31929,1,8,0:0:0:0:
122,164,32073,1,0,0:0:0:0:
100,79,32217,6,0,B|112:48|152:41|152:41|196:60,1,116,0|10,1:2|0:0,0:0:0:0:
266,18,32649,1,0,0:0:0:0:
266,18,32793,2,0,P|277:73|247:125,1,116,2|10,0:0|0:0,0:0:0:0:
120,246,33370,6,0,P|176:241|218:278,1,116,0|10,1:0|0:0,0:0:0:0:
276,342,33803,1,0,0:0:0:0:
276,342,33947,2,0,P|304:337|326:320,1,58,2|0,0:0|0:0,0:0:0:0:
403,291,34236,2,0,P|407:262|397:235,1,58,10|0,0:0|0:0,0:0:0:0:
381,127,34524,6,0,B|406:113|406:113|435:114,2,58,2|0|10,1:2|0:0|0:0,0:0:0:0:
302,149,34957,1,0,0:0:0:0:
302,149,35101,2,0,P|273:144|251:127,1,58,2|0,0:0|0:0,0:0:0:0:
205,53,35390,2,0,P|181:70|166:97,1,58,10|0,0:0|0:0,0:0:0:0:
160,180,35668,6,0,P|107:159|81:108,1,116,6|10,0:0|0:0,0:0:0:0:
18,271,36244,5,2,0:0:0:0:
18,271,36317,1,0,0:0:0:0:
18,271,36389,1,2,0:0:0:0:
75,327,36543,2,0,P|102:319|131:317,1,58,8|0,1:2|0:0,0:0:0:0:
255,264,36831,6,0,B|244:236|244:236|249:208,2,58,2|2|10,0:0|0:0|0:0,0:0:0:0:
279,341,37264,1,10,0:0:0:0:
279,341,37408,2,0,B|308:333|324:307|324:307|381:318,1,116,2|10,0:0|1:2,0:0:0:0:
487,180,37985,6,0,P|498:124|468:77,1,116,6|10,0:0|0:0,0:0:0:0:
412,142,38418,1,0,0:0:0:0:
412,142,38562,2,0,P|385:131|356:133,1,58,0|0,0:2|0:0,0:0:0:0:
293,81,38850,1,10,0:0:0:0:
293,81,38994,1,0,0:0:0:0:
208,30,39139,6,0,B|208:62|176:78|176:78|150:65|123:73,1,117.648746666667,0|10,1:2|0:0,0:0:0:0:
146,162,39568,1,0,0:0:0:0:
146,162,39712,2,0,B|164:191|146:216|146:216|116:219|99:189,1,116,0|10,1:2|0:0,0:0:0:0:
29,347,40289,6,0,B|65:343|79:322|79:322|97:341|133:338,1,116.824373333333,0|10,0:0|0:0,0:0:0:0:
289,208,40860,1,2,0:0:0:0:
243,335,41148,2,0,P|228:329|215:326,1,29,10|0,0:0|0:0,0:0:0:0:
382,350,41437,5,2,0:0:0:0:
433,244,41738,2,0,P|430:228|424:215,1,29,10|0,0:0|0:0,0:0:0:0:
450,88,42026,5,2,0:0:0:0:
344,35,42314,2,0,P|329:37|316:42,1,29,10|0,0:2|0:0,0:0:0:0:
233,112,42603,6,0,B|179:89|179:89|151:87|124:113,1,116.40716,6|10,0:0|0:0,0:0:0:0:
46,96,43032,1,0,0:0:0:0:
46,96,43176,2,0,P|42:124|53:151,1,58
39,236,43464,2,0,P|61:253|90:257,1,58,10|0,0:0|0:0,0:0:0:0:
168,296,43753,6,0,P|196:247|251:235,1,116.387053333333,0|10,1:2|0:0,0:0:0:0:
415,295,44328,2,0,P|429:268|427:241,1,58
377,177,44616,1,10,0:0:0:0:
377,177,44760,1,0,0:0:0:0:
417,99,44904,5,0,1:2:0:0:
263,17,45193,1,10,0:0:0:0:
181,171,45481,5,2,1:2:0:0:
335,253,45770,1,10,0:0:0:0:
169,316,46063,6,0,P|155:346|128:325,2,77.3333333333333,10|10|10,0:0|0:0|0:0,0:0:0:0:
128,240,46639,1,10,0:0:0:0:
211,88,46916,1,8,0:0:0:0:
211,88,47060,1,8,0:0:0:0:
273,36,47204,6,0,P|301:35|326:49,1,58,4|0,0:0|0:0,0:0:0:0:
377,114,47492,2,0,P|405:114|430:100,1,58,10|0,0:0|0:0,0:0:0:0:
491,45,47781,1,2,0:0:0:0:
480,234,48069,1,10,0:0:0:0:
480,234,48214,1,0,0:0:0:0:
421,290,48358,6,0,B|401:278|395:251|395:251|366:230|330:241,1,116,2|10,0:0|0:0,0:0:0:0:
193,329,48941,2,0,P|165:323|148:300,1,58,2|0,3:0|0:0,0:0:0:0:
164,219,49229,1,10,0:2:0:0:
62,92,49518,6,0,P|90:91|117:80,1,58,0|0,1:0|0:0,0:0:0:0:
179,27,49821,1,10,0:0:0:0:
179,27,49965,2,0,P|207:27|234:38,1,58.377,0|2,0:0|3:0,0:0:0:0:
316,184,50407,1,10,0:0:0:0:
316,184,50551,1,0,0:0:0:0:
402,189,50695,6,0,P|383:242|333:269,1,116,0|10,1:0|0:0,0:0:0:0:
289,345,51128,1,0,0:0:0:0:
289,345,51272,2,0,B|268:337|256:318|256:318|183:326,1,116,2|10,3:0|0:0,0:0:0:0:
101,321,51705,1,0,0:0:0:0:
101,321,51849,6,0,P|76:306|71:278,1,58,2|0,0:0|0:0,0:0:0:0:
134,220,52138,2,0,P|152:197|158:169,1,58,10|0,0:0|0:0,0:0:0:0:
71,156,52426,2,0,P|42:154|15:143,1,58,2|0,3:0|0:0,0:0:0:0:
66,74,52715,1,10,0:0:0:0:
66,74,52859,1,0,0:0:0:0:
151,85,53003,6,0,P|206:92|242:137,1,116,2|10,0:0|0:0,0:0:0:0:
335,285,53580,2,0,P|363:278|386:262,1,58,2|0,3:0|0:0,0:0:0:0:
423,185,53869,1,10,0:0:0:0:
423,185,54013,1,8,0:0:0:0:
343,103,54139,6,0,B|308:89|277:105|277:105|265:125|242:137,1,117.17624,6|8,1:2|0:0,0:0:0:0:
425,87,54725,1,2,0:0:0:0:
407,264,55013,1,10,0:2:0:0:
280,348,55302,5,2,0:2:0:0:
138,269,55592,2,0,P|110:271|81:284,1,58,10|8,0:0|0:0,0:0:0:0:
26,227,55867,2,0,P|21:198|32:172,1,58,8|8,0:0|0:0,0:0:0:0:
76,104,56147,1,8,0:0:0:0:
76,104,56300,1,8,0:0:0:0:
166,47,56441,6,0,B|200:35|238:55|227:73|268:92|300:75,1,145,6|8,0:2|0:0,0:0:0:0:
474,90,57017,2,0,B|468:67|438:58|438:58|397:96|427:165,1,145.985226666667,2|8,1:2|0:0,0:0:0:0:
415,319,57603,6,0,B|381:325|350:304|350:304|310:304|281:334,1,146.035493333333,2|8,1:2|0:0,0:0:0:0:
479,249,58165,1,2,1:2:0:0:
425,92,58460,1,8,0:0:0:0:
273,48,58748,6,0,P|203:54|174:116,1,145.492613333333,2|8,1:2|0:0,0:0:0:0:
46,234,59331,2,0,B|121:210|121:210|148:227|184:222,1,145,2|8,1:2|0:0,0:0:0:0:
352,176,59908,6,0,P|383:190|389:225,1,72.5,2|0,1:2|0:0,0:0:0:0:
354,304,60196,1,8,0:0:0:0:
354,304,60341,1,8,0:0:0:0:
250,282,60487,1,0,0:0:0:0:
250,282,60631,1,8,0:0:0:0:
179,332,60764,2,0,P|144:319|108:318,1,72.5,8|8,3:0|3:0,0:0:0:0:
63,245,61052,6,0,P|53:176|95:119,1,145,6|8,0:0|0:0,0:0:0:0:
93,36,61497,1,10,0:0:0:0:
93,36,61641,2,0,P|159:57|182:124,1,145,2|8,0:0|0:0,0:0:0:0:
251,283,62224,6,0,B|286:298|324:278|313:260|354:241|386:258,1,145,2|8,1:2|0:0,0:0:0:0:
488,117,62800,2,0,B|466:53|466:53|392:29,1,145,2|8,0:0|1:2,0:0:0:0:
217,42,63375,6,0,P|200:72|205:107,1,72.5,6|0,0:0|0:0,0:0:0:0:
280,153,63652,1,8,0:0:0:0:
247,235,63796,1,8,0:0:0:0:
247,235,63940,2,0,P|187:200|128:236,1,145,2|8,0:0|0:0,0:0:0:0:
3,358,64502,5,2,0:0:0:0:
60,293,64646,1,2,0:0:0:0:
60,293,64800,2,0,P|85:318|120:326,1,74.85248,8|2,0:0|0:0,0:0:0:0:
202,357,65097,2,0,P|213:324|248:320,1,72.5,2|2,0:0|0:0,0:0:0:0:
334,352,65384,1,10,0:0:0:0:
334,352,65528,1,10,0:0:0:0:
440,325,65691,6,0,B|375:294|381:236|381:236|404:213,1,145,6|8,1:2|0:0,0:0:0:0:
321,61,66267,2,0,P|254:43|208:95,1,145,2|8,1:2|0:0,0:0:0:0:
129,250,66843,6,0,P|60:232|12:169,1,145,2|8,1:2|0:0,0:0:0:0:
196,203,67411,1,2,1:2:0:0:
240,43,67699,1,8,0:0:0:0:
375,142,67987,6,0,B|445:162|445:162|475:183|479:222,1,145,2|8,1:2|0:0,0:0:0:0:
360,348,68564,2,0,B|311:366|279:329|279:329|305:311|312:285,1,145,2|8,1:2|0:0,0:0:0:0:
215,141,69141,6,0,P|180:131|145:141,1,72.5,2|0,1:2|0:0,0:0:0:0:
100,217,69430,1,8,0:0:0:0:
100,217,69574,1,8,0:0:0:0:
142,320,69718,1,0,0:0:0:0:
142,320,69862,1,8,0:0:0:0:
221,355,70007,2,0,P|235:323|269:324,1,72.5,8|8,3:0|3:0,0:0:0:0:
353,342,70295,6,0,P|369:300|373:272,1,72.5,6|0,0:0|0:0,0:0:0:0:
317,212,70584,1,8,0:0:0:0:
317,212,70728,1,8,0:0:0:0:
448,97,71016,1,0,0:0:0:0:
448,97,71172,2,0,P|420:76|378:71,1,72.5,8|0,0:0|0:0,0:0:0:0:
304,105,71460,6,0,P|271:44|191:43,1,146.510420131803,2|8,1:2|0:0,0:0:0:0:
130,204,72048,2,0,B|105:196|78:204|78:204|26:193|16:143,1,145,2|8,1:2|0:0,0:0:0:0:
108,291,72619,6,0,B|143:306|181:286|170:268|211:249|243:266,1,146.5834,6|8,0:0|0:0,0:0:0:0:
330,294,73040,1,2,1:2:0:0:
330,294,73184,2,0,P|367:276|394:306,1,72.5,2|8,0:0|0:0,0:0:0:0:
452,352,73472,1,2,0:0:0:0:
490,194,73763,6,0,P|489:145|437:95,1,116,8|2,0:0|0:0,0:0:0:0:
282,85,74346,2,0,P|266:61|263:32,2,58,2|2|2,1:2|1:2|1:2,0:0:0:0:
348,140,74779,1,2,1:2:0:0:
348,140,74903,6,0,P|299:170|231:153,1,116.78416,10|0,0:0|0:0,0:0:0:0:
193,97,75349,2,0,P|112:105|95:185,1,175.2064,10|2,0:0|1:2,0:0:0:0:
62,332,76079,6,0,P|89:339|118:339,1,58,8|0,0:0|0:0,0:0:0:0:
204,349,76367,1,2,0:0:0:0:
204,349,76511,2,0,P|229:334|249:313,1,58,10|2,0:0|1:2,0:0:0:0:
297,160,76941,1,2,1:2:0:0:
297,160,77085,1,2,1:2:0:0:
240,94,77229,6,0,P|292:73|350:95,1,116,10|0,0:0|0:0,0:0:0:0:
426,58,77657,2,0,P|459:136|428:215,1,174,10|2,0:0|1:2,0:0:0:0:
326,342,78372,6,0,P|273:320|220:341,1,116,2|0,1:2|0:0,0:0:0:0:
184,182,78938,2,0,P|204:161|231:153,1,58,8|0,0:0|0:0,0:0:0:0:
282,90,79226,1,0,1:0:0:0:
282,90,79370,1,0,0:0:0:0:
232,25,79514,5,0,1:0:0:0:
74,40,79803,1,0,0:0:0:0:
74,40,79947,1,0,0:0:0:0:
21,102,80081,2,0,P|14:130|22:158,1,58,8|0,0:0|0:0,0:0:0:0:
68,224,80369,2,0,P|94:220|105:245,1,58,0|0,1:0|0:0,0:0:0:0:
124,324,80664,6,0,B|97:332|70:319|70:319|39:336|39:368,1,116.387053333333,0|0,1:0|1:0,0:0:0:0:
203,309,81257,1,8,0:0:0:0:
260,165,81545,1,0,0:0:0:0:
410,179,81850,6,0,B|439:170|446:147|446:147|436:117,2,77.3333333333333,2|2|2,1:2|0:0|2:0,0:0:0:0:
358,243,82426,2,0,P|329:195|338:139,1,116,10|0,0:0|0:0,0:0:0:0:
204,56,82994,6,0,P|155:29|109:59,1,116,0|0,0:0|1:0,0:0:0:0:
37,180,83570,2,0,P|40:208|59:230,1,58,8|0,0:0|0:0,0:0:0:0:
140,233,83859,2,0,P|153:208|180:212,1,58,0|0,1:0|1:0,1:0:0:0:
250,253,84147,6,0,P|278:245|306:244,2,58,0|0|0,1:0|0:0|1:0,0:0:0:0:
272,336,84580,1,0,0:0:0:0:
272,336,84724,2,0,P|300:328|328:327,2,58,8|0|0,1:2|0:0|1:0,0:0:0:0:
191,352,85157,1,0,0:0:0:0:
191,352,85301,6,0,P|139:323|73:347,2,116,0|0|8,0:0|0:0|0:0,0:0:0:0:
328,327,86167,1,2,3:0:0:0:
450,217,86455,6,0,P|475:238|490:208,2,77.3333333333333,10|10|10,0:0|0:0|0:0,0:0:0:0:
444,128,87032,1,10,0:0:0:0:
290,76,87306,2,0,P|266:59|237:57,1,58
163,23,87612,6,0,P|155:79|190:123,1,116,4|2,0:0|0:0,0:0:0:0:
197,210,88044,1,2,3:0:0:0:
197,210,88188,2,0,B|169:214|143:199|143:199|85:216,1,116,0|8,0:0|0:0,0:0:0:0:
191,355,88765,6,0,P|214:338|243:333,1,58,2|0,1:2|0:0,0:0:0:0:
332,351,89069,1,2,0:0:0:0:
332,351,89198,1,2,3:0:0:0:
480,259,89486,2,0,P|481:287|496:311,2,58,0|8|0,0:0|0:2|0:0,0:0:0:0:
458,180,89919,6,0,P|430:170|401:167,1,58,2|0,1:2|0:0,0:0:0:0:
330,206,90207,2,0,P|305:217|287:196,1,58,2|2,0:0|3:0,0:0:0:0:
239,130,90496,2,0,P|248:102|270:85,2,58,0|0|8,0:0|0:0|0:0,0:0:0:0:
163,160,90928,1,0,0:0:0:0:
163,160,91059,6,0,B|134:122|82:146|82:146|75:171,1,116,2|2,0:0|0:0,0:0:0:0:
0,199,91491,2,0,P|35:242|94:252,1,116,0|2,0:0|2:0,0:0:0:0:
149,309,91924,1,10,2:0:0:0:
149,309,92068,1,2,2:0:0:0:
224,279,92209,5,2,3:0:0:0:
482,358,92641,1,2,3:0:0:0:
493,87,93362,5,8,0:0:0:0:
312,251,93795,1,2,0:0:0:0:
210,29,94228,1,2,2:0:0:0:
151,149,94531,6,0,B|126:137|121:111|121:111|84:99|50:121|50:121|41:143|14:157,1,174.824373333333,8|8,0:0|0:0,0:0:0:0:
230,38,95374,1,8,1:2:0:0:
312,125,95671,2,0,B|305:156|305:156|317:167|317:167|316:198|316:198|300:218|300:218|320:250|320:250|314:281,1,174,8|0,0:0|0:0,0:0:0:0:
257,339,96229,2,0,P|267:348|280:354,2,29,8|8|8,0:0|0:0|0:0,0:0:0:0:
204,276,96517,1,8,0:0:0:0:
204,276,96589,1,8,0:0:0:0:
204,276,96661,1,8,0:0:0:0:
131,351,96817,6,0,P|48:348|20:271,1,176.332368023275,6|8,0:0|0:0,0:0:0:0:
215,140,97411,2,0,B|251:137|276:161|276:161|335:156|341:90,1,174,2|8,1:2|0:0,0:0:0:0:
440,332,97987,6,0,B|398:350|352:326|365:304|320:283|278:302,1,174,2|8,1:2|0:0,0:0:0:0:
53,171,98564,2,0,B|95:189|140:165|127:143|173:122|215:141,1,174,2|8,1:2|0:0,0:0:0:0:
475,117,99141,6,0,B|491:62|447:27|447:27|414:48|376:33,1,176.352474689942,2|8,1:2|0:0,0:0:0:0:
422,185,99728,1,2,1:2:0:0:
399,339,100016,1,8,0:0:0:0:
261,263,100305,6,0,P|243:225|203:230,1,87,2|0,1:2|0:0,0:0:0:0:
131,293,100593,1,8,0:0:0:0:
131,293,100738,1,8,0:0:0:0:
44,253,100882,2,0,P|30:212|34:169,1,89.3122640116375,0|8,0:0|0:0,0:0:0:0:
78,93,101167,1,8,3:0:0:0:
230,48,101468,6,0,P|266:45|301:53,1,72.5,6|0,0:0|0:0,0:0:0:0:
359,125,101745,1,8,0:0:0:0:
359,125,101889,1,8,0:0:0:0:
440,154,102045,2,0,P|405:204|391:302,1,145,2|8,1:2|0:0,0:0:0:0:
221,330,102621,6,0,B|156:347|156:347|115:333|104:292,1,145,2|8,1:2|0:0,0:0:0:0:
50,128,103198,2,0,B|23:165|45:207|45:207|72:187|103:190,1,145,2|8,0:0|0:2,0:0:0:0:
284,138,103775,6,0,P|296:104|301:68,1,72.5,6|0,0:0|0:0,0:0:0:0:
226,35,104053,1,8,0:0:0:0:
226,35,104194,1,8,0:0:0:0:
203,119,104338,2,0,P|215:187|277:220,1,146.02544,2|8,1:2|0:0,0:0:0:0:
434,295,104904,5,2,0:0:0:0:
362,342,105048,1,2,0:0:0:0:
362,342,105192,2,0,P|329:336|275:337,1,72.5,10|2,0:0|0:0,0:0:0:0:
204,353,105480,2,0,P|170:348|163:314,1,72.5,2|2,1:2|0:0,0:0:0:0:
148,233,105769,1,8,0:0:0:0:
148,233,105913,1,8,0:0:0:0:
234,156,106064,6,0,B|276:89|213:40|213:40|188:73,1,175.176234689942,6|8,0:0|0:0,0:0:0:0:
290,335,106649,2,0,B|332:353|378:329|365:307|410:286|452:305,1,174,2|8,1:2|0:0,0:0:0:0:
436,103,107226,6,0,P|366:134|350:60,1,174,2|8,1:2|0:0,0:0:0:0:
135,209,107803,2,0,P|118:134|49:166,1,174,2|8,1:2|0:0,0:0:0:0:
215,292,108380,6,0,B|232:343|287:354|287:354|356:329,2,174,2|8|2,1:2|0:0|1:2,0:0:0:0:
298,99,109245,1,8,0:0:0:0:
449,184,109548,6,0,P|461:217|469:253,1,72.5,2|0,1:2|0:0,0:0:0:0:
445,339,109821,1,8,0:0:0:0:
445,339,109965,1,8,0:0:0:0:
356,329,110109,2,0,P|338:300|307:311,1,72.5,8|8,3:0|0:0,0:0:0:0:
233,356,110397,1,8,3:0:0:0:
227,181,110686,6,0,P|227:140|234:101,1,72.5,4|0,0:0|0:0,0:0:0:0:
310,68,110974,1,8,0:0:0:0:
310,68,111119,1,8,0:0:0:0:
231,29,111263,2,0,B|202:27|180:45|180:45|89:36,1,145.96512,0|8,1:0|0:0,0:0:0:0:
24,198,111853,6,0,B|67:155|126:183|126:183|121:216,1,145,2|8,1:2|0:0,0:0:0:0:
236,347,112430,2,0,B|166:350|101:299,1,145,2|8,0:0|1:2,0:0:0:0:
265,239,113007,6,0,B|300:238|325:266|325:266|361:259|395:235,1,146.5834,6|8,0:0|0:0,0:0:0:0:
471,274,113428,1,8,0:0:0:0:
471,273,113572,2,0,P|473:202|420:157,1,145,2|8,1:2|0:0,0:0:0:0:
297,55,114141,6,0,P|261:64|225:63,1,72.5,0|0,1:0|0:0,0:0:0:0:
150,30,114429,1,8,0:0:0:0:
150,30,114573,2,0,P|149:100|202:146,1,145,8|0,0:0|0:0,0:0:0:0:
287,169,115003,1,8,0:0:0:0:
218,328,115291,6,0,B|171:291|105:306|105:306|94:329,1,145,2|8,1:2|0:0,0:0:0:0:
16,173,115872,2,0,P|46:111|115:109,1,146.105866666667,2|8,1:2|0:0,0:0:0:0:
263,128,116432,5,2,1:2:0:0:
263,128,116576,2,0,P|295:121|293:88,1,72.5,2|8,1:2|0:0,0:0:0:0:
348,20,116868,2,0,P|427:36|488:66,1,145,0|0,1:0|0:0,0:0:0:0:
498,149,117290,1,8,0:0:0:0:
400,293,117595,6,0,B|364:308|325:289|336:270|299:253|264:269,1,145,2|8,1:2|0:0,0:0:0:0:
203,330,118011,2,0,P|170:340|150:313,1,72.5,0|0,1:0|0:0,0:0:0:0:
70,292,118308,1,8,0:0:0:0:
70,292,118462,2,0,P|50:264|69:236,1,72.5,8|0,3:0|0:0,0:0:0:0:
117,162,118750,5,6,3:2:0:0:
253,54,119038,1,0,1:0:0:0:
253,54,119183,1,8,0:0:0:0:
318,112,119324,2,0,P|348:93|383:97,1,72.5,8|8,0:0|0:0,0:0:0:0:
469,127,119612,1,2,0:0:0:0:
469,127,119756,1,2,0:0:0:0:
481,212,119900,6,0,P|473:229|473:247,2,36.25,6|0|0,1:2|1:0|1:0,0:0:0:0:
395,268,120189,1,10,1:3:0:0:
395,268,120261,1,0,1:0:0:0:
395,268,120348,1,0,1:0:0:0:
355,344,120494,6,0,P|325:323|290:315,1,74.49056,10|0,1:3|1:0,0:0:0:0:
209,330,120784,2,0,P|183:327|169:281,1,74.9216611111111,8|0,1:3|1:0,0:0:0:0:
156,209,121088,5,10,1:3:0:0:
156,209,121160,1,0,1:0:0:0:
156,209,121235,1,0,1:0:0:0:
222,159,121383,2,0,B|256:146|256:146|291:158,1,74.3297066666667,10|0,1:3|1:0,0:0:0:0:
352,105,121684,6,0,P|364:94|390:82,2,36.25,10|0|0,1:3|0:0|1:2,0:2:0:0:
308,38,121965,1,10,1:3:0:0:
300,38,122037,1,0,1:0:0:0:
292,39,122109,1,2,1:2:0:0:
284,39,122181,1,0,1:0:0:0:
277,41,122262,6,0,P|180:47|114:82,1,145,4|8,1:2|0:0,0:0:0:0:
58,36,122694,2,0,P|62:106|118:150,1,145,2|0,1:2|0:0,0:0:0:0:
194,128,123114,1,10,0:2:0:0:
335,184,123402,6,0,B|391:162|453:188|453:188|442:214,1,145,2|8,1:2|0:0,0:0:0:0:
487,285,123835,2,0,P|446:342|376:350,1,145,2|0,1:2|0:0,0:0:0:0:
292,327,124257,1,10,0:0:0:0:
129,314,124559,6,0,B|93:338|93:338|61:320|45:282|57:251,1,147.191626666667,6|8,0:0|0:0,0:0:0:0:
97,174,124973,2,0,B|123:183|135:205|135:205|227:184,1,145,2|0,1:2|0:0,0:0:0:0:
267,106,125405,1,10,0:0:0:0:
429,167,125694,6,0,P|442:207|430:313,1,145,2|8,1:2|0:0,0:0:0:0:
353,345,126126,2,0,P|323:286|263:313,1,145,2|0,1:2|0:0,0:0:0:0:
188,357,126559,1,10,0:0:0:0:
21,304,126848,6,0,B|42:247|109:210|109:210|109:196,1,146.53816,2|8,1:2|0:0,0:0:0:0:
37,146,127271,2,0,P|22:112|14:77,1,72.5,0|0,1:0|0:0,0:0:0:0:
83,23,127553,1,8,0:0:0:0:
83,23,127697,1,2,1:2:0:0:
252,64,127992,5,10,0:0:0:0:
423,39,128280,1,0,1:0:0:0:
423,39,128424,1,8,0:0:0:0:
486,98,128568,2,0,P|484:134|488:170,1,72.5,8|8,0:0|3:0,0:0:0:0:
441,243,128869,1,2,0:0:0:0:
343,340,129145,5,6,1:2:0:0:
343,340,129212,1,0,1:0:0:0:
343,340,129284,1,0,1:0:0:0:
275,277,129418,2,0,P|278:259|288:244,2,36.25,10|0|0,1:3|1:0|1:0,0:0:0:0:
201,319,129716,6,0,P|180:289|151:268,1,72.5,10|0,1:3|1:0,0:0:0:0:
71,253,130011,2,0,P|41:235|44:200,1,72.5,10|0,1:3|1:0,0:0:0:0:
119,152,130299,5,10,1:3:0:0:
119,152,130371,1,0,1:0:0:0:
119,152,130443,1,0,1:0:0:0:
195,172,130594,2,0,B|226:153|226:153|263:158,1,72.5,10|0,1:3|1:0,0:0:0:0:
299,82,130882,6,0,P|309:67|323:55,2,36.25,10|0|0,1:3|0:0|1:0,0:0:0:0:
217,70,131182,1,2,1:2:0:0:
209,70,131254,1,0,1:0:0:0:
201,71,131326,1,2,1:2:0:0:
193,71,131398,1,0,1:0:0:0:
186,73,131470,6,0,P|152:59|116:53,1,72.5,2|0,1:2|0:0,0:0:0:0:
40,22,131758,1,8,0:0:0:0:
40,22,131903,1,0,1:0:0:0:
27,108,132039,2,0,P|20:142|48:165,1,72.5,0|0,1:0|0:0,0:0:0:0:
128,193,132327,2,0,P|146:223|146:259,1,72.5,10|0,1:2|0:0,0:0:0:0:
183,338,132615,6,0,B|210:331|226:303|226:303|270:293|311:311,1,145.507693333333,2|8,1:2|0:0,0:0:0:0:
401,303,133045,1,8,0:0:0:0:
401,303,133189,2,0,P|385:273|401:242,1,72.5,0|0,1:0|0:0,0:0:0:0:
483,214,133489,1,10,1:2:0:0:
445,43,133781,6,0,P|397:95|327:94,1,145,6|8,0:0|0:0,0:0:0:0:
263,43,134213,1,0,1:0:0:0:
263,43,134357,2,0,P|222:46|183:73,1,72.5
197,148,134633,1,10,0:0:0:0:
209,321,134921,6,0,P|149:345|137:283,1,145,2|8,1:2|0:0,0:0:0:0:
56,252,135354,1,0,1:0:0:0:
56,252,135498,2,0,B|30:294|44:345|44:345|28:319|2:311,1,145,0|10,0:0|0:0,0:0:0:0:
7,139,136075,6,0,P|78:131|135:88,1,145,2|8,1:2|0:0,0:0:0:0:
91,12,136501,1,0,1:0:0:0:
181,22,136645,1,0,0:0:0:0:
181,22,136778,2,0,P|207:46|217:80,1,72.5,8|2,0:0|1:2,0:0:0:0:
143,285,137210,6,0,P|178:290|212:277,1,72.5,10|0,0:0|1:0,0:0:0:0:
283,237,137504,1,0,1:0:0:0:
292,322,137655,1,8,0:0:0:0:
292,322,137799,2,0,P|291:355|324:357,1,72.5,8|8,0:0|0:0,0:0:0:0:
403,337,138087,1,2,1:2:0:0:
468,171,138365,6,0,B|492:101|492:101|448:39,1,132.916666666667,6|8,0:0|0:0,0:0:0:0:
365,24,138762,6,0,P|299:54|228:49,1,146.23656,6|10,0:0|0:0,0:0:0:0:
172,117,139260,6,0,P|161:149|190:167,1,73.0076933333333
275,186,139533,5,6,0:0:0:0:
13,360,140120,1,2,1:2:0:0:
146,38,140696,1,4,0:0:0:0:
145,38,149921,6,0,P|227:23|309:62,1,174,4|0,0:0|0:0,0:0:0:0:
435,129,151074,2,0,B|409:142|379:133|379:133|373:173|339:203|295:197,1,174.600184,2|0,0:0|0:0,0:0:0:0:
165,137,152201,6,0,P|143:118|116:125,1,58
37,238,152767,2,0,P|27:264|21:298,2,58
29,142,153632,1,0,0:0:0:0:
93,67,153920,2,0,P|118:81|146:85,1,58,0|4,0:0|0:0,0:0:0:0:
291,49,154514,6,0,P|339:39|372:73,1,86.9999999999998,0|2,0:0|0:0,0:0:0:0:
466,130,155090,2,0,P|452:177|403:188,1,86.7235333333331,0|2,0:0|0:0,0:0:0:0:
329,271,155653,2,0,P|276:252|230:252,1,86.9999999999998,0|2,0:0|0:0,0:0:0:0:
130,291,156229,2,0,P|121:312|88:323,1,43.4999999999999
22,310,156518,1,2,0:0:0:0:
22,310,156662,1,0,0:0:0:0:
49,233,156813,6,0,P|37:176|45:119,1,116,6|8,0:0|0:0,0:0:0:0:
186,38,157389,2,0,P|219:76|281:72,1,117.950346666666,0|8,0:0|0:0,0:0:0:0:
446,167,157981,2,0,P|388:166|338:193,1,116.824373333333,2|8,0:0|0:0,0:0:0:0:
203,284,158555,2,0,B|193:316|216:336|216:336|246:331|255:297,1,116,0|10,0:0|0:0,0:0:0:0:
155,169,159142,6,0,B|104:165|68:188|68:188|52:168,1,115.617973333333,4|8,0:0|0:0,0:0:0:0:
171,57,159713,2,0,B|201:58|223:76|223:76|282:69,1,116.824373333333,0|8,0:0|0:0,0:0:0:0:
442,42,160287,2,0,P|456:66|456:95,1,58,0|0,1:0|0:0,0:0:0:0:
405,159,160575,1,8,0:0:0:0:
440,317,160864,2,0,P|389:289|332:284,1,115.617973333333,0|8,0:0|0:0,0:0:0:0:
141,304,161435,6,0,P|195:291|214:239,1,120.845706666667,0|8,0:0|0:0,0:0:0:0:
93,130,162019,2,0,B|68:123|43:131|43:131|8:109|9:77,1,116,0|8,0:0|0:0,0:0:0:0:
166,36,162596,2,0,P|215:65|258:104,1,116,0|8,1:0|0:0,0:0:0:0:
374,218,163173,2,0,P|386:242|413:240,1,58,2|0,0:0|0:0,0:0:0:0:
473,185,163461,1,10,0:0:0:0:
311,166,163750,6,0,B|261:200|209:198|209:198|203:202,2,116,2|8|0,0:0|0:2|0:0,0:0:0:0:
428,53,164620,1,8,0:2:0:0:
473,185,164908,2,0,P|485:238|439:215,1,121.318213333333,2|8,1:2|0:0,0:0:0:0:
324,340,165476,2,0,P|270:319|212:318,1,118.432906666667,0|8,0:0|0:0,0:0:0:0:
53,351,166060,6,0,P|12:318|55:269,1,116.42224,2|8,1:2|0:0,0:0:0:0:
185,200,166633,2,0,P|131:179|89:139,1,116,2|8,1:2|0:0,0:0:0:0:
249,105,167210,2,0,B|297:79|348:90|348:90|349:121,1,116,2|8,1:2|0:0,0:0:0:0:
455,225,167787,2,0,P|448:253|445:282,1,58
489,351,168070,1,8,0:0:0:0:
326,352,168358,6,0,P|272:330|215:320,1,116,2|8,0:2|0:0,1:0:0:0:
61,267,168935,2,0,P|112:257|103:206,1,114.813706666667,0|8,0:0|0:0,0:0:0:0:
121,44,169504,2,0,B|112:64|86:81|86:81|22:71,2,116,2|8|0,0:0|0:0|0:0,1:0:0:0:
281,67,170369,1,10,0:0:0:0:
443,52,170663,6,0,P|429:102|431:177,1,115.617973333333,0|8,1:0|0:0,0:0:0:0:
402,319,171234,2,0,P|347:298|290:292,1,116,0|10,0:0|0:0,0:0:0:0:
226,341,171667,1,0,0:0:0:0:
226,341,171811,6,0,P|209:286|234:235,1,113.929013333333,0|8,1:0|0:0,0:0:0:0:
320,97,172382,2,0,P|370:99|363:48,1,118.4882,0|2,1:0|3:2,0:0:0:0:
201,50,172953,5,0,0:0:0:0:
41,85,173233,2,0,P|37:99|41:112,1,29,8|0,0:0|0:0,0:0:0:0:
163,123,173521,5,0,0:0:0:0:
113,279,173809,2,0,P|123:289|136:292,1,29,8|0,0:0|0:0,0:0:0:0:
221,181,174098,5,0,0:0:0:0:
331,302,174386,2,0,P|345:298|354:288,1,29,8|0,0:0|0:0,0:0:0:0:
300,159,174675,5,0,0:0:0:0:
459,124,174975,2,0,P|463:110|459:97,1,29,8|0,0:0|0:0,0:0:0:0:
318,57,175263,6,0,P|286:72|250:79,2,72.5,8|0|2,0:0|0:0|1:2,0:0:0:0:
354,224,175840,2,0,P|332:197|298:204,1,72.5,2|0,1:2|0:0,0:0:0:0:
241,271,176128,1,2,1:2:0:0:
241,271,176273,1,0,0:0:0:0:
174,326,176425,6,0,P|138:317|102:319,2,72.5,8|0|2,0:0|0:0|1:2,0:0:0:0:
60,193,177001,2,0,P|27:179|22:145,1,72.5,2|0,1:2|0:0,0:0:0:0:
57,68,177290,1,2,1:2:0:0:
57,68,177434,1,0,0:0:0:0:
169,58,177588,6,0,P|150:88|147:124,1,72.5,10|0,0:0|0:0,0:0:0:0:
217,184,177884,1,10,0:0:0:0:
217,184,178024,1,0,0:0:0:0:
316,229,178161,6,0,P|333:205|383:212,1,74.8826077777778,10|8,0:0|0:0,0:0:0:0:
449,246,178465,1,10,0:0:0:0:
449,246,178609,1,8,0:0:0:0:
477,337,178753,5,0,1:0:0:0:
477,337,178825,1,0,1:0:0:0:
477,337,178919,1,0,1:0:0:0:
392,355,179068,2,0,P|350:347|315:346,1,75.57632,10|10,1:2|0:0,0:0:0:0:
233,356,179353,5,10,1:2:0:0:
149,332,179497,1,10,0:0:0:0:
127,247,179641,1,10,1:2:0:0:
189,185,179797,1,10,0:0:0:0:
273,207,179923,6,0,B|362:206|400:149|400:149|370:119,1,173.255135,14|8,1:2|0:0,0:0:0:0:
209,107,180500,2,0,P|133:97|155:24,1,174.63336,2|8,1:2|0:0,0:0:0:0:
21,183,181070,6,0,P|42:220|49:268,1,87,2|0,1:2|0:0,0:0:0:0:
9,341,181355,1,8,0:0:0:0:
217,305,181643,2,0,P|249:336|297:320,1,87,2|0,1:2|0:0,0:0:0:0:
358,278,181931,1,8,0:0:0:0:
339,71,182220,6,0,B|366:17|432:32|432:32|454:55|488:54,1,175.487893333333,2|8,1:2|0:0,0:0:0:0:
277,135,182803,1,2,1:2:0:0:
358,278,183091,1,8,0:0:0:0:
163,351,183380,6,0,P|125:328|83:320,1,87,2|0,1:2|0:0,0:0:0:0:
36,253,183660,1,8,0:0:0:0:
36,253,183804,1,8,0:0:0:0:
58,169,183948,2,0,P|83:137|122:150,1,87,0|8,1:0|0:0,0:0:0:0:
194,198,184236,1,8,3:0:0:0:
301,334,184525,6,0,P|338:313|376:313,1,72.5,6|0,1:2|0:0,0:0:0:0:
456,298,184803,1,8,0:0:0:0:
456,298,184959,1,8,0:0:0:0:
421,218,185103,2,0,P|342:212|344:143,1,147.98584,2|8,1:2|0:0,0:0:0:0:
192,60,185668,6,0,B|133:48|76:75|76:75|52:64,1,151.549746666667,8|8,3:0|0:0,0:0:0:0:
126,219,186254,2,0,B|159:202|196:224|187:241|220:263|259:249,1,145,2|8,1:2|1:2,0:0:0:0:
433,243,186838,6,0,B|453:218|453:218|497:269|462:320,1,146.020413333334,4|8,0:0|0:0,0:0:0:0:
389,366,187264,1,8,0:0:0:0:
389,366,187408,2,0,P|320:343|238:339,1,145,2|8,0:0|0:0,0:0:0:0:
196,171,187985,6,0,P|274:160|265:97,1,145,2|8,1:2|0:0,0:0:0:0:
108,158,188562,2,0,P|64:232|52:305,1,145,2|8,1:2|0:0,0:0:0:0:
120,345,188995,1,8,0:0:0:0:
120,345,189149,6,0,B|179:380|237:347|237:347|226:321|230:297,1,178.202583333333,6|8,0:0|0:0,0:0:0:0:
253,124,189737,2,0,P|339:123|416:85,1,174,2|8,1:2|0:0,0:0:0:0:
386,257,190314,6,0,P|443:249|476:349,1,176.463066666667,2|8,1:2|0:0,0:0:0:0:
301,225,190882,1,2,1:2:0:0:
160,313,191170,1,8,0:0:0:0:
51,190,191449,6,0,P|135:174|188:107,1,174,2|8,1:2|0:0,0:0:0:0:
387,45,192025,2,0,P|393:112|422:219,1,174,2|8,1:2|0:0,0:0:0:0:
303,344,192602,6,0,P|261:330|218:326,1,87,2|0,1:2|0:0,0:0:0:0:
140,360,192891,1,8,0:0:0:0:
140,360,193045,1,8,0:0:0:0:
73,304,193189,2,0,P|34:291|39:251,1,87,0|8,1:0|0:0,0:0:0:0:
80,175,193477,1,8,3:0:0:0:
145,52,193766,6,0,B|176:35|176:35|211:43,1,72.5,6|0,0:0|0:0,0:0:0:0:
244,120,194041,1,8,0:0:0:0:
244,120,194185,1,8,0:0:0:0:
320,140,194329,2,0,P|353:135|402:126,1,72.5,2|0,1:2|0:0,0:0:0:0:
427,57,194624,1,8,0:0:0:0:
496,205,194912,6,0,P|490:274|427:304,1,145,2|8,0:0|0:0,0:0:0:0:
277,376,195494,2,0,P|201:350|120:338,1,145,2|8,1:2|0:0,0:0:0:0:
163,168,196070,6,0,B|175:208|146:234|146:234|108:227|96:184,1,145,6|8,0:0|0:0,1:0:0:0:
18,164,196503,1,8,0:0:0:0:
18,164,196647,2,0,B|35:116|89:103|89:103|59:104|39:86,1,146.015386666667,2|8,0:2|0:2,0:0:0:0:
213,45,197219,5,0,1:0:0:0:
289,87,197363,2,0,P|306:81|324:79,2,36.25,8|8|8,0:0|0:0|0:0,0:0:0:0:
242,160,197652,1,8,0:0:0:0:
281,237,197793,1,8,0:0:0:0:
281,237,197937,1,8,0:0:0:0:
367,241,198088,1,8,0:0:0:0:
367,241,198232,1,8,0:0:0:0:
431,319,198376,6,0,P|327:331|261:358,1,174,6|8,0:0|0:0,0:0:0:0:
135,237,198952,2,0,P|199:218|154:151,1,180.072213333333,2|8,1:2|0:0,0:0:0:0:
21,37,199519,6,0,P|55:48|109:52,1,87,2|0,1:2|0:0,0:0:0:0:
185,17,199807,1,8,0:0:0:0:
335,105,200096,2,0,P|298:104|291:147,1,87,2|0,1:2|0:0,0:0:0:0:
370,180,200384,1,10,0:0:0:0:
422,346,200673,6,0,P|462:330|505:326,2,87,2|0|8,1:2|1:0|0:0,0:0:0:0:
340,315,201105,1,0,0:0:0:0:
255,295,201249,2,0,P|255:254|215:247,1,87,0|0,1:0|1:0,0:0:0:0:
171,320,201547,1,8,0:0:0:0:
171,320,201691,1,0,0:0:0:0:
93,279,201835,6,0,P|118:210|117:105,1,174,2|8,1:2|1:2,0:0:0:0:
72,42,202268,1,0,1:0:0:0:
72,42,202432,2,0,P|105:29|163:40,1,88.8950533333333,10|8,1:2|1:2,0:0:0:0:
204,107,202705,1,2,1:2:0:0:
367,168,203005,6,0,B|380:183|380:183|438:170|500:204,1,143.53724,4|8,1:2|0:0,0:0:0:0:
495,294,203433,1,10,0:0:0:0:
495,294,203577,2,0,P|469:319|456:352,1,72.5,0|0,1:0|0:0,0:0:0:0:
369,357,203865,1,8,0:0:0:0:
204,300,204161,6,0,P|199:227|188:156,1,145,8|8,3:0|1:2,0:0:0:0:
40,64,204737,2,0,B|67:101|120:100|120:100|137:78|165:73,1,145,0|8,1:0|2:0,0:0:0:0:
336,46,205314,6,0,P|356:73|387:60,1,72.5,6|0,1:2|0:0,0:0:0:0:
472,79,205588,1,8,0:0:0:0:
420,149,205732,1,8,0:0:0:0:
420,149,205876,2,0,P|409:183|406:303,1,146.99056,2|8,1:2|0:0,0:0:0:0:
241,355,206459,5,0,1:0:0:0:
165,313,206603,2,0,P|148:319|130:321,2,36.25,2|0|10,1:2|1:0|1:2,0:0:0:0:
212,240,206881,1,10,1:2:0:0:
169,159,207035,1,10,1:2:0:0:
173,163,207188,1,10,1:2:0:0:
87,159,207339,1,10,1:2:0:0:
87,159,207475,1,10,1:2:0:0:
30,68,207628,6,0,B|57:73|57:73|120:44|200:56,1,173.416906666667,4|8,0:0|0:0,0:0:0:0:
291,49,208054,1,0,1:0:0:0:
291,49,208198,2,0,P|325:116|382:66,1,174,0|8,1:0|0:0,0:0:0:0:
482,209,208775,6,0,P|477:252|465:294,1,87,2|0,2:0|0:0,0:0:0:0:
385,326,209063,1,8,0:0:0:0:
385,326,209208,1,0,0:0:0:0:
307,284,209349,2,0,P|271:264|246:295,1,87,0|0,1:0|1:0,0:0:0:0:
181,353,209637,1,8,0:0:0:0:
28,267,209925,6,0,P|42:223|46:178,1,87,2|0,2:0|0:0,0:0:0:0:
19,105,210206,1,8,0:0:0:0:
19,105,210350,1,0,0:0:0:0:
29,18,210486,2,0,B|69:22|88:53|88:53|190:47,1,174,2|8,1:2|0:0,0:0:0:0:
388,40,211062,6,0,P|396:82|397:125,1,87,2|0,1:2|0:0,0:0:0:0:
320,139,211348,1,8,0:0:0:0:
341,219,211492,1,0,0:0:0:0:
341,219,211643,2,0,P|332:257|292:254,1,87,8|8,0:0|0:0,0:0:0:0:
221,290,211916,2,0,P|224:311|229:332,1,43.5,2|0,3:0|0:0,0:0:0:0:
401,352,212225,5,10,0:0:0:0:
371,351,215686,6,0,B|387:336|387:336|432:338|478:314,1,116,4|10,0:0|0:0,0:0:0:0:
456,177,216263,2,0,P|471:152|494:136,2,58,0|0|8,0:0|0:0|0:0,0:0:0:0:
334,244,216840,6,0,B|304:252|304:252|280:239,1,58,2|0,1:2|0:0,0:0:0:0:
231,174,217128,1,8,0:0:0:0:
149,33,217412,2,0,P|120:34|91:37,1,58
28,88,217700,1,8,0:0:0:0:
28,88,217844,1,0,0:0:0:0:
47,167,217975,2,0,P|47:194|24:210,2,58,0|0|8,0:0|0:0|0:0,0:0:0:0:
194,100,218551,6,0,P|221:91|250:92,1,58
305,152,218840,1,8,0:0:0:0:
305,152,218984,1,0,0:0:0:0:
383,131,219128,2,0,B|401:111|401:111|403:80,2,58,0|0|8,0:0|0:0|0:0,0:0:0:0:
302,272,219705,2,0,P|273:273|245:281,1,58
196,347,219994,1,8,0:0:0:0:
57,262,220282,6,0,B|20:215|20:215|57:172,1,116,0|8,0:0|0:0,0:0:0:0:
216,134,220859,2,0,P|219:105|217:76,1,58
160,23,221148,1,8,0:0:0:0:
152,181,221436,6,0,P|198:212|256:200,1,116,0|8,0:0|0:0,0:0:0:0:
341,63,222013,2,0,B|371:40|409:59|409:59|417:80|435:92,1,116,0|8,0:0|0:0,0:0:0:0:
470,251,222590,6,0,P|441:248|413:256,1,58
369,324,222878,1,8,0:0:0:0:
211,346,223167,2,0,B|181:350|181:350|157:337,1,58
127,259,223467,1,8,0:0:0:0:
229,118,223755,6,0,P|252:101|281:98,2,58,0|0|8,0:0|0:0|0:0,0:0:0:0:
149,152,224188,1,0,0:0:0:0:
149,152,224324,2,0,P|140:124|146:96,2,58,0|0|8,0:0|0:0|0:0,0:0:0:0:
245,283,224900,6,0,P|301:270|359:273,1,116,0|8,1:0|0:0,0:0:0:0:
414,339,225332,1,0,0:0:0:0:
414,339,225476,2,0,P|443:291|434:232,1,116,0|8,1:2|0:0,0:0:0:0:
316,123,226053,6,0,B|367:140|396:96|396:96|384:76,1,116,0|8,0:0|0:0,0:0:0:0:
227,31,226630,2,0,P|173:52|115:56,1,116,0|8,0:0|0:0,0:0:0:0:
31,195,227207,6,0,B|24:227|24:227|34:249,1,58
106,288,227488,1,8,0:0:0:0:
261,332,227768,2,0,P|288:324|317:325,2,58,0|0|8,0:0|0:0|0:0,0:0:0:0:
236,171,228344,6,0,P|243:143|264:123,2,58,0|0|8,0:0|0:0|0:0,0:0:0:0:
391,218,228938,2,0,P|415:233|443:234,2,58,0|0|8,0:0|0:0|0:0,0:0:0:0:
360,58,229503,6,0,B|330:69|330:69|305:59,1,58,2|0,3:0|0:0,0:0:0:0:
231,27,229791,1,8,0:0:0:0:
106,131,230079,2,0,P|116:158|138:175,1,58
220,184,230368,1,10,0:0:0:0:
220,184,230512,6,0,P|175:254|93:245,1,174,0|8,0:0|0:0,0:0:0:0:
36,187,231089,1,0,1:0:0:0:
29,358,231378,2,0,P|52:342|79:338,1,58.48256,0|8,0:0|0:0,0:0:0:0:
168,341,231675,1,0,0:0:0:0:
168,341,231819,6,0,P|191:357|219:361,1,58,0|0,1:0|0:0,0:0:0:0:
286,306,232124,2,0,P|279:278|286:250,1,58.4423466666667,10|0,0:0|0:0,0:0:0:0:
358,217,232406,1,0,0:0:0:0:
358,217,232550,1,0,0:0:0:0:
419,166,232694,1,10,0:0:0:0:
419,166,232838,1,0,0:0:0:0:
388,89,232983,6,0,B|376:58|336:51|336:51|292:70,1,116,2|8,1:2|0:0,0:0:0:0:
212,29,233415,1,0,0:0:0:0:
212,29,233559,2,0,P|201:84|231:136,1,116,0|10,0:0|0:0,0:0:0:0:
348,251,234136,6,0,P|319:247|293:258,1,58
240,321,234425,2,0,P|211:314|182:313,1,58,10|0,0:0|0:0,0:0:0:0:
116,357,234713,1,2,0:0:0:0:
116,357,234858,1,0,0:0:0:0:
63,295,235002,2,8,B|53:268|53:268|61:240,1,58,10|0,0:0|0:0,0:0:0:0:
69,130,235290,6,0,B|42:147|13:141,1,58,2|0,1:2|0:0,0:0:0:0:
26,61,235564,1,10,0:0:0:0:
110,57,235708,1,0,0:0:0:0:
110,57,235852,2,0,P|139:62|161:79,1,58
220,141,236140,2,0,P|234:115|257:100,1,58,10|0,0:0|0:0,0:0:0:0:
318,45,236419,6,0,P|340:87|301:165,1,116,8|2,0:0|0:0,0:0:0:0:
214,271,236995,5,2,0:0:0:0:
214,271,237068,1,2,0:0:0:0:
214,271,237140,1,2,0:0:0:0:
271,327,237284,2,0,P|298:319|327:317,1,58,2|0,0:0|0:0,0:0:0:0:
483,364,237597,6,0,B|474:337|474:337|477:308,1,57.7124703703703,2|2,0:0|0:0,0:0:0:0:
494,234,237896,1,2,0:0:0:0:
494,234,238027,1,2,0:0:0:0:
435,174,238191,2,0,B|421:186|421:186|369:183|330:216,1,116,2|2,0:0|0:0,0:0:0:0:
212,66,238784,5,6,0:0:0:0:
