osu file format v14

[General]
AudioFilename: audio.mp3
AudioLeadIn: 0
PreviewTime: 301522
Countdown: 1
SampleSet: Normal
StackLeniency: 0.4
Mode: 0
LetterboxInBreaks: 0
WidescreenStoryboard: 0

[Editor]
Bookmarks: 14933,78933,94933,127660,134933,168266,174933,209218,217010,249205,256522,286522,301522,365272,369272,406962,412179
DistanceSpacing: 1.3
BeatDivisor: 4
GridSize: 32
TimelineZoom: 1.7

[Metadata]
Title:Saigo no Uta
TitleUnicode:最後の歌
Artist:MONACA
ArtistUnicode:MONACA
Creator:110
Version:110
Source:DRAG-ON DRAGOON
Tags:
BeatmapID:1164052
BeatmapSetID:549722

[Difficulty]
HPDrainRate:6
CircleSize:4.2
OverallDifficulty:8
ApproachRate:9
SliderMultiplier:2.2
SliderTickRate:1

[Events]
//Background and Video events
0,0,"2.jpg",0,0
//Break Periods
2,758,2208
2,79133,92933
2,127860,133114
2,168466,173266
2,209418,215452
2,249405,255922
//Storyboard Layer 0 (Background)
//Storyboard Layer 1 (Fail)
//Storyboard Layer 2 (Pass)
//Storyboard Layer 3 (Foreground)
//Storyboard Sound Samples

[TimingPoints]
-1067,500,4,1,0,30,1,0
558,-200,4,1,0,30,0,0
11683,-133.333333333333,4,1,0,30,0,0
14933,-100,4,1,0,30,0,0
94933,454.545454545455,4,1,0,30,1,0
94933,-133.333333333333,4,1,0,30,0,0
98569,-100,4,1,0,30,0,0
111296,-66.6666666666667,4,1,0,30,0,0
114933,-100,4,1,0,30,0,0
125842,-66.6666666666667,4,1,0,30,0,0
134933,416.666666666667,4,1,0,30,1,0
151599,-83.3333333333333,4,1,0,30,0,0
174933,389.61038961039,4,1,0,30,1,0
196751,-83.3333333333333,4,1,0,30,0,0
217010,365.853658536585,4,1,0,30,1,0
222131,-66.6666666666667,4,1,0,30,0,0
222497,-100,4,1,0,30,0,0
225058,-66.6666666666667,4,1,0,30,0,0
225424,-100,4,1,0,30,0,0
227985,-66.6666666666667,4,1,0,30,0,0
228351,-100,4,1,0,30,0,0
230912,-66.6666666666667,4,1,0,30,0,0
231278,-100,4,1,0,30,0,0
233839,-66.6666666666667,4,1,0,30,0,0
234205,-100,4,1,0,30,0,0
236766,-66.6666666666667,4,1,0,30,0,0
237131,-100,4,1,0,30,0,0
239692,-66.6666666666667,4,1,0,30,0,0
240058,-100,4,1,0,30,0,0
242619,-66.6666666666667,4,1,0,30,0,0
242985,-100,4,1,0,30,0,0
245546,-66.6666666666667,4,1,0,30,0,0
245912,-100,4,1,0,30,0,0
256522,340.909090909091,4,1,0,30,1,0
256522,-133.333333333333,4,1,0,30,0,0
259249,-100,4,1,0,30,0,0
286522,-200,4,1,0,30,0,0
301522,468.75,4,1,0,30,1,1
318397,-83.3333333333333,4,1,0,30,0,1
320272,-100,4,1,0,30,0,1
333865,-83.3333333333333,4,1,0,30,0,1
335272,-100,4,1,0,30,0,1
348865,-83.3333333333333,4,1,0,30,0,1
350272,-100,4,1,0,30,0,1
356834,-83.3333333333333,4,1,0,30,0,1
357772,-100,4,1,0,30,0,1
360584,-83.3333333333333,4,1,0,30,0,1
363397,-71.4285714285714,4,1,0,30,0,1
365272,500,4,1,0,30,1,0
369272,550.45871559633,4,1,0,30,1,0
373675,588.235294117647,4,1,0,20,1,0
378380,638.297872340426,4,1,0,20,1,0
383486,697.674418604651,4,1,0,20,1,0
389067,769.230769230769,4,1,0,15,1,0
395220,857.142857142857,4,1,0,15,1,0
398648,967.741935483871,4,1,0,10,1,0
400583,-333.333333333333,4,1,0,10,0,0
402518,1111.11111111111,4,1,0,5,1,0
406962,1304.34782608696,4,1,0,5,1,0

[HitObjects]
132,110,558,5,0,0:0:0:0:
175,249,2808,5,0,0:0:0:0:
175,249,2933,1,0,0:0:0:0:
286,267,3683,1,0,0:0:0:0:
377,226,4183,2,0,L|486:220,1,110
290,162,4933,5,0,0:0:0:0:
386,308,5558,1,0,0:0:0:0:
395,332,5683,1,0,0:0:0:0:
404,357,5933,6,0,L|286:351,1,110
294,352,6933,6,0,L|296:321,1,27.5
214,362,7183,2,0,L|212:329,1,27.5
136,376,7433,1,0,0:0:0:0:
104,153,7933,5,0,0:0:0:0:
187,226,8183,1,0,0:0:0:0:
83,263,8433,1,0,0:0:0:0:
3,188,8683,1,0,0:0:0:0:
163,56,9308,5,0,0:0:0:0:
163,56,9558,1,0,0:0:0:0:
166,28,9683,1,0,0:0:0:0:
163,56,10058,1,0,0:0:0:0:
166,28,10183,1,0,0:0:0:0:
398,50,10433,1,0,0:0:0:0:
317,71,10683,1,0,0:0:0:0:
277,83,10808,1,0,0:0:0:0:
236,92,10933,1,0,0:0:0:0:
236,92,11183,5,0,0:0:0:0:
277,83,11308,1,0,0:0:0:0:
317,71,11433,1,0,0:0:0:0:
358,61,11558,1,0,0:0:0:0:
398,50,11683,1,0,0:0:0:0:
398,50,11933,6,0,L|402:7,1,41.2500015735627
466,155,12183,2,0,L|464:200,1,41.2500015735627
458,140,12433,2,0,L|456:185,1,41.2500015735627
341,309,12683,1,0,0:0:0:0:
443,296,12933,5,0,0:0:0:0:
265,373,13183,1,0,0:0:0:0:
242,374,13433,2,0,L|244:330,1,41.2500015735627
156,379,13683,1,0,0:0:0:0:
133,382,13933,2,0,L|135:338,1,41.2500015735627
98,257,14183,1,0,0:0:0:0:
115,242,14433,2,0,L|117:198,1,41.2500015735627
134,340,14683,2,0,L|132:381,1,41.2500015735627
136,229,14933,6,0,L|139:172,1,55
194,114,15183,1,0,0:0:0:0:
193,113,15433,2,0,L|196:58,1,55
260,6,15683,1,0,0:0:0:0:
463,129,15933,5,0,0:0:0:0:
433,129,16058,1,0,0:0:0:0:
368,169,16183,5,0,0:0:0:0:
348,161,16308,1,0,0:0:0:0:
273,197,16433,5,0,0:0:0:0:
271,185,16558,1,0,0:0:0:0:
273,197,16683,2,0,L|271:253,1,55
204,302,16933,6,0,L|146:301,1,55
344,329,17183,2,0,L|283:330,1,55
204,302,17433,1,0,0:0:0:0:
421,278,17683,1,0,0:0:0:0:
421,278,17933,1,0,0:0:0:0:
429,257,18058,1,0,0:0:0:0:
451,260,18183,1,0,0:0:0:0:
456,281,18308,1,0,0:0:0:0:
437,292,18433,1,0,0:0:0:0:
365,367,18933,5,0,0:0:0:0:
365,367,19183,2,0,P|355:342|356:308,1,55
349,289,19433,2,0,P|352:315|344:342,1,55
296,228,19683,1,0,0:0:0:0:
307,223,19808,1,0,0:0:0:0:
218,244,19933,6,0,L|219:188,1,55
205,171,20183,2,0,L|204:225,1,55
214,335,20433,1,0,0:0:0:0:
205,83,20683,1,0,0:0:0:0:
87,112,20933,6,0,P|60:116|30:115,1,55
76,96,21183,2,0,P|48:96|19:94,1,55
205,83,21433,1,0,0:0:0:0:
205,83,21683,1,0,0:0:0:0:
205,83,21933,5,0,0:0:0:0:
243,76,22058,1,0,0:0:0:0:
281,67,22183,1,0,0:0:0:0:
243,76,22308,1,0,0:0:0:0:
205,83,22433,1,0,0:0:0:0:
380,81,22683,1,0,0:0:0:0:
380,81,22933,6,0,L|398:28,1,55
417,168,23183,2,0,L|455:123,1,55
395,265,23433,1,0,0:0:0:0:
394,299,23558,1,0,0:0:0:0:
349,356,23683,6,0,L|349:300,1,55
206,285,23933,1,0,0:0:0:0:
207,251,24058,1,0,0:0:0:0:
248,192,24183,6,0,L|248:248,1,55
117,341,24433,1,0,0:0:0:0:
117,341,24683,2,0,P|94:326|63:318,1,55
105,147,24933,6,0,P|97:204|121:252,1,110
188,188,25433,1,0,0:0:0:0:
14,229,25683,1,0,0:0:0:0:
14,229,25933,2,0,L|71:225,1,55
188,188,26183,2,0,L|243:184,1,55
127,51,26433,5,0,0:0:0:0:
127,78,26558,1,0,0:0:0:0:
51,144,26683,5,0,0:0:0:0:
46,121,26808,1,0,0:0:0:0:
229,98,26933,6,0,P|292:98|349:88,1,110
446,61,27433,2,0,L|460:4,1,55
443,198,27683,1,0,0:0:0:0:
443,198,27933,2,0,L|450:139,1,55
481,292,28183,1,0,0:0:0:0:
481,292,28433,2,0,P|453:297|423:294,1,55
469,304,28683,2,0,P|441:309|409:308,1,55
281,348,28933,6,0,P|304:295|392:330,1,165
267,207,29433,2,0,L|269:151,1,55
382,245,29683,2,0,L|380:301,1,55
269,109,29933,1,0,0:0:0:0:
236,134,30058,1,0,0:0:0:0:
195,138,30183,1,0,0:0:0:0:
157,122,30308,1,0,0:0:0:0:
136,87,30433,1,0,0:0:0:0:
136,87,30683,1,0,0:0:0:0:
136,87,30933,6,0,P|144:147|56:156,1,165
156,172,31433,2,0,P|152:215|145:234,1,55
148,347,31683,2,0,P|127:362|95:370,1,55
90,288,31933,1,0,0:0:0:0:
90,288,32183,5,0,0:0:0:0:
121,316,32308,1,0,0:0:0:0:
148,347,32433,2,0,L|202:342,1,55
335,328,32683,2,0,L|338:382,1,55
252,228,32933,5,0,0:0:0:0:
335,328,33183,1,0,0:0:0:0:
252,228,33433,1,0,0:0:0:0:
335,328,33683,1,0,0:0:0:0:
252,228,33933,5,0,0:0:0:0:
284,224,34058,1,0,0:0:0:0:
335,328,34183,5,0,0:0:0:0:
302,327,34308,1,0,0:0:0:0:
417,256,34433,5,0,0:0:0:0:
428,268,34558,1,0,0:0:0:0:
473,320,34683,2,0,L|470:380,1,55
447,170,34933,6,0,P|436:93|448:1,1,165
405,114,35433,2,0,L|347:117,1,55
239,40,35683,2,0,L|296:37,1,55
277,180,35933,1,0,0:0:0:0:
249,186,36183,2,0,L|249:127,1,55
153,232,36433,1,0,0:0:0:0:
131,230,36683,2,0,L|130:175,1,55
248,291,36933,5,0,0:0:0:0:
141,340,37183,1,0,0:0:0:0:
248,291,37433,1,0,0:0:0:0:
331,369,37683,1,0,0:0:0:0:
167,216,37933,5,0,0:0:0:0:
173,194,38058,1,0,0:0:0:0:
262,126,38183,5,0,0:0:0:0:
260,104,38308,1,0,0:0:0:0:
213,13,38433,5,0,0:0:0:0:
234,7,38683,1,0,0:0:0:0:
166,92,38933,6,0,B|111:110|111:110|3:92,1,165
107,139,39433,2,0,L|106:197,1,55
26,70,39683,2,0,L|29:11,1,55
105,226,39933,1,0,0:0:0:0:
105,226,40183,2,0,P|116:198|133:176,1,55
172,295,40433,2,0,P|190:318|201:344,1,55
80,315,40683,2,0,P|50:319|22:315,1,55
172,295,40933,6,0,P|261:288|337:292,1,165
397,337,41433,1,0,0:0:0:0:
274,251,41683,1,0,0:0:0:0:
409,306,41933,5,0,0:0:0:0:
397,337,42058,1,0,0:0:0:0:
274,251,42183,5,0,0:0:0:0:
275,220,42308,1,0,0:0:0:0:
333,143,42433,6,0,L|337:88,1,55
421,33,42683,1,0,0:0:0:0:
421,33,42933,6,0,P|380:75|362:2,1,165
258,36,43433,2,0,P|228:39|201:36,1,55
238,47,43683,2,0,P|206:48|180:42,1,55
106,103,43933,1,0,0:0:0:0:
106,103,44058,1,0,0:0:0:0:
101,18,44183,6,0,P|134:24|158:36,1,55
181,202,44433,2,0,L|181:259,1,55
104,157,44683,2,0,L|106:102,1,55
252,145,44933,6,0,B|316:182|354:135|416:156,1,165
327,189,45433,1,0,0:0:0:0:
177,99,45683,1,0,0:0:0:0:
177,99,45933,5,0,0:0:0:0:
215,121,46058,1,0,0:0:0:0:
252,145,46183,1,0,0:0:0:0:
289,167,46308,1,0,0:0:0:0:
327,189,46433,2,0,L|329:131,1,55
268,265,46683,2,0,L|261:323,1,55
268,265,46933,6,0,P|296:335|378:346,1,165
240,254,47433,2,0,L|185:257,1,55
391,320,47683,2,0,L|391:263,1,55
253,172,47933,2,0,L|254:228,1,55
407,294,48183,2,0,L|462:291,1,55
346,177,48433,1,0,0:0:0:0:
346,177,48683,2,0,L|404:176,1,55
441,62,48933,6,0,P|429:142|469:214,1,165
464,136,49433,1,0,0:0:0:0:
441,62,49683,1,0,0:0:0:0:
441,62,49933,2,0,L|381:61,1,55
298,33,50183,2,0,L|241:52,1,55
88,140,50433,5,0,0:0:0:0:
88,140,50558,1,0,0:0:0:0:
162,107,50683,6,0,P|165:78|163:49,1,55
88,140,50933,6,0,P|138:184|230:151,1,165
307,101,51433,2,0,L|307:46,1,55
249,173,51683,2,0,P|277:189|302:194,1,55
385,154,51933,1,0,0:0:0:0:
385,154,52183,2,0,L|398:99,1,55
453,250,52433,1,0,0:0:0:0:
453,250,52683,2,0,L|462:186,1,55
408,378,52933,6,0,P|393:322|301:330,1,165
199,311,53433,2,0,P|196:341|201:365,1,55
60,374,53683,2,0,P|87:368|111:355,1,55
146,230,53933,5,0,0:0:0:0:
153,203,54058,1,0,0:0:0:0:
106,126,54183,5,0,0:0:0:0:
77,124,54308,1,0,0:0:0:0:
172,171,54433,6,0,P|201:174|229:170,1,55
314,141,54683,2,0,P|322:113|325:84,1,55
235,24,54933,6,0,P|286:59|384:43,1,165
467,0,55433,1,0,0:0:0:0:
391,139,55683,1,0,0:0:0:0:
391,139,55933,2,0,P|390:171|393:197,1,55
420,281,56183,2,0,P|433:309|448:329,1,55
334,259,56433,1,0,0:0:0:0:
322,257,56558,1,0,0:0:0:0:
238,260,56683,6,0,L|181:253,1,55
111,324,56933,6,0,L|96:160,1,165
25,269,57433,1,0,0:0:0:0:
183,253,57683,1,0,0:0:0:0:
25,269,57933,5,0,0:0:0:0:
8,271,58058,1,0,0:0:0:0:
95,320,58183,5,0,0:0:0:0:
111,324,58308,1,0,0:0:0:0:
183,253,58433,5,0,0:0:0:0:
198,157,58683,1,0,0:0:0:0:
159,56,58933,6,0,P|242:60|326:42,1,165
423,36,59433,2,0,P|454:31|476:25,1,55
308,68,59683,2,0,P|277:73|255:79,1,55
449,96,59933,5,0,0:0:0:0:
436,67,60058,1,0,0:0:0:0:
309,94,60183,5,0,0:0:0:0:
311,126,60308,1,0,0:0:0:0:
392,185,60433,6,0,P|430:188|451:184,1,55
404,220,60683,2,0,P|432:214|456:198,1,55
482,297,60933,6,0,P|400:296|321:323,1,165
237,286,61433,1,0,0:0:0:0:
131,358,61683,1,0,0:0:0:0:
131,358,61933,5,0,0:0:0:0:
133,328,62058,1,0,0:0:0:0:
237,286,62183,5,0,0:0:0:0:
232,255,62308,1,0,0:0:0:0:
226,221,62433,1,0,0:0:0:0:
137,297,62683,1,0,0:0:0:0:
337,207,62933,6,0,L|331:42,1,165
219,60,63433,1,0,0:0:0:0:
219,60,63683,1,0,0:0:0:0:
455,118,63933,2,0,L|511:109,1,55
414,46,64183,2,0,L|470:37,1,55
417,189,64433,1,0,0:0:0:0:
455,258,64683,1,0,0:0:0:0:
455,258,64933,5,0,0:0:0:0:
417,189,65183,1,0,0:0:0:0:
344,330,65433,1,0,0:0:0:0:
424,325,65683,1,0,0:0:0:0:
417,189,65933,5,0,0:0:0:0:
399,225,66058,1,0,0:0:0:0:
379,259,66183,1,0,0:0:0:0:
362,294,66308,1,0,0:0:0:0:
344,330,66433,1,0,0:0:0:0:
344,330,66683,2,0,L|398:320,1,55
268,366,66933,6,0,P|218:338|113:361,1,165
236,378,67433,2,0,L|235:317,1,55
103,276,67683,2,0,L|101:340,1,55
194,233,67933,5,0,0:0:0:0:
194,205,68058,1,0,0:0:0:0:
107,114,68183,5,0,0:0:0:0:
101,140,68308,1,0,0:0:0:0:
244,98,68433,5,0,0:0:0:0:
157,9,68683,1,0,0:0:0:0:
244,98,68933,2,0,L|417:76,1,165
331,67,69433,1,0,0:0:0:0:
158,154,69683,1,0,0:0:0:0:
288,128,69933,2,0,P|265:106|233:95,1,55
407,77,70183,2,0,P|406:46|390:16,1,55
394,201,70433,1,0,0:0:0:0:
331,67,70683,1,0,0:0:0:0:
310,228,70933,6,0,B|369:285|369:285|454:269,1,165
415,125,71433,1,0,0:0:0:0:
310,228,71683,1,0,0:0:0:0:
239,298,71933,5,0,0:0:0:0:
233,313,72058,1,0,0:0:0:0:
179,383,72183,5,0,0:0:0:0:
168,369,72308,1,0,0:0:0:0:
154,360,72433,2,0,P|122:354|99:358,1,55
36,272,72683,2,0,P|68:278|91:274,1,55
174,255,72933,6,0,B|185:199|185:199|176:144,1,110
61,87,73433,2,0,B|53:140|53:140|64:196,1,110
176,146,73933,1,0,0:0:0:0:
176,118,74058,1,0,0:0:0:0:
176,90,74183,1,0,0:0:0:0:
176,62,74308,1,0,0:0:0:0:
177,34,74433,1,0,0:0:0:0:
61,87,74683,1,0,0:0:0:0:
176,146,74933,6,0,P|270:152|344:144,1,165
412,98,75433,2,0,P|368:139|403:230,1,165
426,236,75933,1,0,0:0:0:0:
400,228,76058,1,0,0:0:0:0:
373,234,76183,1,0,0:0:0:0:
355,255,76308,1,0,0:0:0:0:
356,281,76433,1,0,0:0:0:0:
435,315,76683,1,0,0:0:0:0:
369,362,76933,5,0,0:0:0:0:
185,312,77183,1,0,0:0:0:0:
286,325,77433,1,0,0:0:0:0:
92,358,77683,1,0,0:0:0:0:
146,232,77933,2,0,L|147:175,1,55
89,100,78183,2,0,L|91:44,1,55
146,232,78433,1,0,0:0:0:0:
176,93,78683,1,0,0:0:0:0:
91,28,78933,5,0,0:0:0:0:
275,44,94933,6,0,B|276:119|335:210|380:236|427:240|467:211|484:177|481:132|449:95|408:84|365:93|329:125|300:231|325:265|325:265|408:304|474:264|474:264|489:345|489:345|367:382|271:322|271:322|222:319|185:346|185:346|205:278|174:236,1,1237.50004720688
72,91,98569,5,0,0:0:0:0:
165,136,98796,1,0,0:0:0:0:
93,298,99024,1,0,0:0:0:0:
0,253,99251,1,0,0:0:0:0:
177,238,99478,6,0,L|177:297,1,55
240,319,99705,1,0,0:0:0:0:
156,380,99933,1,0,0:0:0:0:
93,298,100160,1,0,0:0:0:0:
71,267,100273,1,0,0:0:0:0:
50,234,100387,6,0,L|51:177,1,55
157,57,100615,1,0,0:0:0:0:
336,118,100842,1,0,0:0:0:0:
209,213,101069,1,0,0:0:0:0:
209,175,101183,5,0,0:0:0:0:
220,140,101296,2,0,P|231:113|250:88,1,55
309,143,101523,5,0,0:0:0:0:
336,118,101637,2,0,P|359:100|386:89,1,55
413,165,101864,5,0,0:0:0:0:
448,157,101978,2,0,P|476:153|504:155,1,55
492,306,102205,6,0,P|481:283|482:249,1,55
409,357,102433,1,0,0:0:0:0:
308,337,102660,1,0,0:0:0:0:
208,311,102887,1,0,0:0:0:0:
438,348,103114,5,0,0:0:0:0:
289,346,103342,1,0,0:0:0:0:
171,332,103569,1,0,0:0:0:0:
308,337,103796,1,0,0:0:0:0:
416,358,104023,5,0,0:0:0:0:
289,346,104251,1,0,0:0:0:0:
171,332,104478,1,0,0:0:0:0:
361,258,104705,1,0,0:0:0:0:
393,252,104819,1,0,0:0:0:0:
426,246,104933,2,0,L|485:235,1,55
281,167,105160,5,0,0:0:0:0:
248,162,105273,2,0,L|190:156,1,55
347,54,105501,5,0,0:0:0:0:
379,52,105614,2,0,L|435:47,1,55
248,73,105842,6,0,L|249:18,1,55
170,122,106069,1,0,0:0:0:0:
118,16,106296,1,0,0:0:0:0:
7,54,106523,1,0,0:0:0:0:
88,91,106751,5,0,0:0:0:0:
170,122,106978,1,0,0:0:0:0:
7,54,107205,1,0,0:0:0:0:
96,219,107433,1,0,0:0:0:0:
134,220,107546,1,0,0:0:0:0:
172,221,107660,6,0,L|228:221,1,55
170,122,107887,1,0,0:0:0:0:
284,320,108114,1,0,0:0:0:0:
506,264,108342,1,0,0:0:0:0:
506,226,108455,1,0,0:0:0:0:
506,187,108569,2,0,P|504:150|501:127,1,55
376,6,108796,5,0,0:0:0:0:
381,44,108910,2,0,P|383:72|379:99,1,55
283,299,109137,5,0,0:0:0:0:
288,261,109251,2,0,P|292:233|289:202,1,55
215,11,109478,6,0,P|217:42|214:73,1,55
137,136,109705,1,0,0:0:0:0:
51,226,109933,1,0,0:0:0:0:
84,38,110160,1,0,0:0:0:0:
106,340,110387,1,0,0:0:0:0:
51,226,110614,1,0,0:0:0:0:
137,136,110842,1,0,0:0:0:0:
258,186,111069,1,0,0:0:0:0:
266,207,111183,1,0,0:0:0:0:
301,302,111296,6,0,L|293:361,1,55.0000020980836
417,165,111448,2,0,P|419:253|369:243,1,165.000006294251
417,165,111751,2,0,P|467:218|454:304,1,165.000006294251
293,356,112092,5,0,0:0:0:0:
216,331,112205,2,0,P|176:262|225:201,1,165.000006294251
386,79,112546,2,0,P|346:148|268:136,1,165.000006294251
82,62,112887,1,0,0:0:0:0:
159,60,113000,1,0,0:0:0:0:
190,132,113114,5,0,0:0:0:0:
172,229,113342,1,0,0:0:0:0:
79,263,113569,1,0,0:0:0:0:
3,199,113796,1,0,0:0:0:0:
3,199,114023,5,0,0:0:0:0:
21,102,114251,1,0,0:0:0:0:
114,68,114478,1,0,0:0:0:0:
190,132,114705,1,0,0:0:0:0:
225,167,114819,1,0,0:0:0:0:
260,202,114933,6,0,P|262:238|258:258,1,55
133,336,115160,2,0,P|163:316|182:309,1,55
268,350,115387,2,0,P|289:367|314:378,1,55
446,360,115614,1,0,0:0:0:0:
446,325,115728,1,0,0:0:0:0:
446,286,115842,6,0,L|450:227,1,55
379,176,116069,1,0,0:0:0:0:
358,258,116183,6,0,L|362:199,1,55
293,145,116410,1,0,0:0:0:0:
272,227,116524,6,0,L|276:168,1,55
206,105,116751,1,0,0:0:0:0:
109,126,116978,1,0,0:0:0:0:
275,172,117205,1,0,0:0:0:0:
381,150,117433,1,0,0:0:0:0:
206,105,117660,5,0,0:0:0:0:
275,172,117887,1,0,0:0:0:0:
381,150,118114,1,0,0:0:0:0:
109,126,118342,1,0,0:0:0:0:
91,160,118455,1,0,0:0:0:0:
75,195,118569,6,0,L|72:253,1,55
130,364,118796,2,0,L|133:303,1,55
215,283,119023,2,0,L|212:337,1,55
288,368,119251,1,0,0:0:0:0:
297,325,119364,1,0,0:0:0:0:
306,282,119478,6,0,L|304:224,1,55
277,195,119705,1,0,0:0:0:0:
394,259,119819,6,0,L|392:201,1,55
365,172,120046,1,0,0:0:0:0:
481,232,120160,6,0,L|479:174,1,55
452,145,120387,1,0,0:0:0:0:
381,34,120614,1,0,0:0:0:0:
256,75,120842,1,0,0:0:0:0:
256,75,121069,1,0,0:0:0:0:
131,34,121296,5,0,0:0:0:0:
334,126,121523,1,0,0:0:0:0:
258,0,121751,1,0,0:0:0:0:
180,126,121978,2,0,L|185:197,1,55
160,256,122205,6,0,L|38:277,2,110
421,279,122887,1,0,0:0:0:0:
462,263,123001,1,0,0:0:0:0:
489,229,123114,6,0,L|491:172,1,55
393,190,123342,1,0,0:0:0:0:
394,107,123455,6,0,L|389:164,1,55
285,144,123683,1,0,0:0:0:0:
286,231,123796,6,0,L|280:173,1,55
208,212,124023,1,0,0:0:0:0:
235,371,124251,1,0,0:0:0:0:
364,190,124478,1,0,0:0:0:0:
364,190,124705,1,0,0:0:0:0:
66,238,124933,5,0,0:0:0:0:
235,371,125160,1,0,0:0:0:0:
208,212,125387,1,0,0:0:0:0:
208,212,125614,1,0,0:0:0:0:
181,178,125728,1,0,0:0:0:0:
141,160,125842,6,0,P|111:151|83:152,1,55.0000020980836
149,45,125993,2,0,P|205:94|260:42,1,165.000006294251
242,187,126296,2,0,P|283:111|258:38,1,165.000006294251
316,123,126637,1,0,0:0:0:0:
480,139,126751,6,0,L|313:122,1,165.000006294251
77,193,127092,2,0,L|245:186,1,165.000006294251
464,274,127433,1,0,0:0:0:0:
381,295,127547,1,0,0:0:0:0:
299,267,127660,5,0,0:0:0:0:
70,240,135141,5,0,0:0:0:0:
60,141,135349,1,0,0:0:0:0:
49,42,135558,1,0,0:0:0:0:
60,141,135974,5,0,0:0:0:0:
70,240,136182,1,0,0:0:0:0:
79,339,136390,1,0,0:0:0:0:
80,339,136808,5,0,0:0:0:0:
70,240,137016,1,0,0:0:0:0:
59,141,137225,1,0,0:0:0:0:
51,42,137641,5,0,0:0:0:0:
59,141,137849,1,0,0:0:0:0:
70,240,138057,1,0,0:0:0:0:
80,339,138266,6,0,L|136:360,1,55
247,358,138474,1,0,0:0:0:0:
278,347,138578,1,0,0:0:0:0:
309,336,138683,2,0,L|368:332,1,55
354,253,138891,2,0,L|409:251,1,55
410,164,139099,1,0,0:0:0:0:
411,131,139203,1,0,0:0:0:0:
412,97,139308,2,0,L|414:43,1,55
303,84,139516,2,0,L|307:140,1,55
269,64,139724,1,0,0:0:0:0:
269,64,139828,1,0,0:0:0:0:
187,46,139933,6,0,L|71:52,1,110
9,148,140349,2,0,L|15:206,1,55
174,99,140558,2,0,L|187:42,1,55
77,51,140766,2,0,L|90:106,1,55
204,259,140974,1,0,0:0:0:0:
226,234,141078,1,0,0:0:0:0:
246,207,141183,2,0,L|251:152,1,55
336,96,141391,1,0,0:0:0:0:
316,87,141495,1,0,0:0:0:0:
420,114,141599,6,0,P|449:68|440:12,1,110
406,138,141912,1,0,0:0:0:0:
413,170,142016,2,0,L|421:231,1,55
443,358,142224,2,0,L|434:298,1,55
353,328,142433,1,0,0:0:0:0:
323,312,142537,1,0,0:0:0:0:
290,310,142641,1,0,0:0:0:0:
258,318,142745,1,0,0:0:0:0:
236,343,142849,2,0,P|204:335|183:338,1,55
85,311,143058,2,0,P|81:342|86:369,1,55
238,243,143266,6,0,L|230:123,1,110
166,66,143578,1,0,0:0:0:0:
134,55,143683,2,0,L|73:49,1,55
263,43,143891,2,0,L|318:36,1,55
230,133,144099,1,0,0:0:0:0:
198,140,144203,1,0,0:0:0:0:
177,166,144308,2,0,L|175:225,1,55
166,237,144516,2,0,L|165:176,1,55
90,306,144724,1,0,0:0:0:0:
115,326,144828,1,0,0:0:0:0:
213,333,144933,6,0,P|271:332|328:324,1,110
413,266,145245,1,0,0:0:0:0:
413,266,145349,2,0,L|421:212,1,55
339,177,145558,2,0,L|336:119,1,55
236,128,145766,1,0,0:0:0:0:
226,96,145870,1,0,0:0:0:0:
147,56,145974,5,0,0:0:0:0:
141,88,146078,1,0,0:0:0:0:
68,136,146183,6,0,P|56:106|35:84,1,55
40,230,146391,2,0,P|71:238|99:232,1,55
188,284,146599,6,0,P|198:260|201:232,1,55
311,231,146808,2,0,P|313:258|324:284,1,55
418,234,147016,2,0,P|445:237|472:230,1,55
432,225,147224,2,0,P|455:214|476:188,1,55
369,142,147433,1,0,0:0:0:0:
376,109,147537,1,0,0:0:0:0:
376,76,147641,2,0,P|373:46|358:20,1,55
233,77,147849,2,0,L|288:69,1,55
198,58,148058,1,0,0:0:0:0:
198,58,148162,1,0,0:0:0:0:
120,122,148266,6,0,B|108:177|108:177|123:234,1,110
197,299,148578,1,0,0:0:0:0:
228,308,148683,2,0,L|286:303,1,55
294,294,148891,2,0,L|239:298,1,55
377,358,149099,5,0,0:0:0:0:
394,329,149203,1,0,0:0:0:0:
405,250,149308,5,0,0:0:0:0:
402,217,149412,1,0,0:0:0:0:
335,150,149516,6,0,L|322:208,1,55
243,67,149724,2,0,L|251:125,1,55
223,33,149933,6,0,P|283:45|339:33,1,110
158,107,150245,1,0,0:0:0:0:
147,138,150349,2,0,L|152:198,1,55
231,296,150558,2,0,L|236:241,1,55
98,338,150766,5,0,0:0:0:0:
98,338,150870,1,0,0:0:0:0:
176,363,150974,5,0,0:0:0:0:
176,363,151078,1,0,0:0:0:0:
262,376,151183,6,0,L|315:355,1,55
412,363,151391,2,0,L|419:304,1,55
390,157,151599,6,0,L|404:295,1,131.99999597168
372,124,151912,1,0,0:0:0:0:
365,79,152016,2,0,P|367:46|379:14,1,65.9999979858399
274,47,152224,2,0,P|245:50|199:38,1,65.9999979858399
77,103,152433,5,0,0:0:0:0:
77,103,152537,1,0,0:0:0:0:
167,136,152641,5,0,0:0:0:0:
167,136,152745,1,0,0:0:0:0:
254,162,152849,6,0,L|321:151,1,65.9999979858399
277,163,153058,2,0,L|334:131,1,65.9999979858399
209,234,153266,6,0,P|146:238|73:225,1,131.99999597168
304,268,153578,1,0,0:0:0:0:
304,268,153683,2,0,L|301:338,1,65.9999979858399
413,316,153891,2,0,L|421:381,1,65.9999979858399
465,216,154099,5,0,0:0:0:0:
460,176,154203,1,0,0:0:0:0:
445,95,154308,2,0,P|451:65|466:32,1,65.9999979858399
346,66,154516,2,0,P|313:79|279:75,1,65.9999979858399
322,80,154724,1,0,0:0:0:0:
283,89,154828,1,0,0:0:0:0:
196,60,154933,6,0,L|64:52,1,131.99999597168
184,20,155245,1,0,0:0:0:0:
196,60,155349,2,0,L|194:127,1,65.9999979858399
40,73,155558,2,0,L|39:4,1,65.9999979858399
102,163,155766,1,0,0:0:0:0:
99,202,155870,1,0,0:0:0:0:
84,238,155974,1,0,0:0:0:0:
60,269,156078,1,0,0:0:0:0:
24,286,156183,2,0,P|59:278|91:281,1,65.9999979858399
185,305,156391,2,0,P|198:338|200:370,1,65.9999979858399
203,280,156599,6,0,B|243:268|243:268|337:276,1,131.99999597168
425,299,156912,1,0,0:0:0:0:
458,319,157016,2,0,L|455:384,1,65.9999979858399
401,213,157224,2,0,L|404:148,1,65.9999979858399
314,112,157433,1,0,0:0:0:0:
334,78,157537,1,0,0:0:0:0:
367,56,157641,1,0,0:0:0:0:
327,59,157745,1,0,0:0:0:0:
289,46,157849,2,0,P|258:35|231:17,1,65.9999979858399
220,78,158058,2,0,P|211:48|213:8,1,65.9999979858399
196,102,158266,6,0,P|212:150|199:230,1,131.99999597168
108,166,158578,1,0,0:0:0:0:
92,129,158683,2,0,L|95:62,1,65.9999979858399
105,267,158891,2,0,P|74:284|41:288,1,65.9999979858399
199,228,159099,1,0,0:0:0:0:
228,254,159203,1,0,0:0:0:0:
305,231,159308,5,0,0:0:0:0:
308,270,159412,1,0,0:0:0:0:
383,284,159516,6,0,P|384:327|378:353,1,65.9999979858399
437,162,159724,2,0,P|431:129|433:96,1,65.9999979858399
497,58,159933,6,0,P|430:76|371:60,1,131.99999597168
298,49,160245,1,0,0:0:0:0:
336,41,160349,2,0,L|403:36,1,65.9999979858399
331,136,160558,2,0,L|264:127,1,65.9999979858399
154,10,160766,1,0,0:0:0:0:
191,21,160870,1,0,0:0:0:0:
205,57,160974,1,0,0:0:0:0:
180,87,161078,1,0,0:0:0:0:
140,88,161183,2,0,P|125:61|117:27,1,65.9999979858399
212,170,161391,2,0,P|181:184|146:188,1,65.9999979858399
62,147,161599,6,0,P|128:178|148:235,1,131.99999597168
109,343,161912,1,0,0:0:0:0:
90,307,162016,2,0,P|110:272|135:258,1,65.9999979858399
308,318,162224,2,0,P|275:326|244:323,1,65.9999979858399
268,230,162433,5,0,0:0:0:0:
281,192,162537,1,0,0:0:0:0:
351,157,162641,5,0,0:0:0:0:
378,185,162745,1,0,0:0:0:0:
408,253,162849,6,0,P|408:216|414:185,1,65.9999979858399
434,105,163058,2,0,P|440:66|448:41,1,65.9999979858399
346,58,163266,6,0,P|279:67|205:53,1,131.99999597168
112,37,163578,1,0,0:0:0:0:
112,37,163683,2,0,P|79:47|41:54,1,65.9999979858399
215,56,163891,2,0,P|258:67|280:77,1,65.9999979858399
300,177,164099,2,0,L|296:249,1,65.9999979858399
208,342,164308,2,0,L|203:272,1,65.9999979858399
286,192,164516,2,0,L|282:264,1,65.9999979858399
194,357,164725,2,0,L|189:287,1,65.9999979858399
428,247,164933,6,0,P|354:275|301:261,1,131.99999597168
196,198,165245,1,0,0:0:0:0:
184,160,165349,2,0,L|187:95,1,65.9999979858399
88,234,165558,2,0,L|76:167,1,65.9999979858399
325,188,165766,5,0,0:0:0:0:
320,227,165870,1,0,0:0:0:0:
279,288,165974,5,0,0:0:0:0:
243,305,166078,1,0,0:0:0:0:
171,353,166183,6,0,P|139:351|108:340,1,65.9999979858399
334,344,166391,2,0,P|375:332|405:326,1,65.9999979858399
441,202,166599,6,0,P|449:283|422:343,1,131.99999597168
372,102,166912,1,0,0:0:0:0:
391,67,167016,2,0,P|415:42|446:27,1,65.9999979858399
243,53,167224,2,0,P|207:60|174:57,1,65.9999979858399
88,14,167433,5,0,0:0:0:0:
135,69,167537,1,0,0:0:0:0:
142,142,167641,1,0,0:0:0:0:
105,204,167746,1,0,0:0:0:0:
38,232,167849,2,0,L|35:159,1,65.9999979858399
157,344,168058,2,0,L|101:384,1,65.9999979858399
198,184,168266,5,0,0:0:0:0:
440,312,174933,6,0,P|452:243|446:199,1,110
404,122,175225,1,0,0:0:0:0:
404,122,175322,1,0,0:0:0:0:
404,122,175517,2,0,L|343:114,1,55
305,206,175712,2,0,L|365:199,1,55
276,62,175907,2,0,L|214:70,1,55
63,114,176101,1,0,0:0:0:0:
96,116,176199,1,0,0:0:0:0:
127,105,176296,2,0,P|130:69|127:45,1,55
206,162,176491,6,0,P|200:230|217:278,1,110
249,358,176783,1,0,0:0:0:0:
249,358,176881,1,0,0:0:0:0:
249,358,177075,2,0,P|278:349|301:335,1,55
273,364,177270,2,0,P|297:349|316:329,1,55
384,279,177465,1,0,0:0:0:0:
394,310,177562,1,0,0:0:0:0:
415,334,177660,2,0,P|445:354|468:354,1,55
301,243,177855,2,0,L|241:252,1,55
281,230,178049,6,0,P|225:229|171:218,1,110
76,235,178342,1,0,0:0:0:0:
62,265,178439,2,0,L|66:323,1,55
106,142,178634,1,0,0:0:0:0:
106,142,179023,6,0,L|92:85,1,55
178,73,179218,2,0,L|164:16,1,55
277,101,179413,2,0,L|263:44,1,55
400,52,179608,5,0,0:3:0:0:
377,75,179705,1,0,0:3:0:0:
373,109,179803,1,0,0:3:0:0:
391,137,179900,1,0,0:3:0:0:
422,146,179997,2,0,P|451:140|478:122,1,55
290,128,180192,2,0,P|286:165|294:194,1,55
290,128,180582,5,0,0:0:0:0:
277,158,180679,1,0,0:0:0:0:
291,191,180777,1,0,0:0:0:0:
287,221,180874,1,0,0:0:0:0:
310,246,180971,2,0,P|343:250|372:244,1,55
193,197,181166,5,0,0:0:0:0:
159,198,181264,1,0,0:0:0:0:
126,200,181361,1,0,0:0:0:0:
93,202,181458,1,0,0:0:0:0:
60,206,181556,2,0,L|63:262,1,55
140,323,181751,1,0,0:0:0:0:
140,323,182140,5,0,0:0:0:0:
172,316,182238,1,0,0:0:0:0:
253,334,182335,5,0,0:0:0:0:
281,317,182433,1,0,0:0:0:0:
364,306,182530,6,0,L|370:247,1,55
370,160,182725,1,0,0:0:0:0:
340,174,182822,1,0,0:0:0:0:
330,205,182920,1,0,0:0:0:0:
341,235,183017,1,0,0:0:0:0:
369,251,183114,2,0,L|424:235,1,55
311,106,183309,5,0,0:0:0:0:
302,149,183407,1,0,0:0:0:0:
310,191,183504,1,0,0:0:0:0:
333,228,183601,1,0,0:0:0:0:
369,251,183699,2,0,L|421:236,1,55
276,293,183894,2,0,P|274:325|279:352,1,55
207,158,184088,2,0,P|213:126|210:96,1,55
77,211,184283,5,0,0:0:0:0:
107,224,184381,1,0,0:0:0:0:
139,225,184478,1,0,0:0:0:0:
170,215,184575,1,0,0:0:0:0:
192,190,184673,2,0,P|198:162|195:132,1,55
296,17,184868,2,0,P|290:45|293:75,1,55
305,97,185062,2,0,P|311:69|308:39,1,55
281,182,185257,1,0,0:0:0:0:
314,179,185355,1,0,0:0:0:0:
346,174,185452,2,0,P|370:159|386:134,1,55
441,77,185647,2,0,P|446:42|442:22,1,55
413,223,185842,5,0,0:0:0:0:
419,255,185939,1,0,0:0:0:0:
435,283,186036,1,0,0:0:0:0:
463,300,186134,1,0,0:0:0:0:
487,278,186231,1,0,0:0:0:0:
494,245,186329,1,0,0:0:0:0:
486,212,186426,2,0,L|481:156,1,55
413,223,186621,6,0,L|389:174,1,55
341,258,186816,1,0,0:0:0:0:
311,271,186913,1,0,0:0:0:0:
288,294,187010,1,0,0:0:0:0:
277,325,187108,1,0,0:0:0:0:
277,357,187205,2,0,P|250:332|228:325,1,55
96,352,187400,5,0,0:0:0:0:
124,335,187497,1,0,0:0:0:0:
143,308,187595,1,0,0:0:0:0:
148,275,187692,1,0,0:0:0:0:
131,246,187790,2,0,P|109:236|79:234,1,55
21,159,187984,2,0,P|54:155|76:147,1,55
40,162,188179,6,0,P|63:147|83:126,1,55
110,36,188374,1,0,0:0:0:0:
126,62,188471,1,0,0:0:0:0:
206,59,188569,5,0,0:0:0:0:
235,73,188666,1,0,0:0:0:0:
312,52,188764,5,0,0:0:0:0:
344,57,188861,1,0,0:0:0:0:
376,50,188958,6,0,P|404:40|427:24,1,55
362,157,189153,2,0,P|351:187|351:212,1,55
459,204,189348,1,0,0:0:0:0:
459,204,189543,2,0,P|470:173|469:142,1,55
341,306,189738,2,0,P|362:325|391:332,1,55
245,245,189933,2,0,P|186:250|145:282,1,110
69,348,190225,1,0,0:0:0:0:
69,348,190322,2,0,L|56:288,1,55
89,209,190517,5,0,0:0:0:0:
87,176,190614,1,0,0:0:0:0:
84,142,190712,1,0,0:0:0:0:
82,109,190809,1,0,0:0:0:0:
80,75,190907,2,0,P|77:47|69:22,1,55
95,56,191101,2,0,P|75:30|54:12,1,55
192,58,191296,6,0,P|221:61|249:54,1,55
208,63,191491,2,0,P|235:55|255:38,1,55
321,0,191686,1,0,0:0:0:0:
328,31,191783,1,0,0:0:0:0:
343,60,191881,1,0,0:0:0:0:
367,82,191978,1,0,0:0:0:0:
443,131,192075,5,0,0:0:0:0:
415,149,192173,1,0,0:0:0:0:
398,177,192270,1,0,0:0:0:0:
394,209,192368,1,0,0:0:0:0:
441,282,192465,6,0,L|432:341,1,55
342,310,192660,2,0,L|349:370,1,55
335,364,192855,6,0,L|341:309,1,55
289,219,193049,1,0,0:0:0:0:
255,220,193147,1,0,0:0:0:0:
222,221,193244,1,0,0:0:0:0:
188,223,193342,1,0,0:0:0:0:
155,224,193439,2,0,P|121:224|96:221,1,55
42,153,193634,5,0,0:0:0:0:
35,121,193731,1,0,0:0:0:0:
45,90,193829,1,0,0:0:0:0:
69,68,193926,1,0,0:0:0:0:
102,61,194023,1,0,0:0:0:0:
133,72,194121,1,0,0:0:0:0:
161,55,194218,2,0,L|167:1,1,55
248,121,194413,6,0,L|192:146,1,55
259,17,194608,1,0,0:0:0:0:
290,27,194705,1,0,0:0:0:0:
370,14,194803,5,0,0:0:0:0:
377,46,194900,1,0,0:0:0:0:
446,90,194997,5,0,0:0:0:0:
432,120,195095,1,0,0:0:0:0:
408,142,195192,6,0,P|378:147|348:142,1,55
184,190,195387,2,0,P|214:185|244:190,1,55
302,298,195582,1,0,0:0:0:0:
302,298,195777,2,0,P|304:331|300:354,1,55
152,255,195971,2,0,P|150:222|154:199,1,55
238,230,196166,1,0,0:0:0:0:
217,319,196361,1,0,0:0:0:0:
77,370,196556,1,0,0:0:0:0:
70,134,196751,5,0,0:0:0:0:
91,110,196848,1,0,0:0:0:0:
124,99,196945,1,0,0:0:0:0:
157,103,197043,1,0,0:0:0:0:
187,118,197140,2,0,P|191:157|186:187,1,65.9999979858399
175,271,197335,2,0,P|168:238|171:200,1,65.9999979858399
283,134,197530,2,0,P|290:97|301:72,1,65.9999979858399
410,250,197725,1,0,0:0:0:0:
379,274,197822,1,0,0:0:0:0:
339,279,197920,1,0,0:0:0:0:
303,262,198017,1,0,0:0:0:0:
283,227,198114,2,0,P|293:261|285:303,1,65.9999979858399
191,342,198309,5,0,0:0:0:0:
191,342,198504,1,0,0:0:0:0:
172,307,198601,1,0,0:0:0:0:
174,267,198699,2,0,P|188:235|212:213,1,65.9999979858399
124,165,198894,2,0,P|89:174|56:172,1,65.9999979858399
155,22,199088,2,0,P|168:62|167:92,1,65.9999979858399
266,60,199283,2,0,P|261:100|248:128,1,65.9999979858399
274,200,199478,2,0,P|240:212|205:213,1,65.9999979858399
356,153,199673,1,0,0:0:0:0:
381,152,199770,1,0,0:0:0:0:
456,193,199868,6,0,P|466:266|449:331,1,131.99999597168
272,314,200160,1,0,0:0:0:0:
300,286,200257,6,0,L|373:280,1,65.9999979858399
182,336,200452,2,0,L|111:332,1,65.9999979858399
285,266,200647,6,0,L|358:260,1,65.9999979858399
167,316,200842,2,0,L|96:312,1,65.9999979858399
267,244,201036,6,0,L|340:238,1,65.9999979858399
149,294,201231,2,0,L|78:290,1,65.9999979858399
105,173,201426,5,0,0:0:0:0:
109,133,201523,1,0,0:0:0:0:
125,96,201621,1,0,0:0:0:0:
96,69,201718,1,0,0:0:0:0:
85,30,201816,2,0,P|56:50|24:54,1,65.9999979858399
230,37,202010,2,0,P|192:38|164:30,1,65.9999979858399
318,61,202205,6,0,L|325:19,7,32.99999899292
340,86,202595,2,0,L|404:74,1,65.9999979858399
357,182,202790,1,0,0:0:0:0:
317,179,202887,1,0,0:0:0:0:
279,189,202984,6,0,P|246:194|211:191,1,65.9999979858399
100,160,203179,1,0,0:0:0:0:
81,154,203277,1,0,0:0:0:0:
136,234,203374,6,0,P|136:271|132:300,1,65.9999979858399
219,304,203569,2,0,P|213:345|204:374,1,65.9999979858399
221,362,203764,2,0,P|234:332|261:307,1,65.9999979858399
446,332,203958,1,0,0:0:0:0:
413,354,204056,1,0,0:0:0:0:
373,351,204153,1,0,0:0:0:0:
345,322,204251,1,0,0:0:0:0:
343,282,204348,2,0,P|348:249|360:218,1,65.9999979858399
377,130,204543,6,0,P|425:156|441:176,1,65.9999979858399
359,218,204738,2,0,P|312:246|287:250,1,65.9999979858399
289,155,204933,2,0,P|287:100|296:76,1,65.9999979858399
451,256,205127,2,0,P|452:310|443:334,1,65.9999979858399
263,350,205322,1,0,0:0:0:0:
223,344,205420,1,0,0:0:0:0:
184,336,205517,2,0,L|116:327,1,65.9999979858399
54,230,205712,2,0,L|127:217,1,65.9999979858399
176,115,205907,2,0,L|109:101,1,65.9999979858399
268,23,206101,6,0,P|268:62|261:96,1,65.9999979858399
366,146,206296,2,0,P|360:110|366:77,1,65.9999979858399
430,220,206491,2,0,P|436:256|430:289,1,65.9999979858399
371,358,206686,1,0,0:0:0:0:
371,358,207075,5,0,0:0:0:0:
331,354,207173,1,0,0:0:0:0:
266,278,207270,5,0,0:0:0:0:
305,282,207368,1,0,0:0:0:0:
231,349,207465,5,0,0:0:0:0:
192,343,207562,1,0,0:0:0:0:
152,335,207660,6,0,P|146:307|149:267,1,65.9999979858399
294,174,207855,1,0,0:0:0:0:
221,225,207952,1,0,0:0:0:0:
156,174,208049,2,0,L|160:105,1,65.9999979858399
142,183,208244,6,0,L|146:114,1,65.9999979858399
61,142,208439,1,0,0:0:0:0:
70,19,208536,1,0,0:0:0:0:
196,41,208634,2,0,P|268:45|331:38,1,131.99999597168
432,154,209023,1,0,0:0:0:0:
398,297,209218,5,0,0:0:0:0:
299,90,217010,5,0,0:0:0:0:
465,75,217375,1,0,0:0:0:0:
397,14,217741,5,0,0:0:0:0:
434,205,218107,1,0,0:0:0:0:
228,153,218473,5,0,0:0:0:0:
465,75,218839,1,0,0:0:0:0:
397,14,219205,5,0,0:0:0:0:
341,263,219570,1,0,0:0:0:0:
473,164,219936,2,0,P|474:135|466:107,2,55
372,142,220211,1,0,0:0:0:0:
372,142,220302,2,0,L|340:98,1,55
256,50,220485,1,0,0:0:0:0:
223,41,220577,1,0,0:0:0:0:
190,47,220668,2,0,P|185:76|189:103,1,55
103,170,220851,2,0,P|108:141|104:114,1,55
204,201,221034,1,0,0:0:0:0:
192,170,221125,1,0,0:0:0:0:
164,151,221217,1,0,0:0:0:0:
131,155,221308,1,0,0:0:0:0:
102,171,221400,6,0,P|93:205|96:227,1,55
186,286,221583,2,0,P|195:252|192:230,1,55
275,347,221766,2,0,L|337:333,1,55
417,340,221949,2,0,L|478:327,1,55
217,347,222131,6,0,L|304:329,1,82.5000031471254
413,321,222314,2,0,L|501:304,1,82.5000031471254
347,250,222497,6,0,L|284:242,1,55
275,230,222680,2,0,L|330:237,1,55
431,197,222863,6,0,P|440:168|440:142,1,55
415,35,223046,2,0,P|444:53|476:59,1,55
324,17,223229,1,0,0:0:0:0:
291,22,223320,1,0,0:0:0:0:
263,40,223412,1,0,0:0:0:0:
243,66,223503,1,0,0:0:0:0:
236,98,223595,2,0,P|229:72|208:45,1,55
121,22,223778,2,0,P|96:20|68:28,1,55
29,114,223961,1,0,0:0:0:0:
29,114,224052,1,0,0:0:0:0:
1,189,224144,2,0,L|63:182,1,55
153,218,224327,6,0,L|149:159,1,55
70,277,224510,2,0,L|74:336,1,55
254,178,224692,2,0,L|250:119,1,55
239,288,224875,2,0,L|243:347,1,55
266,166,225058,6,0,L|260:81,1,82.5000031471254
251,276,225241,2,0,L|256:358,1,82.5000031471254
347,238,225424,5,0,0:0:0:0:
380,234,225516,1,0,0:0:0:0:
412,231,225607,2,0,L|471:225,1,55
251,276,225790,6,0,P|257:253|254:223,1,55
172,241,225973,2,0,P|171:217|161:189,1,55
62,161,226156,1,0,0:0:0:0:
94,166,226247,1,0,0:0:0:0:
127,163,226339,1,0,0:0:0:0:
157,152,226430,1,0,0:0:0:0:
184,133,226522,2,0,P|193:105|192:78,1,55
289,70,226705,2,0,P|281:39|266:15,1,55
265,147,226888,1,0,0:0:0:0:
265,147,226979,1,0,0:0:0:0:
345,158,227070,2,0,P|374:154|400:146,1,55
473,19,227253,6,0,P|457:44|450:72,1,55
432,149,227436,2,0,P|429:182|433:208,1,55
491,304,227619,2,0,P|467:296|436:293,1,55
350,313,227802,2,0,P|325:319|298:334,1,55
503,301,227985,6,0,P|465:288|423:286,1,82.5000031471254
348,305,228168,2,0,P|305:319|276:343,1,82.5000031471254
195,384,228351,1,0,0:0:0:0:
188,351,228442,1,0,0:0:0:0:
167,324,228534,2,0,P|146:305|120:295,1,55
25,298,228717,6,0,P|35:273|38:245,1,55
43,102,228900,2,0,P|33:127|30:155,1,55
145,117,229083,1,0,0:0:0:0:
153,85,229174,1,0,0:0:0:0:
149,52,229266,2,0,P|142:22|132:1,1,55
236,71,229449,2,0,P|270:74|294:71,1,55
371,49,229631,2,0,P|399:27|412:9,1,55
437,119,229814,2,0,P|432:148|436:177,1,55
449,165,229997,2,0,P|451:137|446:110,1,55
362,222,230180,5,0,0:0:0:0:
363,255,230272,1,0,0:0:0:0:
374,285,230363,1,0,0:0:0:0:
393,311,230455,1,0,0:0:0:0:
421,326,230546,2,0,P|449:325|476:319,1,55
260,351,230729,2,0,P|289:353|315:351,1,55
412,334,230912,6,0,P|459:328|496:315,1,82.5000031471254
244,354,231095,2,0,P|291:360|329:355,1,82.5000031471254
189,287,231278,5,0,0:0:0:0:
156,289,231369,1,0,0:0:0:0:
125,302,231461,2,0,P|113:326|110:353,1,55
173,206,231644,6,0,P|175:173|172:150,1,55
124,74,231827,2,0,P|105:55|76:40,1,55
219,74,232009,2,0,P|246:81|272:78,1,55
294,76,232192,2,0,P|267:69|240:72,1,55
379,101,232375,2,0,L|385:42,1,55
466,70,232558,2,0,L|472:11,1,55
398,191,232741,1,0,0:0:0:0:
411,221,232833,1,0,0:0:0:0:
433,244,232924,1,0,0:0:0:0:
462,259,233016,1,0,0:0:0:0:
494,261,233107,6,0,P|477:284|471:309,1,55
394,383,233290,2,0,P|395:358|388:330,1,55
174,286,233473,2,0,L|174:344,1,55
282,378,233656,2,0,L|282:318,1,55
163,251,233839,6,0,L|162:341,1,82.5000031471254
269,384,234022,2,0,L|269:301,1,82.5000031471254
258,192,234205,5,0,0:0:0:0:
258,192,234296,1,0,0:0:0:0:
164,160,234388,2,0,P|136:162|108:159,1,55
200,31,234570,5,0,0:0:0:0:
232,39,234662,1,0,0:0:0:0:
260,54,234753,2,0,P|267:80|268:108,1,55
363,97,234936,2,0,P|365:126|362:151,1,55
374,109,235119,2,0,P|372:138|366:163,1,55
453,212,235302,1,0,0:0:0:0:
441,243,235394,1,0,0:0:0:0:
421,269,235485,1,0,0:0:0:0:
392,286,235577,1,0,0:0:0:0:
360,294,235668,2,0,P|336:300|305:297,1,55
252,374,235851,2,0,P|233:357|217:330,1,55
208,224,236034,5,0,0:0:0:0:
208,224,236125,1,0,0:0:0:0:
202,133,236217,2,0,L|206:77,1,55
318,24,236400,2,0,L|314:83,1,55
331,160,236583,2,0,L|327:219,1,55
325,5,236766,6,0,L|319:92,1,82.5000031471254
338,173,236949,2,0,L|331:260,1,82.5000031471254
224,289,237131,6,0,P|199:295|168:293,1,55
362,255,237314,1,0,0:0:0:0:
393,266,237406,1,0,0:0:0:0:
417,287,237497,2,0,P|420:317|410:344,1,55
217,371,237680,2,0,P|213:346|217:315,1,55
321,196,237863,1,0,0:0:0:0:
330,209,237955,1,0,0:0:0:0:
335,224,238046,1,0,0:0:0:0:
335,240,238138,1,0,0:0:0:0:
331,255,238229,2,0,P|322:288|310:306,1,55
226,290,238412,2,0,P|203:303|175:312,1,55
95,242,238595,1,0,0:0:0:0:
95,242,238686,1,0,0:0:0:0:
75,338,238778,2,0,P|55:362|31:375,1,55
69,149,238961,6,0,L|75:92,1,55
168,128,239144,2,0,L|174:71,1,55
302,145,239327,2,0,L|304:207,1,55
452,163,239509,2,0,L|454:225,1,55
313,159,239692,6,0,L|317:241,1,82.5000031471254
466,174,239875,2,0,L|470:256,1,82.5000031471254
429,335,240058,6,0,P|433:304|444:279,1,55
326,319,240241,2,0,P|330:288|341:263,1,55
222,324,240424,5,0,0:0:0:0:
192,339,240516,1,0,0:0:0:0:
159,345,240607,1,0,0:0:0:0:
125,344,240699,1,0,0:0:0:0:
93,333,240790,2,0,L|91:279,1,55
35,206,240973,2,0,L|66:157,1,55
91,71,241156,2,0,L|148:60,1,55
162,66,241339,2,0,L|107:76,1,55
256,24,241522,1,0,0:0:0:0:
269,53,241613,1,0,0:0:0:0:
356,54,241705,2,0,L|351:113,1,55
432,129,241888,5,0,0:0:0:0:
441,160,241979,1,0,0:0:0:0:
424,188,242071,1,0,0:0:0:0:
449,208,242162,1,0,0:0:0:0:
456,239,242253,2,0,P|451:269|429:278,1,55
269,348,242436,2,0,P|274:318|296:309,1,55
458,256,242619,6,0,P|435:288|393:260,1,82.5000031471254
264,333,242802,2,0,P|287:301|329:329,1,82.5000031471254
176,372,242985,5,0,0:0:0:0:
170,356,243077,1,0,0:0:0:0:
167,339,243168,1,0,0:0:0:0:
168,322,243259,1,0,0:0:0:0:
173,306,243351,2,0,P|183:283|206:260,1,55
183,293,243534,2,0,P|202:273|229:261,1,55
127,204,243717,2,0,P|118:173|101:152,1,55
140,179,243900,2,0,P|120:159|96:148,1,55
190,65,244083,1,0,0:0:0:0:
220,53,244174,1,0,0:0:0:0:
253,53,244266,1,0,0:0:0:0:
284,61,244357,1,0,0:0:0:0:
309,82,244449,2,0,P|319:115|316:138,1,55
432,43,244631,2,0,P|402:36|381:20,1,55
418,193,244814,5,0,0:0:0:0:
420,226,244906,1,0,0:0:0:0:
422,258,244997,1,0,0:0:0:0:
423,291,245089,1,0,0:0:0:0:
426,323,245180,2,0,P|400:328|372:330,1,55
260,249,245363,2,0,P|287:248|315:253,1,55
105,377,245546,6,0,L|101:290,1,82.5000031471254
229,188,245729,2,0,L|221:270,1,82.5000031471254
114,301,245912,6,0,L|115:238,1,55
219,135,246095,2,0,L|211:194,1,55
127,45,246278,1,0,0:0:0:0:
154,41,246369,1,0,0:0:0:0:
181,37,246461,1,0,0:0:0:0:
208,34,246552,1,0,0:0:0:0:
271,79,246644,5,0,0:0:0:0:
292,82,246735,1,0,0:0:0:0:
313,85,246827,1,0,0:0:0:0:
334,88,246918,1,0,0:0:0:0:
355,92,247009,2,0,L|356:152,1,55
446,121,247192,2,0,L|446:183,1,55
365,112,247375,2,0,L|366:172,1,55
456,141,247558,2,0,L|456:203,1,55
461,296,247741,5,0,0:0:0:0:
444,318,247833,1,0,0:0:0:0:
419,329,247924,1,0,0:0:0:0:
391,329,248016,1,0,0:0:0:0:
321,293,248107,5,0,0:0:0:0:
303,307,248199,1,0,0:0:0:0:
282,313,248290,1,0,0:0:0:0:
260,313,248381,1,0,0:0:0:0:
176,270,248473,6,0,P|175:298|166:325,1,55
86,299,248656,2,0,P|81:325|67:351,1,55
29,198,248839,1,0,0:0:0:0:
45,196,248930,1,0,0:0:0:0:
61,194,249022,1,0,0:0:0:0:
77,193,249113,1,0,0:0:0:0:
93,192,249205,5,0,0:0:0:0:
80,68,256522,6,0,L|208:84,1,123.750004720688
313,70,256862,2,0,L|317:20,1,41.2500015735627
221,85,257033,2,0,L|226:133,1,41.2500015735627
324,182,257203,6,0,L|336:50,1,123.750004720688
316,28,257544,2,0,L|271:27,1,41.2500015735627
433,84,257715,2,0,L|481:78,1,41.2500015735627
461,174,257885,6,0,L|471:306,1,123.750004720688
388,321,258226,2,0,L|403:360,1,41.2500015735627
370,239,258397,2,0,L|331:252,1,41.2500015735627
176,328,258567,6,0,L|304:335,1,123.750004720688
264,320,258908,2,0,L|260:275,1,41.2500015735627
139,333,259078,2,0,L|146:380,1,41.2500015735627
159,222,259249,5,0,0:0:0:0:
151,190,259334,1,0,0:0:0:0:
131,163,259419,1,0,0:0:0:0:
103,145,259504,1,0,0:0:0:0:
69,143,259590,2,0,P|78:116|80:89,1,55
119,70,259760,2,0,P|118:37|114:14,1,55
207,94,259931,2,0,L|263:88,1,55
392,130,260101,2,0,L|450:123,1,55
356,29,260272,1,0,0:0:0:0:
339,57,260357,1,0,0:0:0:0:
342,89,260442,1,0,0:0:0:0:
360,116,260527,1,0,0:0:0:0:
392,130,260612,6,0,L|450:123,1,55
261,88,260783,2,0,L|207:94,1,55
309,174,260953,1,0,0:0:0:0:
272,0,261124,1,0,0:0:0:0:
127,36,261294,1,0,0:0:0:0:
115,67,261379,1,0,0:0:0:0:
112,100,261465,1,0,0:0:0:0:
118,132,261550,1,0,0:0:0:0:
137,158,261635,2,0,P|162:150|173:123,1,55
35,172,261806,5,0,0:0:0:0:
39,221,261891,1,0,0:0:0:0:
44,270,261976,6,0,L|47:335,1,55
81,338,262147,2,0,L|113:383,1,55
231,381,262317,1,0,0:0:0:0:
253,356,262402,1,0,0:0:0:0:
260,323,262487,1,0,0:0:0:0:
251,290,262573,1,0,0:0:0:0:
227,266,262658,2,0,P|242:237|245:213,1,55
231,381,262828,2,0,P|266:383|290:374,1,55
369,301,262999,1,0,0:0:0:0:
378,332,263084,1,0,0:0:0:0:
399,357,263169,1,0,0:0:0:0:
426,374,263254,1,0,0:0:0:0:
458,380,263340,6,0,P|493:382|517:373,1,55
473,278,263510,2,0,P|488:249|491:225,1,55
387,215,263681,1,0,0:0:0:0:
490,197,263851,2,0,P|489:164|480:141,1,55
378,111,264022,1,0,0:0:0:0:
345,111,264107,1,0,0:0:0:0:
312,111,264192,1,0,0:0:0:0:
279,113,264277,1,0,0:0:0:0:
246,115,264362,2,0,L|258:183,1,55
178,57,264533,5,0,0:0:0:0:
147,25,264618,1,0,0:0:0:0:
104,13,264703,6,0,P|78:7|50:8,1,55
91,20,264874,2,0,P|60:21|30:32,1,55
28,137,265044,1,0,0:0:0:0:
56,119,265129,1,0,0:0:0:0:
68,88,265215,1,0,0:0:0:0:
60,56,265300,1,0,0:0:0:0:
38,29,265385,6,0,P|15:44|0:66,1,55
138,133,265556,2,0,P|168:133|197:127,1,55
112,156,265725,1,0,0:0:0:0:
102,185,265811,1,0,0:0:0:0:
107,214,265896,1,0,0:0:0:0:
123,243,265982,1,0,0:0:0:0:
151,259,266067,6,0,P|168:227|170:207,1,55
256,307,266237,2,0,P|251:333|253:361,1,55
165,329,266408,6,0,L|162:268,1,55
271,367,266578,2,0,L|330:361,1,55
255,272,266749,2,0,L|252:212,1,55
354,275,266919,1,0,0:0:0:0:
386,271,267004,1,0,0:0:0:0:
417,260,267090,2,0,P|420:232|415:203,1,55
319,65,267260,5,0,0:0:0:0:
327,113,267345,1,0,0:0:0:0:
334,162,267431,6,0,L|385:137,1,55
418,70,267601,2,0,L|475:47,1,55
312,17,267772,1,0,0:0:0:0:
279,24,267857,1,0,0:0:0:0:
251,42,267942,1,0,0:0:0:0:
220,30,268027,1,0,0:0:0:0:
187,26,268112,2,0,P|165:18|132:16,1,55
124,165,268283,2,0,P|136:143|141:111,1,55
0,93,268453,2,0,P|24:107|55:116,3,55
124,165,268794,6,0,P|136:143|141:111,1,55
30,205,268965,2,0,P|18:227|13:259,1,55
146,180,269135,2,0,P|152:152|149:123,1,55
37,269,269306,2,0,P|31:297|34:326,1,55
136,357,269476,1,0,0:0:0:0:
168,355,269561,1,0,0:0:0:0:
201,353,269647,1,0,0:0:0:0:
233,352,269732,1,0,0:0:0:0:
265,351,269817,2,0,L|263:295,1,55
357,346,269987,5,0,0:0:0:0:
406,344,270073,1,0,0:0:0:0:
455,343,270158,6,0,L|453:288,1,55
263,296,270328,2,0,L|265:351,1,55
387,200,270499,1,0,0:0:0:0:
358,183,270584,1,0,0:0:0:0:
325,179,270669,1,0,0:0:0:0:
294,190,270754,1,0,0:0:0:0:
274,217,270840,2,0,L|275:272,1,55
409,228,271010,2,0,L|408:173,1,55
312,20,271181,1,0,0:0:0:0:
311,52,271266,1,0,0:0:0:0:
311,84,271351,1,0,0:0:0:0:
311,116,271436,1,0,0:0:0:0:
311,149,271522,6,0,L|309:207,1,55
459,110,271692,2,0,L|460:55,1,55
341,173,271862,2,0,L|349:229,1,55
435,55,272033,2,0,L|422:2,1,55
318,64,272203,1,0,0:0:0:0:
285,70,272289,1,0,0:0:0:0:
259,91,272374,1,0,0:0:0:0:
243,120,272459,1,0,0:0:0:0:
241,152,272544,2,0,B|246:182|246:182|260:205,1,55
293,300,272715,5,0,0:0:0:0:
294,349,272800,1,0,0:0:0:0:
256,380,272885,6,0,L|199:375,1,55
123,366,273056,2,0,L|66:361,1,55
109,287,273226,1,0,0:0:0:0:
140,276,273311,1,0,0:0:0:0:
172,268,273397,1,0,0:0:0:0:
201,281,273482,1,0,0:0:0:0:
229,297,273567,2,0,L|230:353,1,55
78,279,273737,2,0,L|76:223,1,55
219,141,273908,2,0,L|213:199,3,55
289,67,274249,6,0,L|331:31,1,55
391,88,274419,2,0,L|448:72,1,55
462,159,274590,2,0,L|512:181,1,55
483,261,274760,2,0,L|498:315,1,55
383,368,274931,2,0,L|387:305,1,55
361,368,275101,2,0,L|365:310,1,55
266,332,275272,5,0,0:0:0:0:
234,322,275357,1,0,0:0:0:0:
166,355,275442,5,0,0:0:0:0:
117,348,275527,1,0,0:0:0:0:
59,290,275612,6,0,P|56:259|60:235,1,55
19,167,275783,2,0,P|25:136|35:113,1,55
108,46,275953,1,0,0:0:0:0:
140,38,276039,1,0,0:0:0:0:
172,37,276124,1,0,0:0:0:0:
204,43,276209,1,0,0:0:0:0:
228,64,276294,2,0,P|202:79|177:83,1,55
339,41,276465,2,0,P|365:26|390:22,1,55
339,191,276635,2,0,P|319:168|305:138,3,55
457,98,276976,6,0,P|435:111|407:119,1,55
441,222,277147,2,0,P|469:230|493:245,1,55
498,158,277317,2,0,P|490:131|491:100,1,55
489,277,277487,2,0,P|486:305|476:333,1,55
379,360,277658,1,0,0:0:0:0:
347,350,277743,1,0,0:0:0:0:
327,323,277828,1,0,0:0:0:0:
305,348,277914,1,0,0:0:0:0:
273,358,277999,2,0,P|242:362|215:354,1,55
161,265,278169,5,0,0:0:0:0:
148,312,278254,1,0,0:0:0:0:
117,352,278340,6,0,P|92:360|64:358,1,55
30,378,278510,2,0,L|22:321,1,55
11,235,278681,1,0,0:0:0:0:
14,202,278766,1,0,0:0:0:0:
17,169,278851,1,0,0:0:0:0:
20,136,278936,1,0,0:0:0:0:
23,102,279022,2,0,P|50:96|77:98,1,55
151,8,279192,2,0,P|124:14|97:12,1,55
233,42,279362,1,0,0:0:0:0:
208,64,279448,1,0,0:0:0:0:
178,78,279533,1,0,0:0:0:0:
146,86,279618,1,0,0:0:0:0:
113,87,279703,6,0,P|86:87|59:78,1,55
252,14,279874,2,0,P|279:14|306:23,1,55
269,166,280044,2,0,L|263:107,1,55
406,18,280215,2,0,L|401:79,1,55
406,178,280385,1,0,0:0:0:0:
383,201,280470,1,0,0:0:0:0:
351,210,280556,1,0,0:0:0:0:
318,210,280641,1,0,0:0:0:0:
289,193,280726,2,0,L|285:133,1,55
464,250,280897,5,0,0:0:0:0:
465,299,280982,1,0,0:0:0:0:
440,342,281067,6,0,P|423:362|398:375,1,55
351,316,281237,2,0,P|357:340|354:371,1,55
255,341,281408,2,0,P|248:314|251:287,1,55
175,367,281578,2,0,P|192:346|217:333,1,55
90,363,281749,2,0,P|92:337|103:308,1,55
39,238,281919,2,0,P|59:222|86:214,1,55
203,221,282090,1,0,0:0:0:0:
176,240,282175,1,0,0:0:0:0:
143,246,282260,1,0,0:0:0:0:
112,235,282345,1,0,0:0:0:0:
86,213,282431,6,0,L|90:154,1,55
110,79,282601,2,0,L|114:23,1,55
278,135,282772,2,0,L|221:132,1,55
179,129,282942,2,0,L|120:125,1,55
215,51,283112,1,0,0:0:0:0:
248,49,283198,1,0,0:0:0:0:
280,48,283283,1,0,0:0:0:0:
312,47,283368,1,0,0:0:0:0:
344,48,283453,2,0,L|347:105,1,55
422,37,283624,5,0,0:0:0:0:
461,7,283709,1,0,0:0:0:0:
508,20,283794,6,0,P|512:48|508:77,1,55
479,155,283965,2,0,P|483:126|489:97,1,55
502,232,284135,1,0,0:0:0:0:
498,264,284220,1,0,0:0:0:0:
485,295,284306,1,0,0:0:0:0:
463,319,284391,1,0,0:0:0:0:
432,332,284476,2,0,L|376:325,1,55
303,363,284647,2,0,L|247:356,1,55
296,274,284817,1,0,0:0:0:0:
300,241,284902,1,0,0:0:0:0:
304,208,284987,1,0,0:0:0:0:
309,175,285073,1,0,0:0:0:0:
314,142,285158,6,0,L|321:86,1,55
334,72,285328,2,0,L|328:127,1,55
234,160,285499,6,0,L|241:104,1,55
414,55,285669,2,0,L|407:109,1,55
328,127,285840,1,0,0:0:0:0:
295,124,285925,1,0,0:0:0:0:
262,121,286010,1,0,0:0:0:0:
229,118,286095,1,0,0:0:0:0:
195,116,286181,1,0,0:0:0:0:
291,29,286351,1,0,0:0:0:0:
360,217,286522,6,0,B|364:278|364:335|335:377|285:376|244:348|233:304|254:258|298:239|346:247|377:274|369:348|403:360|462:310|496:308|509:258|488:203,1,522.5
402,222,288226,2,0,L|421:241,2,27.5
489,207,288482,6,0,B|532:127|461:68|400:101|400:101|410:69|398:36,1,247.5
289,74,289334,2,0,L|327:70,2,27.5
116,37,289590,6,0,P|101:104|258:81,1,302.5
180,86,290612,6,0,B|153:220|153:220|243:354|243:354|297:291|297:291|255:221|255:221|136:340|136:340|76:258|76:258|13:309|13:309|53:366,1,880
406,372,293681,6,0,B|443:258|443:258|366:231|366:231|410:120|410:120|304:82|304:82|265:180|265:180|152:143|152:143|170:85,1,715
76,313,296067,6,0,B|106:266|106:266|153:294,1,110
76,313,296578,2,0,B|124:339|124:339|198:221|198:221|242:245|242:245|265:206|265:206|323:240|323:240|298:281|298:281|333:304|333:304|306:352|306:352|359:383|359:383|383:342,1,605
423,185,298794,6,0,B|417:130|417:130|474:115|474:115|431:88|431:88|430:27|430:27|378:67|378:67|336:50|336:50|359:101|359:101|319:135|319:135|222:127|222:127|209:36|209:36|126:45|126:45|136:121|136:121|172:117,1,825
88,268,301522,5,0,0:0:0:0:
88,268,301756,1,0,0:0:0:0:
91,295,301873,1,0,0:0:0:0:
96,321,301990,2,0,P|130:323|153:323,1,55
227,352,302225,1,0,0:0:0:0:
336,353,302459,5,0,0:0:0:0:
227,352,302693,1,0,0:0:0:0:
254,352,302811,1,0,0:0:0:0:
281,352,302928,2,0,L|338:353,1,55
420,375,303162,2,0,L|454:328,1,55
376,273,303397,5,0,0:0:0:0:
376,273,303631,1,0,0:0:0:0:
382,246,303748,1,0,0:0:0:0:
385,218,303865,2,0,P|383:183|377:161,1,55
270,128,304100,2,0,P|272:163|278:185,1,55
400,82,304334,5,0,0:0:0:0:
348,25,304451,1,0,0:0:0:0:
271,14,304568,1,0,0:0:0:0:
198,38,304686,1,0,0:0:0:0:
155,100,304803,2,0,P|91:62|30:116,1,165
155,100,305272,6,0,P|161:134|161:162,1,55
99,249,305506,2,0,P|74:256|44:257,1,55
235,232,305740,2,0,P|260:225|290:224,1,55
167,325,305975,1,0,0:0:0:0:
167,325,306209,5,0,0:0:0:0:
243,310,306326,1,0,0:0:0:0:
323,323,306443,1,0,0:0:0:0:
392,369,306561,1,0,0:0:0:0:
397,288,306678,1,0,0:0:0:0:
476,291,306795,1,0,0:0:0:0:
471,372,306912,5,0,0:0:0:0:
397,288,307029,1,0,0:0:0:0:
391,187,307147,6,0,P|412:135|463:116,1,110
321,134,307498,1,0,0:0:0:0:
241,126,307615,2,0,L|178:121,1,55
325,10,307850,2,0,L|387:6,1,55
270,199,308084,5,0,0:0:0:0:
241,126,308201,1,0,0:0:0:0:
255,48,308318,1,0,0:0:0:0:
325,10,308436,1,0,0:0:0:0:
400,10,308553,2,0,P|434:25|452:39,1,55
380,210,308787,5,0,0:0:0:0:
352,121,308904,1,0,0:0:0:0:
461,54,309022,6,0,L|452:191,1,110
380,210,309373,1,0,0:0:0:0:
416,300,309490,2,0,L|473:275,1,55
310,362,309725,2,0,L|253:346,1,55
148,220,309959,5,0,0:0:0:0:
148,220,310076,1,0,0:0:0:0:
110,367,310193,5,0,0:0:0:0:
110,367,310311,1,0,0:0:0:0:
180,305,310428,6,0,L|123:292,1,55
276,215,310662,1,0,0:0:0:0:
342,189,310779,1,0,0:0:0:0:
416,202,310897,6,0,P|461:166|465:112,1,110
342,189,311248,1,0,0:0:0:0:
368,259,311365,1,0,0:0:0:0:
416,202,311482,1,0,0:0:0:0:
392,134,311600,2,0,P|346:114|291:135,1,110
342,189,311951,5,0,0:0:0:0:
392,134,312068,1,0,0:0:0:0:
370,65,312186,1,0,0:0:0:0:
294,36,312303,2,0,L|237:41,1,55
204,135,312537,2,0,L|268:130,1,55
156,35,312772,6,0,L|171:150,1,110
184,214,313123,1,0,0:0:0:0:
227,337,313240,2,0,L|286:333,1,55
164,289,313475,2,0,L|109:291,1,55
227,337,313709,5,0,0:0:0:0:
296,354,313826,1,0,0:0:0:0:
365,338,313943,1,0,0:0:0:0:
434,355,314061,1,0,0:0:0:0:
487,307,314178,5,0,0:0:0:0:
484,162,314295,1,0,0:0:0:0:
483,295,314412,5,0,0:0:0:0:
476,151,314529,1,0,0:0:0:0:
408,93,314647,6,0,P|348:99|297:93,1,110
175,72,314998,1,0,0:0:0:0:
205,3,315115,6,0,L|264:-1,1,55
151,145,315350,1,0,0:0:0:0:
151,145,315584,5,0,0:0:0:0:
175,72,315701,1,0,0:0:0:0:
205,3,315818,2,0,L|264:-1,1,55
101,88,316053,2,0,L|47:83,1,55
229,134,316287,2,0,P|227:164|216:190,1,55
143,324,316522,6,0,P|133:272|137:211,1,110
151,145,316873,1,0,0:0:0:0:
136,215,316990,2,0,P|124:237|102:260,1,55
255,359,317225,2,0,P|267:337|289:314,1,55
380,289,317459,1,0,0:0:0:0:
381,307,317576,1,0,0:0:0:0:
379,325,317693,1,0,0:0:0:0:
374,342,317810,1,0,0:0:0:0:
316,214,317928,6,0,L|322:159,1,55
342,17,318162,2,0,L|349:75,1,55
461,192,318397,6,0,P|416:151|491:165,1,197.99999395752
457,330,318865,2,0,L|401:342,1,43.9999986572266
239,367,319022,2,0,L|230:320,1,43.9999986572266
223,137,319178,2,0,L|269:126,1,43.9999986572266
239,367,319334,6,0,P|194:359|119:358,1,65.9999979858399
131,349,319568,1,0,0:0:0:0:
309,283,319647,6,0,P|357:270|411:264,1,87.9999973144532
381,261,319881,1,0,0:0:0:0:
131,349,319959,6,0,P|95:343|76:344,1,43.9999986572266
252,212,320115,2,0,P|272:204|298:201,1,43.9999986572266
63,361,320272,6,0,P|58:288|50:248,1,110
36,177,320623,1,0,0:0:0:0:
9,103,320740,2,0,L|61:88,1,55
208,227,320975,2,0,P|174:235|150:239,1,55
36,177,321209,5,0,0:0:0:0:
113,165,321326,1,0,0:0:0:0:
127,241,321443,1,0,0:0:0:0:
50,251,321560,1,0,0:0:0:0:
105,132,321678,5,0,0:0:0:0:
229,105,321795,1,0,0:0:0:0:
133,270,321912,1,0,0:0:0:0:
262,244,322029,1,0,0:0:0:0:
183,356,322147,6,0,P|119:370|66:350,1,110
262,244,322498,1,0,0:0:0:0:
320,309,322615,2,0,L|318:363,1,55
229,105,322850,1,0,0:0:0:0:
229,105,323084,5,0,0:0:0:0:
286,165,323201,1,0,0:0:0:0:
262,244,323318,1,0,0:0:0:0:
320,309,323435,1,0,0:0:0:0:
183,356,323553,2,0,P|181:332|183:301,1,55
286,165,323787,5,0,0:0:0:0:
383,197,323904,1,0,0:0:0:0:
449,92,324022,6,0,L|328:104,1,110
286,165,324373,1,0,0:0:0:0:
229,105,324490,2,0,P|198:106|172:113,1,55
286,165,324725,5,0,0:0:0:0:
339,102,324842,1,0,0:0:0:0:
282,45,324959,2,0,P|260:29|232:25,1,55
99,160,325193,2,0,P|65:166|38:164,1,55
79,7,325428,5,0,0:0:0:0:
202,212,325662,1,0,0:0:0:0:
214,293,325779,1,0,0:0:0:0:
147,358,325897,6,0,P|79:372|37:366,1,110
214,293,326248,1,0,0:0:0:0:
147,358,326365,2,0,P|129:336|122:307,1,55
281,238,326600,1,0,0:0:0:0:
281,238,326834,5,0,0:0:0:0:
214,293,326951,1,0,0:0:0:0:
202,212,327068,1,0,0:0:0:0:
346,186,327186,1,0,0:0:0:0:
368,343,327303,1,0,0:0:0:0:
368,343,327537,5,0,0:0:0:0:
346,186,327654,1,0,0:0:0:0:
441,108,327772,6,0,L|434:225,1,110
432,295,328123,1,0,0:0:0:0:
368,343,328240,2,0,P|339:351|312:352,1,55
269,152,328475,2,0,P|245:135|211:128,1,55
276,235,328709,1,0,0:0:0:0:
214,293,328826,1,0,0:0:0:0:
130,282,328943,1,0,0:0:0:0:
89,209,329061,1,0,0:0:0:0:
182,58,329178,5,0,0:0:0:0:
182,58,329295,1,0,0:0:0:0:
14,14,329412,5,0,0:0:0:0:
14,14,329529,1,0,0:0:0:0:
160,148,329647,6,0,P|225:158|283:147,1,110
385,144,329998,1,0,0:0:0:0:
361,231,330115,2,0,P|329:235|302:232,1,55
224,228,330350,1,0,0:0:0:0:
224,228,330584,5,0,0:0:0:0:
228,269,330701,1,0,0:0:0:0:
333,346,330818,5,0,0:0:0:0:
320,384,330936,1,0,0:0:0:0:
136,365,331053,5,0,0:0:0:0:
136,365,331287,1,0,0:0:0:0:
227,377,331404,1,0,0:0:0:0:
319,384,331522,6,0,L|332:254,1,110
420,233,331873,1,0,0:0:0:0:
411,321,331990,5,0,0:0:0:0:
420,233,332107,1,0,0:0:0:0:
424,140,332225,1,0,0:0:0:0:
430,52,332342,1,0,0:0:0:0:
322,0,332459,6,0,L|331:68,1,55
315,198,332693,2,0,L|328:143,1,55
136,92,332928,6,0,P|197:106|256:94,1,110
244,243,333279,1,0,0:0:0:0:
172,280,333397,2,0,L|3:251,1,165
244,243,333865,6,0,B|265:237|265:237|290:244,1,43.9999986572266
401,345,334022,2,0,B|424:353|424:353|446:342,1,43.9999986572266
435,129,334178,2,0,B|412:121|412:121|390:132,1,43.9999986572266
419,274,334334,6,0,L|416:204,1,65.9999979858399
416,197,334568,1,0,0:0:0:0:
316,54,334647,6,0,L|320:148,1,87.9999973144532
322,156,334881,1,0,0:0:0:0:
281,318,334959,6,0,B|305:323|305:323|334:315,1,43.9999986572266
216,169,335115,2,0,B|192:164|192:164|163:172,1,43.9999986572266
110,352,335272,6,0,P|164:374|219:359,1,110
281,318,335623,1,0,0:0:0:0:
301,242,335740,2,0,L|292:181,1,55
281,318,335975,5,0,0:0:0:0:
356,343,336092,1,0,0:0:0:0:
435,366,336209,2,0,L|492:358,1,55
431,168,336443,2,0,L|376:175,1,55
281,318,336678,5,0,0:0:0:0:
281,318,336795,1,0,0:0:0:0:
449,253,336912,5,0,0:0:0:0:
449,253,337029,1,0,0:0:0:0:
370,87,337147,6,0,P|313:84|261:75,1,110
111,132,337498,1,0,0:0:0:0:
190,158,337615,2,0,P|222:153|247:146,1,55
276,0,337850,1,0,0:0:0:0:
276,0,338084,5,0,0:0:0:0:
192,24,338201,1,0,0:0:0:0:
111,132,338318,5,0,0:0:0:0:
27,113,338436,1,0,0:0:0:0:
142,258,338553,6,0,P|214:266|258:243,1,110
314,210,338904,1,0,0:0:0:0:
483,156,339022,6,0,P|411:148|367:171,1,110
314,210,339373,1,0,0:0:0:0:
316,288,339490,2,0,P|350:307|373:307,1,55
307,131,339725,2,0,P|273:112|250:112,1,55
314,210,339959,5,0,0:0:0:0:
378,162,340076,1,0,0:0:0:0:
370,84,340193,2,0,P|362:48|352:31,1,55
174,106,340428,1,0,0:0:0:0:
174,106,340662,5,0,0:0:0:0:
307,131,340779,1,0,0:0:0:0:
109,57,340897,6,0,L|-10:63,1,110
174,106,341248,1,0,0:0:0:0:
248,79,341365,2,0,P|271:55|280:31,1,55
99,134,341600,1,0,0:0:0:0:
99,134,341834,5,0,0:0:0:0:
119,208,341951,1,0,0:0:0:0:
19,285,342068,5,0,0:0:0:0:
37,361,342186,1,0,0:0:0:0:
177,373,342303,6,0,P|247:355|296:363,1,110
346,311,342654,1,0,0:0:0:0:
452,297,342772,6,0,P|382:315|333:307,1,110
274,283,343123,1,0,0:0:0:0:
297,207,343240,2,0,P|324:202|352:203,1,55
274,283,343475,1,0,0:0:0:0:
345,310,343592,1,0,0:0:0:0:
283,359,343709,2,0,P|254:359|231:347,1,55
222,166,343943,2,0,P|225:198|216:220,1,55
174,285,344178,5,0,0:0:0:0:
29,353,344295,1,0,0:0:0:0:
157,278,344412,5,0,0:0:0:0:
16,346,344529,1,0,0:0:0:0:
44,173,344647,6,0,L|167:186,1,110
215,0,344998,1,0,0:0:0:0:
276,47,345115,2,0,L|267:101,1,55
216,218,345350,1,0,0:0:0:0:
216,218,345584,5,0,0:0:0:0:
296,203,345701,1,0,0:0:0:0:
397,267,345818,5,0,0:0:0:0:
477,251,345936,1,0,0:0:0:0:
494,330,346053,2,0,P|450:367|394:361,1,110
312,285,346404,1,0,0:0:0:0:
296,203,346522,6,0,L|281:93,1,110
136,56,346873,1,0,0:0:0:0:
219,35,346990,1,0,0:0:0:0:
201,113,347107,1,0,0:0:0:0:
55,81,347225,5,0,0:0:0:0:
71,4,347342,1,0,0:0:0:0:
201,113,347459,6,0,L|196:169,1,55
133,238,347693,2,0,L|140:298,1,55
236,318,347928,1,0,0:0:0:0:
0,352,348162,5,0,0:0:0:0:
16,252,348279,1,0,0:0:0:0:
31,152,348397,2,0,L|195:167,1,165
236,318,348865,6,0,L|231:271,1,43.9999986572266
195,167,349022,2,0,L|241:162,1,43.9999986572266
439,133,349178,2,0,L|446:184,1,43.9999986572266
326,320,349334,6,0,L|249:331,1,65.9999979858399
236,318,349568,1,0,0:0:0:0:
258,146,349647,6,0,L|361:153,1,87.9999973144532
359,153,349881,1,0,0:0:0:0:
465,344,349959,6,0,L|412:347,1,43.9999986572266
439,133,350115,2,0,L|488:131,1,43.9999986572266
373,247,350272,6,0,L|257:240,1,110
236,318,350623,1,0,0:0:0:0:
162,364,350740,2,0,L|106:358,1,55
185,253,350975,1,0,0:0:0:0:
236,318,351092,1,0,0:0:0:0:
162,364,351209,5,0,0:0:0:0:
108,290,351326,1,0,0:0:0:0:
185,253,351443,2,0,P|212:258|237:270,1,55
108,290,351678,5,0,0:0:0:0:
113,201,351795,1,0,0:0:0:0:
189,29,351912,5,0,0:0:0:0:
207,114,352029,1,0,0:0:0:0:
113,201,352147,6,0,P|45:188|9:159,1,110
103,42,352498,1,0,0:0:0:0:
189,29,352615,1,0,0:0:0:0:
189,29,352850,5,0,0:0:0:0:
189,29,352928,2,0,L|234:21,1,36.6666666666667
294,91,353084,6,0,L|287:174,1,73.3333333333333
352,16,353318,1,0,0:0:0:0:
372,13,353396,2,0,L|417:5,1,36.6666666666667
287,164,353553,6,0,L|294:91,1,73.3333333333333
355,222,353787,1,0,0:0:0:0:
351,248,353865,2,0,L|346:290,1,36.6666666666667
261,372,354022,6,0,P|219:375|160:342,1,110
84,363,354373,1,0,0:0:0:0:
100,288,354490,2,0,L|111:232,1,55
128,155,354725,5,0,0:0:0:0:
186,211,354842,1,0,0:0:0:0:
110,234,354959,1,0,0:0:0:0:
54,179,355076,1,0,0:0:0:0:
92,68,355193,2,0,L|148:77,1,55
186,211,355428,1,0,0:0:0:0:
186,211,355662,5,0,0:0:0:0:
54,179,355779,1,0,0:0:0:0:
146,76,355897,6,0,P|202:66|255:77,1,110
321,119,356248,1,0,0:0:0:0:
402,99,356365,2,0,P|414:68|416:43,1,55
382,179,356600,5,0,0:0:0:0:
406,182,356678,2,0,P|427:181|447:170,1,36.6666666666667
306,200,356834,6,0,L|320:298,1,87.9999973144532
322,305,357068,1,0,0:0:0:0:
224,370,357147,6,0,L|176:365,1,43.9999986572266
160,364,357303,1,0,0:0:0:0:
23,264,357381,6,0,L|76:258,1,43.9999986572266
84,256,357537,1,0,0:0:0:0:
195,147,357615,6,0,L|141:143,1,43.9999986572266
137,144,357772,6,0,P|219:143|249:68,1,165
175,78,358240,1,0,0:0:0:0:
175,78,358475,5,0,0:0:0:0:
250,75,358592,1,0,0:0:0:0:
117,16,358709,2,0,L|60:24,1,55
34,158,358943,1,0,0:0:0:0:
108,147,359061,1,0,0:0:0:0:
193,200,359178,5,0,0:0:0:0:
182,276,359295,1,0,0:0:0:0:
101,384,359412,5,0,0:0:0:0:
85,309,359529,1,0,0:0:0:0:
182,276,359647,6,0,P|252:280|294:302,1,110
332,366,359998,1,0,0:0:0:0:
287,297,360115,1,0,0:0:0:0:
287,297,360350,5,0,0:0:0:0:
332,366,360428,2,0,L|377:361,1,36.6666666666667
459,297,360584,6,0,L|467:387,1,87.9999973144532
410,215,360818,1,0,0:0:0:0:
411,192,360897,2,0,L|418:58,1,131.99999597168
432,38,361209,6,0,L|480:34,1,43.9999986572266
265,196,361365,5,0,0:0:0:0:
192,194,361443,5,0,0:0:0:0:
119,192,361522,6,0,B|110:162|110:162|121:93,1,87.9999973144532
124,9,361756,1,0,0:0:0:0:
203,10,361834,6,0,B|198:56,1,43.9999986572266
47,101,361990,6,0,B|38:71|38:71|49:2,1,87.9999973144532
119,192,362225,1,0,0:0:0:0:
48,189,362303,6,0,L|4:187,1,43.9999986572266
22,336,362459,2,0,P|71:352|116:344,1,87.9999973144532
172,322,362693,1,0,0:0:0:0:
239,294,362772,6,0,P|267:289|289:293,1,43.9999986572266
350,327,362928,2,0,P|398:317|445:330,1,87.9999973144532
493,370,363162,1,0,0:0:0:0:
435,325,363240,6,0,P|428:303|426:282,1,43.9999986572266
414,208,363397,2,0,P|413:177|417:152,1,51.3333317667644
247,195,363553,2,0,P|254:134|245:92,1,102.666663533529
417,144,363787,1,0,0:0:0:0:
421,131,363865,2,0,P|435:84|468:40,1,102.666663533529
226,82,364100,2,0,L|119:76,1,102.666663533529
48,0,364334,5,0,0:0:0:0:
162,5,364451,5,0,0:0:0:0:
285,11,364568,5,0,0:0:0:0:
301,19,364647,2,0,B|336:84|336:84|292:151,1,153.999995300293
273,223,364959,5,0,0:0:0:0:
217,165,365037,1,0,0:0:0:0:
196,241,365115,2,0,B|194:269|194:269|205:295,1,51.3333317667644
362,322,365272,6,0,P|321:346|254:343,1,110
185,364,365605,1,0,0:0:0:0:
185,364,365772,6,0,P|151:349|134:322,1,55
203,290,366022,1,0,0:0:0:0:
211,244,366147,1,0,0:0:0:0:
211,199,366272,1,0,0:0:0:0:
166,210,366397,1,0,0:0:0:0:
119,201,366522,1,0,0:0:0:0:
85,169,366647,1,0,0:0:0:0:
71,130,366772,2,0,P|67:98|70:74,1,55
150,64,367022,1,0,0:0:0:0:
137,27,367147,1,0,0:0:0:0:
102,4,367272,6,0,P|161:21|221:4,1,110
281,64,367647,1,0,0:0:0:0:
319,48,367772,2,0,P|351:41|376:40,1,55
496,117,368022,2,0,P|458:108|439:107,1,55
376,180,368272,5,0,0:0:0:0:
410,207,368397,1,0,0:0:0:0:
421,249,368522,1,0,0:0:0:0:
411,294,368647,1,0,0:0:0:0:
382,330,368772,2,0,P|319:339|265:337,1,110
179,242,369147,1,0,0:0:0:0:
151,278,369272,6,0,P|142:307|153:390,1,110
44,256,369822,2,0,P|53:190|45:145,1,110
3,87,370235,1,0,0:0:0:0:
3,87,370372,5,0,0:0:0:0:
41,74,370510,1,0,0:0:0:0:
64,36,370648,1,0,0:0:0:0:
106,50,370785,1,0,0:0:0:0:
143,32,370923,1,0,0:0:0:0:
262,58,371198,1,0,0:0:0:0:
262,58,371382,5,0,0:0:0:0:
300,64,371473,2,0,P|349:68|409:32,1,110
492,0,372024,2,0,P|482:62|500:122,1,110
476,216,372574,1,0,0:0:0:0:
455,181,372712,1,0,0:0:0:0:
424,156,372849,1,0,0:0:0:0:
386,142,372987,1,0,0:0:0:0:
344,140,373125,2,0,P|286:149|233:142,1,110
135,110,373538,1,0,0:0:0:0:
135,110,373675,6,0,P|125:179|129:222,1,110
206,369,374263,2,0,P|216:300|212:257,1,110
212,260,374851,2,0,L|271:263,1,55
332,311,375145,2,0,L|389:313,1,55
457,355,375439,1,0,0:0:0:0:
457,355,375733,2,0,P|467:328|468:300,1,55
421,238,376027,6,0,P|415:183|426:124,1,110
346,14,376616,2,0,P|352:69|341:128,1,110
263,143,377204,2,0,L|198:139,1,55
129,61,377498,2,0,L|183:64,1,55
92,156,377792,1,0,0:0:0:0:
16,20,378086,1,0,0:0:0:0:
92,156,378380,6,0,P|93:221|72:268,1,110
183,250,379018,2,0,P|182:315|203:362,1,110
312,326,379656,2,0,L|305:382,1,55
394,280,379975,2,0,L|402:225,1,55
457,343,380294,1,0,0:0:0:0:
510,199,380614,1,0,0:0:0:0:
322,242,380933,6,0,P|260:240|196:211,1,110
158,161,381571,2,0,P|96:163|32:192,1,110
51,179,382209,2,0,L|56:118,1,55
88,255,382528,2,0,L|83:309,1,55
51,179,382848,1,0,0:0:0:0:
120,53,383167,1,0,0:0:0:0:
253,107,383486,6,0,P|309:116|369:107,1,110
475,58,384183,2,0,P|447:112|450:168,1,110
375,228,384881,2,0,P|407:252|429:256,1,55
512,308,385230,2,0,P|485:320|469:340,1,55
404,384,385579,1,0,0:0:0:0:
375,228,385927,1,0,0:0:0:0:
245,302,386276,6,0,L|131:315,1,110
29,215,386974,1,0,0:0:0:0:
77,96,387323,1,0,0:0:0:0:
223,113,387672,2,0,P|260:113|281:106,1,55
350,73,388020,2,0,P|395:63|415:64,1,55
480,89,388369,1,0,0:0:0:0:
345,153,388718,1,0,0:0:0:0:
280,27,389067,6,0,P|210:12|158:20,1,110
77,96,389836,1,0,0:0:0:0:
175,168,390220,2,0,L|234:157,1,55
77,96,390605,1,0,0:0:0:0:
71,204,390990,1,0,0:0:0:0:
184,247,391374,1,0,0:0:0:0:
178,355,391759,1,0,0:0:0:0:
178,355,392143,6,0,P|243:342|297:356,1,110
385,330,392913,2,0,P|443:339|498:322,1,110
512,154,393682,1,0,0:0:0:0:
512,154,395220,5,0,0:0:0:0:
439,164,395648,1,0,0:0:0:0:
361,174,396077,1,0,0:0:0:0:
288,184,396505,2,0,L|227:193,1,55
210,195,396934,1,0,0:0:0:0:
132,205,397362,1,0,0:0:0:0:
54,215,397791,1,0,0:0:0:0:
2,150,398220,1,0,0:0:0:0:
34,77,398648,5,0,0:0:0:0:
112,92,399131,1,0,0:0:0:0:
190,107,399615,1,0,0:0:0:0:
268,122,400099,1,0,0:0:0:0:
346,137,400583,6,0,L|356:29,1,98.9999969787599
435,9,402518,5,0,0:0:0:0:
429,89,403073,1,0,0:0:0:0:
423,169,403629,1,0,0:0:0:0:
417,249,404184,2,0,L|413:306,1,55
411,329,404740,1,0,0:0:0:0:
330,366,405295,1,0,0:0:0:0:
335,288,405851,1,0,0:0:0:0:
330,366,406406,1,0,0:0:0:0:
260,324,406962,6,0,P|205:319|153:335,3,110
84,366,409570,1,0,0:0:0:0:
84,366,410222,6,0,L|73:305,1,55
146,313,410875,6,0,L|145:253,1,55
216,272,411527,6,0,L|224:217,1,55
256,192,412179,5,0,0:0:0:0:
256,192,412505,12,0,422614,0:0:0:0:
