osu file format v14

[General]
AudioFilename: audio.mp3
AudioLeadIn: 0
PreviewTime: 16980
Countdown: 1
SampleSet: Soft
StackLeniency: 0.7
Mode: 0
LetterboxInBreaks: 0
WidescreenStoryboard: 1

[Editor]
Bookmarks: 5947,16981,27843,39222,49912,60946,72152,83186,83188,94050,105428,117497
DistanceSpacing: 1
BeatDivisor: 2
GridSize: 4
TimelineZoom: 1.399999

[Metadata]
Title:Love All!
TitleUnicode:ラブオール!
Artist:MONACA
ArtistUnicode:MONACA
Creator:AutumnsFall
Version:Normal V2
Source:灼熱の卓球娘
Tags:Anime OST Original Soundtrack Instrumental Scorching Ping Pong Girls Love All! Beatmap|D:0 Shakunetsu no Takkyuu Musume
BeatmapID:1620302
BeatmapSetID:759702

[Difficulty]
HPDrainRate:3.5
CircleSize:3.5
OverallDifficulty:4
ApproachRate:6
SliderMultiplier:1
SliderTickRate:1

[Events]
//Background and Video events
0,0,"__kamiya_agari_and_tsumujikaze_koyori_shakunetsu_no_takkyuu_musume__sample-659a246486b5f913faf340c9d08cc123 2.jpg",0,0
//Break Periods
2,72179,82136
//Storyboard Layer 0 (Background)
//Storyboard Layer 1 (Fail)
//Storyboard Layer 2 (Pass)
//Storyboard Layer 3 (Foreground)
//Storyboard Sound Samples

[TimingPoints]
429,344.827142857141,4,2,0,37,1,0
5947,-100,4,2,0,37,0,0
16980,-90.9090909090909,4,2,0,37,0,0
27842,-83.3333333333333,4,2,0,37,0,0
39221,-100,4,2,0,37,0,0
49910,-90.9090909090909,4,2,0,37,0,0
60945,-83.3333333333333,4,2,0,37,0,0
83186,-100,4,2,0,37,0,0
94048,-90.9090909090909,4,2,0,37,0,0
105428,-83.3333333333333,4,2,0,37,0,1
116462,-83.3333333333333,4,2,0,37,0,0

[Colours]
Combo1 : 185,217,249
Combo2 : 252,218,219
Combo3 : 47,113,193
Combo4 : 255,128,128
Combo5 : 244,188,245
Combo6 : 255,66,66
Combo7 : 215,87,211
Combo8 : 189,33,222

[HitObjects]
0,100,5946,5,2,0:0:0:0:
80,172,6290,1,2,0:0:0:0:
160,96,6635,2,2,B|200:124|200:124|256:92,1,100
368,100,7325,37,2,0:0:0:0:
284,172,7670,1,2,0:0:0:0:
196,240,8015,2,2,B|152:264|152:264|104:240,1,100
32,324,8704,69,2,0:0:0:0:
124,384,9049,1,2,0:0:0:0:
216,324,9394,2,2,B|260:348|260:348|308:324,1,100
404,264,10083,101,2,0:0:0:0:
496,204,10428,2,2,L|484:144,1,50,2|2,0:1|0:0,0:0:0:0:
384,124,10946,2,2,L|372:64,1,50,2|2,0:1|0:0,0:0:0:0:
272,112,11463,53,2,0:0:0:0:
184,176,11808,1,2,0:0:0:0:
100,224,12153,2,2,B|56:252|56:252|8:224,1,100
76,112,12842,69,2,0:0:0:0:
168,172,13187,1,2,0:0:0:0:
264,224,13532,2,2,B|304:248|304:248|360:220,1,100
456,172,14221,101,2,0:0:0:0:
484,268,14566,2,2,L|424:280,1,50,2|2,0:1|0:0,0:0:0:0:
376,360,15084,2,2,L|316:372,1,50,2|2,0:1|0:0,0:0:0:0:
440,136,16980,86,0,P|416:75|344:68,1,110.000003356934,6|2,0:0|0:1,0:0:0:0:
348,172,17669,1,2,0:0:0:0:
348,172,17842,1,2,0:0:0:0:
276,256,18186,2,0,P|230:208|244:148,1,110.000003356934,2|2,0:1|0:0,0:0:0:0:
264,120,18704,2,0,P|272:96|264:60,1,55.0000016784668,2|2,0:1|0:0,0:0:0:0:
220,36,19048,2,8,L|164:16,2,55.0000016784668
168,148,19738,70,0,P|192:202|248:200,1,110.000003356934,2|2,0:0|0:1,0:0:0:0:
248,92,20428,1,2,0:0:0:0:
248,92,20600,1,2,0:0:0:0:
264,0,20945,2,0,P|317:-4|352:44,1,110.000003356934,2|2,0:1|0:0,0:0:0:0:
360,92,21462,2,0,P|370:116|396:132,1,55.0000016784668,2|2,0:1|0:0,0:0:0:0:
448,136,21807,2,8,L|508:116,2,55.0000016784668
452,248,22497,38,0,P|427:294|368:304,1,110.000003356934,2|2,0:0|0:1,0:0:0:0:
368,192,23186,1,2,0:0:0:0:
368,192,23359,1,2,0:0:0:0:
364,84,23704,2,0,P|311:74|264:112,1,110.000003356934,2|2,0:1|0:0,0:0:0:0:
264,168,24221,2,0,P|254:192|228:208,1,55.0000016784668,2|2,0:1|0:0,0:0:0:0:
176,224,24566,2,8,L|108:188|108:188,2,55.0000016784668
204,332,25255,70,0,P|241:369|300:356,1,110.000003356934,2|2,0:0|0:1,0:0:0:0:
292,252,25945,1,2,0:0:0:0:
292,252,26117,1,2,0:0:0:0:
284,144,26462,2,0,P|337:144|376:192,1,110.000003356934,2|2,0:1|0:0,0:0:0:0:
368,244,26979,2,0,P|378:268|404:284,1,55.0000016784668,2|2,0:1|0:0,0:0:0:0:
456,280,27324,2,8,L|520:256,2,55.0000016784668
400,148,28014,54,0,P|336:149|292:100,1,119.999996337891,2|2,0:0|0:0,0:0:0:0:
228,60,28704,2,8,L|240:-8,2,59.9999981689454
152,88,29221,2,2,B|112:104|112:104|80:104|80:104|64:136|64:136|0:160,1,179.999994506836
68,290,30083,1,2,0:0:0:0:
68,290,30256,1,2,0:0:0:0:
146,244,30428,1,6,0:0:0:0:
140,336,30773,86,0,P|195:351|246:324,1,119.999996337891,2|2,0:0|0:0,0:0:0:0:
332,316,31462,2,8,L|374:358,2,59.9999981689454
360,236,31979,2,2,B|400:220|400:220|432:220|432:220|448:188|448:188|512:164,1,179.999994506836
419,63,32842,1,2,0:0:0:0:
419,63,33015,1,2,0:0:0:0:
336,28,33187,1,6,0:0:0:0:
344,112,33532,22,0,P|288:127|237:100,1,119.999996337891,2|2,0:0|0:0,0:0:0:0:
156,64,34221,2,8,L|133:8,2,59.9999981689454
116,144,34737,2,2,B|85:174|85:174|55:186|55:186|53:222|53:222|4:269,1,179.999994506836
129,331,35600,1,2,0:0:0:0:
129,331,35773,1,2,0:0:0:0:
203,283,35945,1,6,0:0:0:0:
220,364,36290,86,0,P|277:369|322:333,1,119.999996337891,2|2,0:0|0:0,0:0:0:0:
444,336,36979,2,8,L|492:370,2,59.9999981689454
396,300,37497,2,2,P|382:248|448:229,1,119.999996337891
492,240,38014,1,2,0:0:0:0:
512,128,38359,1,6,0:0:0:0:
436,36,38704,2,2,P|394:88|440:78,1,119.999996337891,6|2,0:0|0:0,0:0:0:0:
480,152,39393,101,2,0:0:0:0:
400,216,39738,1,2,0:0:0:0:
320,276,40083,1,2,0:0:0:0:
291,235,40255,70,2,L|252:179,1,50,2|0,0:0|0:0,0:0:0:0:
177,248,40773,1,2,0:0:0:0:
232,331,41117,1,2,0:0:0:0:
320,280,41462,1,2,0:0:0:0:
407,231,41807,38,2,L|444:278,1,50,2|0,0:0|0:0,0:0:0:0:
467,311,42152,1,2,0:0:0:0:
383,360,42497,1,2,0:0:0:0:
320,280,42842,1,2,0:0:0:0:
280,310,43014,70,2,L|228:348,1,50,2|0,0:0|0:0,0:0:0:0:
383,360,43531,1,2,0:0:0:0:
437,270,43876,1,2,0:0:0:0:
382,186,44221,1,2,0:0:0:0:
309,254,44566,38,2,L|261:206,1,50,2|0,0:0|0:0,0:0:0:0:
237,183,44910,1,2,0:0:0:0:
159,245,45255,1,2,0:0:0:0:
79,184,45600,1,2,0:0:0:0:
118,152,45773,70,2,L|176:105,1,50,2|0,0:0|0:0,0:0:0:0:
223,195,46290,1,2,0:0:0:0:
290,269,46635,1,2,0:0:0:0:
369,209,46979,1,2,0:0:0:0:
302,134,47324,38,2,L|262:86,1,50,2|0,0:0|0:0,0:0:0:0:
219,92,47669,1,2,0:0:0:0:
133,144,48014,1,2,0:0:0:0:
132,244,48359,1,2,0:0:0:0:
84,244,48531,54,2,L|36:196,1,50,0|2,0:0|0:0,0:0:0:0:
6,118,49048,2,2,B|18:74|18:74|70:30,1,100
152,8,49738,1,6,0:0:0:0:
264,8,50083,37,2,0:0:0:0:
316,16,50255,2,0,L|352:64,1,55.0000016784668,2|0,0:0|0:0,0:0:0:0:
296,144,50773,2,0,B|244:140|244:140|196:96,1,110.000003356934,2|0,0:0|0:0,0:0:0:0:
200,56,51290,2,0,L|205:-6,1,55.0000016784668,2|0,0:0|0:0,0:0:0:0:
320,4,51807,2,0,B|372:8|372:8|420:52,1,110.000003356934,2|0,0:0|0:0,0:0:0:0:
416,96,52324,2,0,L|410:158,1,55.0000016784668,2|0,0:0|0:0,0:0:0:0:
300,148,52842,37,2,0:0:0:0:
248,156,53014,2,0,L|212:204,1,55.0000016784668,2|0,0:0|0:0,0:0:0:0:
272,272,53531,2,0,B|324:268|324:268|372:224,1,110.000003356934,2|0,0:0|0:0,0:0:0:0:
368,184,54048,2,0,L|363:129,1,55.0000016784668,2|0,0:0|0:0,0:0:0:0:
264,128,54566,2,0,B|212:132|212:132|164:176,1,110.000003356934,2|2,0:0|0:0,0:0:0:0:
116,256,55083,1,2,0:0:0:0:
116,256,55255,1,2,0:0:0:0:
176,348,55600,69,2,0:0:0:0:
228,340,55772,2,0,L|264:292,1,55.0000016784668,2|0,0:0|0:0,0:0:0:0:
216,208,56290,2,0,B|164:212|164:212|116:256,1,110.000003356934,2|0,0:0|0:0,0:0:0:0:
120,296,56807,2,0,L|125:358,1,55.0000016784668,2|0,0:0|0:0,0:0:0:0:
240,348,57324,2,0,B|292:344|292:344|340:300,1,110.000003356934,2|0,0:0|0:0,0:0:0:0:
336,256,57841,2,0,L|330:194,1,55.0000016784668,2|0,0:0|0:0,0:0:0:0:
220,204,58359,37,2,0:0:0:0:
168,196,58531,2,0,L|132:148,1,55.0000016784668,2|0,0:0|0:0,0:0:0:0:
192,68,59048,2,0,B|244:72|244:72|292:116,1,110.000003356934,2|0,0:0|0:0,0:0:0:0:
284,156,59565,2,0,L|279:211,1,55.0000016784668,2|2,0:0|0:0,0:0:0:0:
236,224,59910,1,2,0:0:0:0:
188,224,60083,2,0,B|136:220|136:220|88:176,1,110.000003356934,2|2,0:0|0:0,0:0:0:0:
64,132,60600,1,2,0:0:0:0:
64,132,60772,1,6,0:0:0:0:
140,56,61117,102,0,L|288:64,1,119.999996337891,2|2,0:0|0:0,0:0:0:0:
368,80,61807,2,8,L|432:16,2,59.9999981689454
280,140,62497,2,0,L|132:148,1,119.999996337891,2|2,0:0|0:0,0:0:0:0:
216,232,63186,2,0,P|242:255|280:244,1,59.9999981689454,2|0,0:0|0:0,0:0:0:0:
265,253,63704,38,0,P|312:252|344:304,1,59.9999981689454,2|2,0:0|0:0,0:0:0:0:
404,328,64221,101,2,0:0:0:0:
452,232,64566,2,8,L|528:248,2,59.9999981689454
344,220,65255,2,0,L|224:226,1,119.999996337891,2|2,0:0|0:0,0:0:0:0:
196,172,65773,38,2,P|205:125|263:106,2,59.9999981689454,2|2|0,0:0|0:0|0:0,0:0:0:0:
196,172,66463,38,0,P|166:175|143:194,1,59.9999981689454,2|2,0:0|0:0,0:0:0:0:
104,300,66979,1,2,0:0:0:0:
44,212,67324,2,10,L|1:169,2,59.9999981689454
152,208,68014,2,0,L|300:200,1,119.999996337891,2|2,0:0|0:0,0:0:0:0:
376,224,68703,2,0,P|402:246|396:285,1,59.9999981689454,2|0,0:0|0:0,0:0:0:0:
403,270,69221,38,0,P|450:271|482:219,1,59.9999981689454,2|2,0:0|0:0,0:0:0:0:
512,168,69738,1,2,0:0:0:0:
404,184,70083,2,2,P|379:200|373:229,2,59.9999981689454,2|2|0,0:0|0:0|0:0,0:0:0:0:
452,156,70600,2,0,P|471:100|446:47,1,119.999996337891,2|2,0:0|0:0,0:0:0:0:
392,32,71117,2,8,L|344:-28,2,59.9999981689454
368,80,71635,2,8,L|308:128,2,59.9999981689454,8|8|12,0:0|0:0|0:0,0:0:0:0:
472,68,83186,54,2,P|430:41|378:43,1,100
300,80,83876,1,2,0:0:0:0:
220,40,84221,2,2,L|152:33,1,50
88,76,84738,2,2,L|20:82,1,50
0,164,85255,1,2,0:0:0:0:
56,236,85600,2,2,B|100:258|100:258|144:234,1,100
108,152,86290,70,2,P|153:132|201:141,1,100
280,184,86979,2,2,L|348:177,1,50
408,132,87496,2,2,L|476:138,1,50
476,224,88014,2,2,B|432:248|432:248|384:224,1,100
312,176,88704,38,2,P|262:175|221:202,1,100
168,272,89394,1,2,0:0:0:0:
84,216,89739,2,2,L|16:223,1,50
40,320,90256,2,2,L|89:325,1,50
180,368,90773,1,2,0:0:0:0:
260,320,91118,2,2,B|304:298|304:298|348:322,1,100
412,384,91807,54,2,P|461:384|502:357,1,100
428,292,92496,2,2,L|379:297,1,50
296,257,93013,2,2,L|246:252,1,50
176,180,93531,2,2,B|131:202|131:202|87:178,1,100
121,78,94221,38,2,B|163:47|163:47|228:50,1,110.000003356934
321,58,94910,2,2,L|377:62,1,55.0000016784668,2|0,0:0|0:0,0:0:0:0:
421,142,95428,2,2,L|277:134,1,110.000003356934,2|0,0:0|0:0,0:0:0:0:
265,154,95945,2,2,B|233:198|233:198|233:262,1,110.000003356934,2|0,0:0|0:0,0:0:0:0:
302,295,96462,1,2,0:0:0:0:
385,274,96807,2,2,L|380:211,1,55.0000016784668,2|0,0:0|0:0,0:0:0:0:
333,194,97152,38,2,L|277:190,1,55.0000016784668,2|0,0:0|0:0,0:0:0:0:
189,234,97669,2,2,L|133:238,1,55.0000016784668,2|0,0:0|0:0,0:0:0:0:
101,142,98186,2,2,B|213:135,1,110.000003356934,2|0,0:0|0:0,0:0:0:0:
257,154,98704,2,2,B|289:198|289:198|289:262,1,110.000003356934,2|0,0:0|0:0,0:0:0:0:
217,300,99221,1,2,0:0:0:0:
129,278,99566,2,2,L|134:215,1,55.0000016784668,2|0,0:0|0:0,0:0:0:0:
173,186,99910,70,2,L|229:182,1,55.0000016784668,2|0,0:0|0:0,0:0:0:0:
309,242,100427,2,2,L|365:250,1,55.0000016784668,2|0,0:0|0:0,0:0:0:0:
429,170,100945,2,2,B|319:163,1,110.000003356934,2|0,0:0|0:0,0:0:0:0:
277,134,101462,2,2,B|245:90|245:90|245:26,1,110.000003356934,2|0,0:0|0:0,0:0:0:0:
343,5,101979,1,2,0:0:0:0:
446,42,102324,2,2,L|441:97,1,55.0000016784668,2|0,0:0|0:0,0:0:0:0:
393,114,102669,38,2,L|337:122,1,55.0000016784668,2|0,0:0|0:0,0:0:0:0:
253,70,103186,2,2,L|197:66,1,55.0000016784668,2|0,0:0|0:0,0:0:0:0:
157,158,103704,2,2,B|266:164,1,110.000003356934,2|0,0:0|0:0,0:0:0:0:
317,150,104221,2,2,B|349:106|349:106|349:42,1,110.000003356934,2|0,0:0|0:0,0:0:0:0:
270,11,104738,1,2,0:0:0:0:
197,50,105083,2,2,L|203:104,1,55.0000016784668,2|0,0:0|0:0,0:0:0:0:
256,132,105428,102,2,L|320:140,1,59.9999981689454,2|0,0:0|0:0,0:0:0:0:
396,88,105945,2,2,L|456:84,1,59.9999981689454,2|0,0:0|0:0,0:0:0:0:
512,192,106462,2,2,B|392:200,1,119.999996337891,2|0,0:0|0:0,0:0:0:0:
332,208,106980,2,2,B|300:252|300:252|300:320,1,119.999996337891
332,364,107497,1,2,0:0:0:0:
384,384,107669,2,2,P|415:390|443:377,1,59.9999981689454
460,260,108186,22,2,L|464:200,1,59.9999981689454,2|0,0:0|0:0,0:0:0:0:
416,120,108703,2,2,L|408:56,1,59.9999981689454,2|0,0:0|0:0,0:0:0:0:
504,24,109221,2,2,B|512:144,1,119.999996337891,2|0,0:0|0:0,0:0:0:0:
496,184,109738,2,2,B|452:216|452:216|384:216,1,119.999996337891
352,176,110255,1,2,0:0:0:0:
384,132,110427,2,2,P|390:100|377:73,1,59.9999981689454
340,40,110772,38,2,B|286:18|286:18|228:45,1,119.999996337891,6|2,0:0|0:0,0:0:0:0:
184,76,111290,2,2,B|130:97|130:97|72:70,1,119.999996337891,6|2,0:0|0:0,0:0:0:0:
76,16,111807,2,2,B|129:-5|129:-5|187:21,1,119.999996337891,6|2,0:0|0:0,0:0:0:0:
232,52,112324,2,2,B|288:78|288:78|342:56,1,119.999996337891,6|2,0:0|0:0,0:0:0:0:
400,52,112841,2,10,P|423:19|405:-12,2,59.9999981689454
304,128,113531,38,6,P|348:178|347:131,1,119.999996337891,6|2,0:0|0:0,0:0:0:0:
436,76,114221,22,6,P|487:66|485:118,1,119.999996337891,6|2,0:0|0:0,0:0:0:0:
420,224,114738,86,6,P|450:285|509:290,1,119.999996337891,6|2,0:0|0:0,0:0:0:0:
484,352,115255,22,2,P|456:363|427:356,1,59.9999981689454,6|2,0:0|0:0,0:0:0:0:
378,317,115600,86,6,P|375:258|420:223,1,119.999996337891,6|2,0:0|0:0,0:0:0:0:
464,208,116117,2,6,L|532:208,1,59.9999981689454,6|2,0:0|0:0,0:0:0:0:
332,182,117497,70,14,L|212:170,2,119.999996337891
