osu file format v14

[General]
AudioFilename: audio.mp3
AudioLeadIn: 0
PreviewTime: 16980
Countdown: 1
SampleSet: None
StackLeniency: 0.2
Mode: 0
LetterboxInBreaks: 0
WidescreenStoryboard: 1

[Editor]
Bookmarks: 5947,16981,22497,27843,39222,49912,60946,72152,83186,83188,94050,105428,117497
DistanceSpacing: 1
BeatDivisor: 4
GridSize: 8
TimelineZoom: 1.199999

[Metadata]
Title:Love All!
TitleUnicode:ラブオール!
Artist:MONACA
ArtistUnicode:MONACA
Creator:AutumnsFall
Version:Hard
Source:灼熱の卓球娘
Tags:Anime OST Original Soundtrack Instrumental Scorching Ping Pong Girls Love All! Beatmap|D:0 Shakunetsu no Takkyuu Musume
BeatmapID:1863130
BeatmapSetID:759702

[Difficulty]
HPDrainRate:5
CircleSize:4
OverallDifficulty:6
ApproachRate:8
SliderMultiplier:1.5
SliderTickRate:1

[Events]
//Background and Video events
0,0,"__kamiya_agari_and_tsumujikaze_koyori_shakunetsu_no_takkyuu_musume__sample-659a246486b5f913faf340c9d08cc123 2.jpg",0,0
//Break Periods
//Storyboard Layer 0 (Background)
//Storyboard Layer 1 (Fail)
//Storyboard Layer 2 (Pass)
//Storyboard Layer 3 (Foreground)
//Storyboard Sound Samples

[TimingPoints]
429,344.827142857141,4,2,0,37,1,0
5946,-133.333333333333,4,2,0,37,0,0
16980,-100,4,2,0,37,0,0

[Colours]
Combo1 : 185,217,249
Combo2 : 252,218,219
Combo3 : 47,113,193
Combo4 : 255,128,128
Combo5 : 244,188,245
Combo6 : 255,66,66
Combo7 : 215,87,211
Combo8 : 189,33,222

[HitObjects]
144,32,5946,5,0,0:0:0:0:
256,56,6291,1,0,0:0:0:0:
152,104,6635,1,0,0:0:0:0:
208,120,6808,1,0,0:0:0:0:
264,136,6980,1,0,0:0:0:0:
200,232,7325,101,0,0:0:0:0:
312,232,7670,1,0,0:0:0:0:
256,328,8015,2,0,L|256:384,2,56.2500021457673
368,32,8704,53,0,0:0:0:0:
256,56,9049,1,0,0:0:0:0:
360,104,9393,1,0,0:0:0:0:
304,120,9566,1,0,0:0:0:0:
248,136,9738,1,0,0:0:0:0:
144,168,10084,69,0,0:0:0:0:
40,200,10428,1,0,0:0:0:0:
96,224,10601,1,0,0:0:0:0:
40,200,10946,1,0,0:0:0:0:
96,224,11119,1,0,0:0:0:0:
200,152,11463,101,0,0:0:0:0:
312,152,11808,1,0,0:0:0:0:
256,56,12153,2,0,L|256:0,2,56.2500021457673
200,232,12842,5,0,0:0:0:0:
312,232,13187,1,0,0:0:0:0:
200,232,13531,1,0,0:0:0:0:
256,232,13704,1,0,0:0:0:0:
312,232,13876,1,0,0:0:0:0:
368,168,14222,37,0,0:0:0:0:
472,200,14566,1,0,0:0:0:0:
416,224,14739,1,0,0:0:0:0:
472,200,15084,1,0,0:0:0:0:
416,224,15257,1,0,0:0:0:0:
256,192,15601,12,0,16635,0:0:0:0:
0,62,16980,102,0,P|71:21|152:62,1,150
120,190,17670,2,0,P|84:169|75:130,1,75
148,124,18015,1,0,0:0:0:0:
220,105,18187,2,0,P|206:70|174:53,1,75
148,124,18532,1,0,0:0:0:0:
164,196,18704,2,0,P|198:181|215:148,1,75
230,75,19049,2,0,P|247:42|280:27,3,75
432,25,19739,38,0,P|473:96|432:177,1,150
304,145,20428,2,0,P|325:109|364:100,1,75
375,170,20773,1,0,0:0:0:0:
394,243,20946,2,0,P|428:229|445:197,1,75
375,170,21290,1,0,0:0:0:0:
302,189,21463,2,0,P|315:223|347:240,1,75
389,302,21808,2,0,P|372:334|337:347,3,75
232,219,22497,70,0,P|161:178|80:219,1,150
105,347,23187,2,0,P|141:326|150:287,1,75
77,278,23532,1,0,0:0:0:0:
6,253,23704,2,0,P|23:220|57:208,1,75
77,278,24049,1,0,0:0:0:0:
148,254,24222,2,0,P|127:218|88:209,1,75
157,316,24566,2,0,P|178:352|217:361,3,75
446,378,25256,38,0,P|375:396|314:356,1,150
350,210,25946,2,0,P|384:224|401:256,1,75
331,284,26291,1,0,0:0:0:0:
259,306,26463,2,0,P|275:338|310:350,1,75
331,284,26808,1,0,0:0:0:0:
301,214,26981,2,0,P|269:230|256:265,1,75
182,293,27325,2,0,P|146:272|137:233,3,75
