osu file format v14

[General]
AudioFilename: audio2.mp3
AudioLeadIn: 2
PreviewTime: 56838
Countdown: 0
SampleSet: Soft
StackLeniency: 0.7
Mode: 3
LetterboxInBreaks: 0
SpecialStyle: 0
WidescreenStoryboard: 1

[Editor]
DistanceSpacing: 0.8
BeatDivisor: 8
GridSize: 8
TimelineZoom: 1

[Metadata]
Title:AIKATSU MODE (moto kano edit)
TitleUnicode:AIKATSU MODE (moto kano edit)
Artist:MONACA
ArtistUnicode:MONACA
Creator:LeiN-
Version:Hard
Source:アイカツ!
Tags:Stepmania EtternaOnline Community Pack 1 Lastopia jersey club future bass electronic instrumental MJHs bonus track
BeatmapID:2540963
BeatmapSetID:891958

[Difficulty]
HPDrainRate:7.5
CircleSize:4
OverallDifficulty:7.5
ApproachRate:10
SliderMultiplier:1.4
SliderTickRate:1

[Events]
//Background and Video events
0,0,"bg.png",0,0
//Break Periods
//Storyboard Layer 0 (Background)
//Storyboard Layer 1 (Fail)
//Storyboard Layer 2 (Pass)
//Storyboard Layer 3 (Foreground)
//Storyboard Layer 4 (Overlay)
//Storyboard Sound Samples

[TimingPoints]
338,428.571429,4,2,1,40,1,0
56909,-100,4,2,1,40,0,1
82623,-100,4,2,1,40,0,0

[HitObjects]
448,192,1463,128,0,1730:0:0:0:0:
64,192,1730,1,0,0:0:0:0:
320,192,1838,1,0,0:0:0:0:
64,192,1945,1,0,0:0:0:0:
448,192,2052,128,8,2909:0:0:0:0:
192,192,2052,1,4,0:0:0:0:
320,192,2909,128,0,3552:0:0:0:0:
192,192,3552,128,0,4623:0:0:0:0:
320,192,5480,128,0,6338:0:0:0:0:
448,192,6338,128,0,6980:0:0:0:0:
192,192,6980,128,0,8052:0:0:0:0:
448,192,8909,128,8,9766:0:0:0:0:
64,192,8909,1,4,0:0:0:0:
64,192,9338,1,8,0:0:0:0:
320,192,9766,128,8,10409:0:0:0:0:
64,192,9766,1,0,0:0:0:0:
64,192,10195,1,8,0:0:0:0:
192,192,10409,128,0,11480:0:0:0:0:
64,192,10623,1,8,0:0:0:0:
64,192,11052,1,8,0:0:0:0:
64,192,11480,1,8,0:0:0:0:
64,192,11909,1,8,0:0:0:0:
320,192,12338,128,8,13195:0:0:0:0:
64,192,12338,1,0,0:0:0:0:
64,192,12766,1,8,0:0:0:0:
448,192,13195,128,8,13838:0:0:0:0:
64,192,13195,1,0,0:0:0:0:
64,192,13623,1,8,0:0:0:0:
64,192,13838,128,8,15338:0:0:0:0:
320,192,14052,1,0,0:0:0:0:
448,192,14480,128,0,15123:0:0:0:0:
192,192,15766,1,10,0:0:0:0:
64,192,15766,1,4,0:0:0:0:
448,192,15980,1,0,0:0:0:0:
192,192,16195,1,2,0:0:0:0:
448,192,16409,1,0,0:0:0:0:
320,192,16623,1,2,0:0:0:0:
192,192,16945,1,0,0:0:0:0:
64,192,17266,1,0,0:0:0:0:
320,192,17695,1,0,0:0:0:0:
192,192,17909,1,2,0:0:0:0:
448,192,18016,1,0,0:0:0:0:
320,192,18338,1,2,0:0:0:0:
192,192,18552,1,2,0:0:0:0:
448,192,18659,1,0,0:0:0:0:
64,192,19195,1,2,0:0:0:0:
64,192,19623,1,2,0:0:0:0:
192,192,20052,1,2,0:0:0:0:
192,192,20373,1,0,0:0:0:0:
448,192,20695,1,0,0:0:0:0:
320,192,21123,1,0,0:0:0:0:
192,192,21338,1,2,0:0:0:0:
448,192,21445,1,0,0:0:0:0:
64,192,21766,1,2,0:0:0:0:
448,192,21980,1,2,0:0:0:0:
192,192,22088,1,0,0:0:0:0:
64,192,22623,1,2,0:0:0:0:
448,192,22838,1,0,0:0:0:0:
192,192,23052,1,2,0:0:0:0:
448,192,23266,1,0,0:0:0:0:
320,192,23480,1,2,0:0:0:0:
192,192,23802,1,0,0:0:0:0:
64,192,24123,1,0,0:0:0:0:
320,192,24552,1,0,0:0:0:0:
192,192,24766,1,2,0:0:0:0:
448,192,24873,1,0,0:0:0:0:
320,192,25195,1,2,0:0:0:0:
192,192,25409,1,2,0:0:0:0:
448,192,25516,1,0,0:0:0:0:
64,192,26052,1,2,0:0:0:0:
64,192,26480,1,2,0:0:0:0:
320,192,26909,1,2,0:0:0:0:
320,192,27230,1,0,0:0:0:0:
192,192,27552,128,10,28623:0:0:0:0:
64,192,27552,128,4,28623:0:0:0:0:
448,192,28623,1,8,0:0:0:0:
448,192,29052,128,8,29159:0:0:0:0:
448,192,29266,128,8,29373:0:0:0:0:
320,192,29480,1,8,0:0:0:0:
64,192,29480,1,4,0:0:0:0:
320,192,29802,1,8,0:0:0:0:
64,192,29802,1,0,0:0:0:0:
64,192,30123,1,8,0:0:0:0:
192,192,30123,1,0,0:0:0:0:
448,192,30338,1,2,0:0:0:0:
320,192,30552,1,2,0:0:0:0:
320,192,30980,1,2,0:0:0:0:
192,192,31195,1,8,0:0:0:0:
448,192,31195,1,0,0:0:0:0:
192,192,31516,1,8,0:0:0:0:
448,192,31516,1,0,0:0:0:0:
192,192,31838,1,8,0:0:0:0:
448,192,31838,1,0,0:0:0:0:
64,192,32052,1,2,0:0:0:0:
320,192,32266,1,2,0:0:0:0:
448,192,32480,1,2,0:0:0:0:
64,192,32480,1,0,0:0:0:0:
64,192,32909,1,8,0:0:0:0:
192,192,32909,1,0,0:0:0:0:
192,192,33230,1,8,0:0:0:0:
64,192,33230,1,0,0:0:0:0:
64,192,33552,1,8,0:0:0:0:
448,192,33552,1,0,0:0:0:0:
192,192,33766,1,8,0:0:0:0:
192,192,34088,1,8,0:0:0:0:
448,192,34195,1,8,0:0:0:0:
64,192,34409,1,8,0:0:0:0:
192,192,34623,1,8,0:0:0:0:
320,192,34623,1,0,0:0:0:0:
192,192,34945,1,8,0:0:0:0:
320,192,34945,1,0,0:0:0:0:
192,192,35266,1,8,0:0:0:0:
448,192,35266,1,0,0:0:0:0:
64,192,35480,1,2,0:0:0:0:
320,192,35695,1,2,0:0:0:0:
192,192,36123,1,0,0:0:0:0:
320,192,36338,1,8,0:0:0:0:
448,192,36338,1,4,0:0:0:0:
320,192,36659,1,8,0:0:0:0:
448,192,36659,1,0,0:0:0:0:
448,192,36980,1,8,0:0:0:0:
192,192,36980,1,0,0:0:0:0:
320,192,37195,1,0,0:0:0:0:
320,192,37409,1,0,0:0:0:0:
64,192,37623,1,0,0:0:0:0:
64,192,38052,1,8,0:0:0:0:
192,192,38052,1,0,0:0:0:0:
64,192,38373,1,8,0:0:0:0:
192,192,38373,1,0,0:0:0:0:
64,192,38695,1,8,0:0:0:0:
192,192,38695,1,0,0:0:0:0:
448,192,38909,1,2,0:0:0:0:
192,192,39123,1,2,0:0:0:0:
320,192,39230,1,0,0:0:0:0:
192,192,39338,1,0,0:0:0:0:
320,192,39766,1,8,0:0:0:0:
192,192,39766,1,0,0:0:0:0:
192,192,40088,1,8,0:0:0:0:
320,192,40088,1,0,0:0:0:0:
320,192,40409,1,8,0:0:0:0:
64,192,40409,1,0,0:0:0:0:
448,192,40623,1,2,0:0:0:0:
192,192,40838,1,2,0:0:0:0:
448,192,41052,1,2,0:0:0:0:
192,192,41266,1,2,0:0:0:0:
64,192,41480,1,8,0:0:0:0:
320,192,41695,1,8,0:0:0:0:
192,192,41909,1,0,0:0:0:0:
448,192,42123,1,8,0:0:0:0:
192,192,42338,128,2,42766:0:0:0:0:
448,192,42766,1,0,0:0:0:0:
64,192,42766,1,0,0:0:0:0:
192,192,43195,1,8,0:0:0:0:
320,192,43195,1,0,0:0:0:0:
192,192,43623,1,8,0:0:0:0:
320,192,43623,1,2,0:0:0:0:
320,192,44052,1,8,0:0:0:0:
64,192,44052,1,0,0:0:0:0:
320,192,44373,1,8,0:0:0:0:
64,192,44373,1,0,0:0:0:0:
192,192,44695,1,8,0:0:0:0:
64,192,44695,1,0,0:0:0:0:
64,192,44909,1,8,0:0:0:0:
192,192,44909,1,0,0:0:0:0:
64,192,45338,1,8,0:0:0:0:
192,192,45338,1,2,0:0:0:0:
320,192,45766,1,8,0:0:0:0:
64,192,45766,1,0,0:0:0:0:
320,192,46088,1,8,0:0:0:0:
64,192,46088,1,0,0:0:0:0:
320,192,46409,1,8,0:0:0:0:
64,192,46409,1,0,0:0:0:0:
320,192,46623,1,8,0:0:0:0:
448,192,46623,1,0,0:0:0:0:
320,192,47052,1,8,0:0:0:0:
448,192,47052,1,2,0:0:0:0:
320,192,47480,1,8,0:0:0:0:
192,192,47480,1,0,0:0:0:0:
192,192,47802,1,8,0:0:0:0:
320,192,47802,1,0,0:0:0:0:
448,192,48123,1,8,0:0:0:0:
320,192,48123,1,0,0:0:0:0:
192,192,48338,1,8,0:0:0:0:
64,192,48338,1,0,0:0:0:0:
448,192,48552,1,0,0:0:0:0:
64,192,48766,1,8,0:0:0:0:
320,192,48980,1,0,0:0:0:0:
448,192,49195,1,8,0:0:0:0:
320,192,49409,1,0,0:0:0:0:
192,192,49623,1,8,0:0:0:0:
64,192,49838,1,0,0:0:0:0:
192,192,50052,1,8,0:0:0:0:
448,192,50052,1,4,0:0:0:0:
192,192,50480,1,8,0:0:0:0:
448,192,50480,1,2,0:0:0:0:
448,192,50909,1,8,0:0:0:0:
64,192,50909,1,0,0:0:0:0:
64,192,51230,1,0,0:0:0:0:
448,192,51230,1,0,0:0:0:0:
320,192,51552,1,0,0:0:0:0:
64,192,51552,1,0,0:0:0:0:
192,192,51766,1,8,0:0:0:0:
320,192,51766,1,0,0:0:0:0:
192,192,52195,1,8,0:0:0:0:
320,192,52195,1,2,0:0:0:0:
448,192,52623,1,8,0:0:0:0:
192,192,52623,1,0,0:0:0:0:
448,192,52945,1,0,0:0:0:0:
192,192,52945,1,0,0:0:0:0:
448,192,53266,1,0,0:0:0:0:
192,192,53266,1,0,0:0:0:0:
64,192,53480,1,8,0:0:0:0:
448,192,53695,1,8,0:0:0:0:
64,192,53909,1,8,0:0:0:0:
448,192,54123,1,8,0:0:0:0:
192,192,54338,128,8,54980:0:0:0:0:
320,192,54338,128,0,54980:0:0:0:0:
448,192,55195,1,8,0:0:0:0:
448,192,56052,1,0,0:0:0:0:
64,192,56052,1,0,0:0:0:0:
320,192,56909,1,12,0:0:0:0:
448,192,56909,1,8,0:0:0:0:
64,192,57123,1,0,0:0:0:0:
448,192,57338,1,8,0:0:0:0:
320,192,57338,1,2,0:0:0:0:
64,192,57552,1,0,0:0:0:0:
448,192,57766,1,8,0:0:0:0:
192,192,57766,1,0,0:0:0:0:
448,192,58088,1,8,0:0:0:0:
192,192,58088,1,0,0:0:0:0:
320,192,58409,1,8,0:0:0:0:
192,192,58409,1,0,0:0:0:0:
192,192,58623,1,8,0:0:0:0:
320,192,58623,1,0,0:0:0:0:
448,192,58838,1,0,0:0:0:0:
320,192,59052,1,8,0:0:0:0:
64,192,59052,1,2,0:0:0:0:
64,192,59480,1,8,0:0:0:0:
192,192,59480,1,0,0:0:0:0:
192,192,59802,1,8,0:0:0:0:
64,192,59802,1,0,0:0:0:0:
64,192,60123,1,8,0:0:0:0:
192,192,60123,1,0,0:0:0:0:
448,192,60338,1,8,0:0:0:0:
192,192,60338,1,0,0:0:0:0:
320,192,60552,1,0,0:0:0:0:
448,192,60766,1,8,0:0:0:0:
192,192,60766,1,2,0:0:0:0:
320,192,60980,1,0,0:0:0:0:
192,192,61195,1,8,0:0:0:0:
64,192,61195,1,0,0:0:0:0:
64,192,61516,1,8,0:0:0:0:
192,192,61516,1,0,0:0:0:0:
448,192,61838,1,8,0:0:0:0:
192,192,61838,1,0,0:0:0:0:
64,192,62052,1,8,0:0:0:0:
320,192,62266,1,0,0:0:0:0:
192,192,62480,1,8,0:0:0:0:
448,192,62695,1,0,0:0:0:0:
192,192,62909,128,0,63016:0:0:0:0:
320,192,63123,128,0,63230:0:0:0:0:
192,192,63338,128,2,63445:0:0:0:0:
320,192,63552,128,0,63659:0:0:0:0:
320,192,63766,1,8,0:0:0:0:
448,192,63766,1,0,0:0:0:0:
64,192,63980,1,0,0:0:0:0:
448,192,64195,1,8,0:0:0:0:
320,192,64195,1,2,0:0:0:0:
64,192,64409,1,0,0:0:0:0:
448,192,64623,1,8,0:0:0:0:
192,192,64623,1,0,0:0:0:0:
448,192,64945,1,8,0:0:0:0:
192,192,64945,1,0,0:0:0:0:
320,192,65266,1,8,0:0:0:0:
192,192,65266,1,0,0:0:0:0:
192,192,65480,1,8,0:0:0:0:
320,192,65480,1,0,0:0:0:0:
448,192,65695,1,0,0:0:0:0:
320,192,65909,1,8,0:0:0:0:
64,192,65909,1,2,0:0:0:0:
64,192,66338,1,8,0:0:0:0:
192,192,66338,1,0,0:0:0:0:
192,192,66659,1,8,0:0:0:0:
64,192,66659,1,0,0:0:0:0:
64,192,66980,1,8,0:0:0:0:
192,192,66980,1,0,0:0:0:0:
192,192,67195,1,8,0:0:0:0:
448,192,67195,1,0,0:0:0:0:
320,192,67409,1,0,0:0:0:0:
192,192,67623,1,8,0:0:0:0:
448,192,67623,1,2,0:0:0:0:
320,192,67838,1,0,0:0:0:0:
192,192,68052,1,8,0:0:0:0:
64,192,68052,1,0,0:0:0:0:
192,192,68373,1,8,0:0:0:0:
64,192,68373,1,0,0:0:0:0:
192,192,68695,1,8,0:0:0:0:
320,192,68695,1,4,0:0:0:0:
448,192,68802,1,0,0:0:0:0:
192,192,68909,1,0,0:0:0:0:
448,192,69338,1,2,0:0:0:0:
192,192,69766,128,0,69873:0:0:0:0:
192,192,69980,128,0,70088:0:0:0:0:
320,192,70195,128,2,70302:0:0:0:0:
320,192,70409,128,0,70516:0:0:0:0:
320,192,70623,1,12,0:0:0:0:
448,192,70623,1,8,0:0:0:0:
64,192,70838,1,0,0:0:0:0:
320,192,71052,1,8,0:0:0:0:
448,192,71052,1,2,0:0:0:0:
64,192,71266,1,0,0:0:0:0:
192,192,71480,1,8,0:0:0:0:
448,192,71480,1,0,0:0:0:0:
448,192,71802,1,8,0:0:0:0:
192,192,71802,1,0,0:0:0:0:
320,192,72123,1,8,0:0:0:0:
192,192,72123,1,0,0:0:0:0:
192,192,72338,1,8,0:0:0:0:
320,192,72338,1,0,0:0:0:0:
448,192,72552,1,0,0:0:0:0:
64,192,72766,1,8,0:0:0:0:
192,192,72766,1,2,0:0:0:0:
320,192,72980,1,0,0:0:0:0:
192,192,73195,1,8,0:0:0:0:
448,192,73302,1,0,0:0:0:0:
320,192,73409,1,0,0:0:0:0:
192,192,73838,1,8,0:0:0:0:
448,192,74052,1,8,0:0:0:0:
192,192,74052,1,0,0:0:0:0:
320,192,74266,1,0,0:0:0:0:
448,192,74480,1,8,0:0:0:0:
192,192,74480,1,2,0:0:0:0:
320,192,74695,1,0,0:0:0:0:
64,192,74909,1,8,0:0:0:0:
192,192,74909,1,0,0:0:0:0:
192,192,75230,1,8,0:0:0:0:
64,192,75230,1,0,0:0:0:0:
448,192,75552,1,8,0:0:0:0:
192,192,75552,1,0,0:0:0:0:
192,192,75766,1,8,0:0:0:0:
320,192,75766,1,0,0:0:0:0:
448,192,75980,1,0,0:0:0:0:
64,192,76195,1,8,0:0:0:0:
192,192,76195,1,2,0:0:0:0:
320,192,76409,1,0,0:0:0:0:
192,192,76623,1,8,0:0:0:0:
448,192,76730,1,0,0:0:0:0:
320,192,76838,1,0,0:0:0:0:
320,192,77052,1,2,0:0:0:0:
192,192,77266,1,8,0:0:0:0:
320,192,77480,1,8,0:0:0:0:
448,192,77480,1,0,0:0:0:0:
64,192,77695,1,0,0:0:0:0:
320,192,77909,1,8,0:0:0:0:
448,192,77909,1,2,0:0:0:0:
64,192,78123,1,0,0:0:0:0:
192,192,78338,1,8,0:0:0:0:
448,192,78338,1,0,0:0:0:0:
448,192,78659,1,8,0:0:0:0:
192,192,78659,1,0,0:0:0:0:
320,192,78980,1,8,0:0:0:0:
192,192,78980,1,0,0:0:0:0:
192,192,79195,1,8,0:0:0:0:
320,192,79195,1,0,0:0:0:0:
448,192,79409,1,0,0:0:0:0:
192,192,79623,1,8,0:0:0:0:
64,192,79623,1,2,0:0:0:0:
320,192,79838,1,0,0:0:0:0:
192,192,80052,1,8,0:0:0:0:
448,192,80159,1,0,0:0:0:0:
320,192,80266,1,0,0:0:0:0:
192,192,80695,1,8,0:0:0:0:
64,192,80909,1,8,0:0:0:0:
320,192,81016,1,0,0:0:0:0:
192,192,81123,1,0,0:0:0:0:
448,192,81230,1,0,0:0:0:0:
64,192,81338,1,8,0:0:0:0:
320,192,81445,1,0,0:0:0:0:
192,192,81552,1,0,0:0:0:0:
448,192,81659,1,0,0:0:0:0:
64,192,81766,1,8,0:0:0:0:
320,192,81873,1,0,0:0:0:0:
192,192,81980,1,0,0:0:0:0:
448,192,82088,1,8,0:0:0:0:
64,192,82195,1,2,0:0:0:0:
320,192,82409,1,8,0:0:0:0:
448,192,82409,1,2,0:0:0:0:
192,192,82623,128,0,83480:0:0:0:0:
320,192,83480,128,0,83909:0:0:0:0:
64,192,83909,128,2,84338:0:0:0:0:
448,192,84338,1,8,0:0:0:0:
192,192,84338,1,4,0:0:0:0:
320,192,84793,1,0,0:0:0:0:
320,192,85650,1,0,0:0:0:0:
320,192,86507,1,0,0:0:0:0:
320,192,87364,1,0,0:0:0:0:
320,192,88221,1,0,0:0:0:0:
320,192,89079,1,0,0:0:0:0:
320,192,89936,1,0,0:0:0:0:
320,192,90793,1,0,0:0:0:0:
192,192,91195,1,8,0:0:0:0:
192,192,91623,1,8,0:0:0:0:
192,192,92052,1,8,0:0:0:0:
192,192,92480,1,8,0:0:0:0:
192,192,92909,1,8,0:0:0:0:
320,192,93123,1,0,0:0:0:0:
192,192,93338,1,8,0:0:0:0:
320,192,93552,1,0,0:0:0:0:
192,192,93766,1,8,0:0:0:0:
320,192,93980,1,0,0:0:0:0:
192,192,94195,1,8,0:0:0:0:
320,192,94409,1,0,0:0:0:0:
64,192,94623,1,8,0:0:0:0:
320,192,94838,1,8,0:0:0:0:
64,192,95052,1,8,0:0:0:0:
320,192,95266,1,8,0:0:0:0:
192,192,95480,1,8,0:0:0:0:
448,192,95695,1,8,0:0:0:0:
192,192,95909,1,8,0:0:0:0:
448,192,96123,1,8,0:0:0:0:
64,192,96338,1,10,0:0:0:0:
320,192,96445,1,0,0:0:0:0:
192,192,96552,1,8,0:0:0:0:
448,192,96659,1,0,0:0:0:0:
64,192,96766,1,8,0:0:0:0:
320,192,96873,1,0,0:0:0:0:
192,192,96980,1,8,0:0:0:0:
448,192,97088,1,0,0:0:0:0:
64,192,97195,1,8,0:0:0:0:
320,192,97302,1,0,0:0:0:0:
64,192,97409,1,8,0:0:0:0:
320,192,97516,1,0,0:0:0:0:
64,192,97623,1,8,0:0:0:0:
320,192,97730,1,0,0:0:0:0:
64,192,97838,1,8,0:0:0:0:
448,192,97945,128,0,99338:0:0:0:0:
192,192,99230,1,0,0:0:0:0:
192,192,99338,1,0,0:0:0:0:
64,192,99552,1,8,0:0:0:0:
448,192,99766,1,14,0:0:0:0:
320,192,99766,1,8,0:0:0:0:
448,192,100195,1,10,0:0:0:0:
320,192,100195,1,8,0:0:0:0:
448,192,100623,1,10,0:0:0:0:
320,192,100623,1,8,0:0:0:0:
448,192,100945,1,8,0:0:0:0:
320,192,100945,1,0,0:0:0:0:
448,192,101266,1,8,0:0:0:0:
320,192,101266,1,0,0:0:0:0:
448,192,101480,1,10,0:0:0:0:
320,192,101480,1,8,0:0:0:0:
448,192,101909,1,10,0:0:0:0:
320,192,101909,1,8,0:0:0:0:
448,192,102338,1,10,0:0:0:0:
320,192,102338,1,8,0:0:0:0:
320,192,102659,1,8,0:0:0:0:
320,192,102980,1,8,0:0:0:0:
320,192,103088,1,0,0:0:0:0:
448,192,103195,1,10,0:0:0:0:
192,192,103195,1,8,0:0:0:0:
448,192,103623,1,10,0:0:0:0:
192,192,103623,1,8,0:0:0:0:
448,192,104052,1,10,0:0:0:0:
192,192,104052,1,8,0:0:0:0:
448,192,104373,1,8,0:0:0:0:
192,192,104373,1,0,0:0:0:0:
448,192,104695,1,8,0:0:0:0:
192,192,104695,1,0,0:0:0:0:
192,192,104909,1,8,0:0:0:0:
448,192,105123,1,0,0:0:0:0:
64,192,105338,1,8,0:0:0:0:
320,192,105552,1,0,0:0:0:0:
448,192,105766,1,8,0:0:0:0:
320,192,105980,1,2,0:0:0:0:
192,192,106195,1,8,0:0:0:0:
64,192,106409,1,2,0:0:0:0:
448,192,106623,1,10,0:0:0:0:
320,192,106623,1,8,0:0:0:0:
448,192,107052,1,10,0:0:0:0:
320,192,107052,1,8,0:0:0:0:
448,192,107480,1,10,0:0:0:0:
320,192,107480,1,8,0:0:0:0:
448,192,107802,1,8,0:0:0:0:
320,192,107802,1,0,0:0:0:0:
448,192,108123,1,8,0:0:0:0:
320,192,108123,1,0,0:0:0:0:
448,192,108338,1,10,0:0:0:0:
320,192,108338,1,8,0:0:0:0:
448,192,108766,1,10,0:0:0:0:
320,192,108766,1,8,0:0:0:0:
448,192,109195,1,10,0:0:0:0:
320,192,109195,1,8,0:0:0:0:
320,192,109516,1,8,0:0:0:0:
320,192,109838,1,8,0:0:0:0:
320,192,109945,1,0,0:0:0:0:
448,192,110052,1,10,0:0:0:0:
192,192,110052,1,8,0:0:0:0:
64,192,110195,1,0,0:0:0:0:
192,192,110338,1,0,0:0:0:0:
320,192,110480,1,10,0:0:0:0:
64,192,110623,1,0,0:0:0:0:
320,192,110766,1,0,0:0:0:0:
448,192,110909,1,10,0:0:0:0:
192,192,111052,1,0,0:0:0:0:
320,192,111195,1,0,0:0:0:0:
448,192,111338,1,2,0:0:0:0:
64,192,111480,1,0,0:0:0:0:
192,192,111623,1,0,0:0:0:0:
320,192,111766,128,8,111873:0:0:0:0:
64,192,111980,128,0,112088:0:0:0:0:
192,192,112195,128,8,112302:0:0:0:0:
448,192,112409,128,0,112516:0:0:0:0:
192,192,112623,128,8,113052:0:0:0:0:
320,192,113052,128,8,113480:0:0:0:0:
192,192,113480,1,12,0:0:0:0:
64,192,113480,1,2,0:0:0:0:
320,192,113695,1,0,0:0:0:0:
192,192,113909,1,10,0:0:0:0:
64,192,113909,1,8,0:0:0:0:
320,192,114123,1,8,0:0:0:0:
192,192,114338,1,8,0:0:0:0:
64,192,114338,1,0,0:0:0:0:
192,192,114659,1,8,0:0:0:0:
64,192,114659,1,0,0:0:0:0:
192,192,114980,1,10,0:0:0:0:
64,192,114980,1,8,0:0:0:0:
448,192,115195,1,10,0:0:0:0:
192,192,115195,1,8,0:0:0:0:
64,192,115409,1,0,0:0:0:0:
448,192,115623,1,10,0:0:0:0:
192,192,115623,1,8,0:0:0:0:
320,192,115838,1,8,0:0:0:0:
448,192,116052,1,8,0:0:0:0:
64,192,116159,1,2,0:0:0:0:
192,192,116266,1,10,0:0:0:0:
448,192,116695,1,2,0:0:0:0:
448,192,116802,1,0,0:0:0:0:
192,192,116909,1,10,0:0:0:0:
64,192,116909,1,8,0:0:0:0:
320,192,117123,1,0,0:0:0:0:
192,192,117338,1,10,0:0:0:0:
64,192,117338,1,8,0:0:0:0:
320,192,117552,1,8,0:0:0:0:
192,192,117766,1,8,0:0:0:0:
64,192,117766,1,0,0:0:0:0:
192,192,118088,1,8,0:0:0:0:
64,192,118088,1,0,0:0:0:0:
192,192,118409,1,10,0:0:0:0:
64,192,118409,1,8,0:0:0:0:
448,192,118623,1,10,0:0:0:0:
192,192,118623,1,8,0:0:0:0:
64,192,118838,1,0,0:0:0:0:
192,192,119052,1,10,0:0:0:0:
320,192,119052,1,8,0:0:0:0:
64,192,119266,1,0,0:0:0:0:
448,192,119480,1,8,0:0:0:0:
320,192,119480,1,0,0:0:0:0:
64,192,119695,1,2,0:0:0:0:
448,192,119909,1,10,0:0:0:0:
192,192,119909,1,8,0:0:0:0:
320,192,120123,1,2,0:0:0:0:
64,192,120338,1,10,0:0:0:0:
192,192,120338,1,8,0:0:0:0:
320,192,120552,1,0,0:0:0:0:
192,192,120766,1,10,0:0:0:0:
64,192,120766,1,8,0:0:0:0:
320,192,120980,1,8,0:0:0:0:
192,192,121195,1,8,0:0:0:0:
64,192,121195,1,0,0:0:0:0:
192,192,121516,1,8,0:0:0:0:
64,192,121516,1,0,0:0:0:0:
192,192,121838,1,10,0:0:0:0:
64,192,121838,1,8,0:0:0:0:
448,192,122052,1,10,0:0:0:0:
192,192,122052,1,8,0:0:0:0:
64,192,122266,1,0,0:0:0:0:
448,192,122480,1,10,0:0:0:0:
192,192,122480,1,8,0:0:0:0:
320,192,122695,1,8,0:0:0:0:
448,192,122909,1,8,0:0:0:0:
64,192,123016,1,2,0:0:0:0:
192,192,123123,1,10,0:0:0:0:
448,192,123552,1,2,0:0:0:0:
448,192,123659,1,0,0:0:0:0:
64,192,123766,1,10,0:0:0:0:
192,192,123766,1,8,0:0:0:0:
320,192,123980,1,0,0:0:0:0:
448,192,124088,1,2,0:0:0:0:
64,192,124195,1,10,0:0:0:0:
192,192,124195,1,8,0:0:0:0:
320,192,124409,1,8,0:0:0:0:
64,192,124623,1,8,0:0:0:0:
192,192,124623,1,0,0:0:0:0:
448,192,124730,1,2,0:0:0:0:
64,192,124945,1,8,0:0:0:0:
192,192,124945,1,0,0:0:0:0:
448,192,125052,1,2,0:0:0:0:
64,192,125266,1,10,0:0:0:0:
448,192,125266,1,8,0:0:0:0:
320,192,125480,128,2,125588:0:0:0:0:
64,192,125695,128,0,125802:0:0:0:0:
192,192,125909,128,0,126016:0:0:0:0:
448,192,126123,128,0,126230:0:0:0:0:
192,192,126338,128,0,126552:0:0:0:0:
320,192,126766,1,0,0:0:0:0:
64,192,127195,1,8,0:0:0:0:
448,192,127302,1,8,0:0:0:0:
64,192,127409,1,8,0:0:0:0:
64,192,127623,1,8,0:0:0:0:
64,192,127838,1,8,0:0:0:0:
320,192,127838,1,0,0:0:0:0:
448,192,127945,1,8,0:0:0:0:
64,192,128052,1,8,0:0:0:0:
64,192,128373,1,8,0:0:0:0:
64,192,128695,1,8,0:0:0:0:
64,192,128909,1,8,0:0:0:0:
448,192,129016,1,8,0:0:0:0:
64,192,129123,1,8,0:0:0:0:
64,192,129338,1,8,0:0:0:0:
64,192,129552,1,8,0:0:0:0:
320,192,129552,1,0,0:0:0:0:
64,192,129766,1,8,0:0:0:0:
64,192,130088,1,8,0:0:0:0:
64,192,130409,1,8,0:0:0:0:
64,192,130623,1,8,0:0:0:0:
448,192,130730,1,8,0:0:0:0:
64,192,130838,1,8,0:0:0:0:
64,192,131052,1,8,0:0:0:0:
64,192,131266,1,8,0:0:0:0:
320,192,131266,1,0,0:0:0:0:
64,192,131480,1,8,0:0:0:0:
64,192,131802,1,8,0:0:0:0:
64,192,132123,1,8,0:0:0:0:
448,192,132338,1,0,0:0:0:0:
320,192,132552,128,0,132659:0:0:0:0:
448,192,132766,1,0,0:0:0:0:
320,192,132980,128,0,133088:0:0:0:0:
448,192,133195,1,8,0:0:0:0:
64,192,133409,1,0,0:0:0:0:
320,192,133623,1,8,0:0:0:0:
64,192,133838,1,0,0:0:0:0:
448,192,134052,1,8,0:0:0:0:
64,192,134159,1,8,0:0:0:0:
448,192,134266,1,8,0:0:0:0:
448,192,134480,1,8,0:0:0:0:
448,192,134695,1,8,0:0:0:0:
192,192,134695,1,0,0:0:0:0:
64,192,134802,1,8,0:0:0:0:
448,192,134909,1,8,0:0:0:0:
448,192,135230,1,8,0:0:0:0:
448,192,135552,1,8,0:0:0:0:
448,192,135766,1,8,0:0:0:0:
64,192,135873,1,8,0:0:0:0:
448,192,135980,1,8,0:0:0:0:
448,192,136195,1,8,0:0:0:0:
448,192,136409,1,8,0:0:0:0:
192,192,136409,1,0,0:0:0:0:
448,192,136623,1,8,0:0:0:0:
448,192,136945,1,8,0:0:0:0:
448,192,137266,1,8,0:0:0:0:
448,192,137480,1,8,0:0:0:0:
64,192,137588,1,8,0:0:0:0:
448,192,137695,1,8,0:0:0:0:
448,192,137909,1,8,0:0:0:0:
448,192,138123,1,8,0:0:0:0:
192,192,138123,1,0,0:0:0:0:
448,192,138338,1,8,0:0:0:0:
448,192,138659,1,8,0:0:0:0:
448,192,138980,1,8,0:0:0:0:
448,192,139195,1,8,0:0:0:0:
320,192,139409,128,0,139516:0:0:0:0:
320,192,139838,128,0,139945:0:0:0:0:
64,192,140052,1,8,0:0:0:0:
448,192,140266,1,0,0:0:0:0:
192,192,140480,1,8,0:0:0:0:
448,192,140695,1,0,0:0:0:0:
192,192,140909,1,8,0:0:0:0:
448,192,141016,1,8,0:0:0:0:
192,192,141123,1,8,0:0:0:0:
192,192,141338,1,8,0:0:0:0:
192,192,141552,1,8,0:0:0:0:
320,192,141552,1,0,0:0:0:0:
448,192,141659,1,8,0:0:0:0:
192,192,141766,1,8,0:0:0:0:
192,192,142088,1,8,0:0:0:0:
192,192,142409,1,8,0:0:0:0:
192,192,142623,1,8,0:0:0:0:
448,192,142730,1,8,0:0:0:0:
192,192,142838,1,8,0:0:0:0:
192,192,143052,1,8,0:0:0:0:
192,192,143266,1,8,0:0:0:0:
320,192,143266,1,0,0:0:0:0:
192,192,143480,1,8,0:0:0:0:
192,192,143802,1,8,0:0:0:0:
192,192,144123,1,8,0:0:0:0:
192,192,144338,1,8,0:0:0:0:
448,192,144445,1,8,0:0:0:0:
192,192,144552,1,8,0:0:0:0:
192,192,144766,1,8,0:0:0:0:
192,192,144980,1,8,0:0:0:0:
320,192,144980,1,0,0:0:0:0:
192,192,145195,1,8,0:0:0:0:
192,192,145516,1,8,0:0:0:0:
192,192,145838,1,8,0:0:0:0:
320,192,146052,1,8,0:0:0:0:
192,192,146052,1,0,0:0:0:0:
64,192,146266,1,0,0:0:0:0:
192,192,146373,1,0,0:0:0:0:
64,192,146480,1,0,0:0:0:0:
192,192,146695,1,0,0:0:0:0:
64,192,146802,1,0,0:0:0:0:
192,192,146909,1,8,0:0:0:0:
448,192,147123,1,0,0:0:0:0:
64,192,147338,1,8,0:0:0:0:
320,192,147552,1,0,0:0:0:0:
320,192,147766,1,8,0:0:0:0:
64,192,147873,1,8,0:0:0:0:
320,192,147980,1,8,0:0:0:0:
320,192,148195,1,8,0:0:0:0:
320,192,148409,1,8,0:0:0:0:
192,192,148409,1,0,0:0:0:0:
64,192,148516,1,8,0:0:0:0:
320,192,148623,1,8,0:0:0:0:
320,192,148945,1,8,0:0:0:0:
320,192,149266,1,8,0:0:0:0:
320,192,149480,1,8,0:0:0:0:
64,192,149588,1,8,0:0:0:0:
320,192,149695,1,8,0:0:0:0:
320,192,149909,1,8,0:0:0:0:
320,192,150123,1,8,0:0:0:0:
192,192,150123,1,0,0:0:0:0:
320,192,150338,1,8,0:0:0:0:
320,192,150659,1,8,0:0:0:0:
320,192,150980,1,8,0:0:0:0:
320,192,151195,1,8,0:0:0:0:
64,192,151302,1,8,0:0:0:0:
320,192,151409,1,8,0:0:0:0:
320,192,151623,1,8,0:0:0:0:
320,192,151838,1,8,0:0:0:0:
192,192,151838,1,0,0:0:0:0:
320,192,152052,1,8,0:0:0:0:
320,192,152373,1,8,0:0:0:0:
320,192,152695,1,8,0:0:0:0:
192,192,152909,1,8,0:0:0:0:
448,192,153123,128,0,153230:0:0:0:0:
192,192,153338,1,0,0:0:0:0:
448,192,153552,128,0,153659:0:0:0:0:
64,192,153766,1,8,0:0:0:0:
192,192,154195,128,2,154623:0:0:0:0:
320,192,154623,1,8,0:0:0:0:
64,192,154623,1,4,0:0:0:0:
448,192,154838,1,0,0:0:0:0:
320,192,155052,1,8,0:0:0:0:
64,192,155052,1,0,0:0:0:0:
448,192,155266,1,0,0:0:0:0:
64,192,155480,1,8,0:0:0:0:
320,192,155480,1,0,0:0:0:0:
320,192,155802,1,8,0:0:0:0:
64,192,155802,1,0,0:0:0:0:
320,192,156123,1,8,0:0:0:0:
64,192,156123,1,0,0:0:0:0:
448,192,156338,1,8,0:0:0:0:
320,192,156338,1,0,0:0:0:0:
64,192,156552,1,0,0:0:0:0:
192,192,156766,1,8,0:0:0:0:
320,192,156766,1,0,0:0:0:0:
448,192,156980,1,0,0:0:0:0:
64,192,157195,1,8,0:0:0:0:
320,192,157302,1,0,0:0:0:0:
192,192,157409,1,0,0:0:0:0:
320,192,157838,1,8,0:0:0:0:
320,192,157945,1,8,0:0:0:0:
448,192,158052,1,8,0:0:0:0:
192,192,158052,1,0,0:0:0:0:
64,192,158266,1,0,0:0:0:0:
448,192,158480,1,8,0:0:0:0:
192,192,158480,1,0,0:0:0:0:
64,192,158695,1,0,0:0:0:0:
448,192,158909,1,8,0:0:0:0:
192,192,158909,1,0,0:0:0:0:
192,192,159230,1,8,0:0:0:0:
448,192,159230,1,0,0:0:0:0:
448,192,159552,1,8,0:0:0:0:
192,192,159552,1,0,0:0:0:0:
192,192,159766,1,8,0:0:0:0:
64,192,159766,1,0,0:0:0:0:
448,192,159980,1,0,0:0:0:0:
192,192,160195,1,8,0:0:0:0:
320,192,160195,1,0,0:0:0:0:
64,192,160409,1,0,0:0:0:0:
448,192,160623,1,8,0:0:0:0:
192,192,160730,1,0,0:0:0:0:
320,192,160838,1,0,0:0:0:0:
320,192,161266,1,8,0:0:0:0:
320,192,161373,1,0,0:0:0:0:
64,192,161480,1,8,0:0:0:0:
448,192,161480,1,0,0:0:0:0:
192,192,161695,1,0,0:0:0:0:
448,192,161909,1,8,0:0:0:0:
64,192,161909,1,0,0:0:0:0:
192,192,162123,1,0,0:0:0:0:
448,192,162338,1,8,0:0:0:0:
64,192,162338,1,0,0:0:0:0:
448,192,162659,1,8,0:0:0:0:
64,192,162659,1,0,0:0:0:0:
448,192,162980,1,8,0:0:0:0:
64,192,162980,1,0,0:0:0:0:
320,192,163195,1,8,0:0:0:0:
448,192,163195,1,0,0:0:0:0:
64,192,163409,1,0,0:0:0:0:
320,192,163623,1,8,0:0:0:0:
192,192,163623,1,0,0:0:0:0:
448,192,163838,1,0,0:0:0:0:
64,192,164052,1,8,0:0:0:0:
320,192,164159,1,0,0:0:0:0:
192,192,164266,1,0,0:0:0:0:
320,192,164695,1,8,0:0:0:0:
320,192,164802,1,8,0:0:0:0:
64,192,164909,1,8,0:0:0:0:
320,192,165016,1,0,0:0:0:0:
192,192,165123,1,0,0:0:0:0:
448,192,165230,1,0,0:0:0:0:
64,192,165338,1,8,0:0:0:0:
320,192,165445,1,0,0:0:0:0:
192,192,165552,1,0,0:0:0:0:
448,192,165659,1,0,0:0:0:0:
64,192,165766,1,8,0:0:0:0:
320,192,165873,1,0,0:0:0:0:
192,192,165980,1,0,0:0:0:0:
448,192,166088,1,8,0:0:0:0:
64,192,166195,1,0,0:0:0:0:
320,192,166302,1,0,0:0:0:0:
192,192,166409,1,8,0:0:0:0:
448,192,166516,1,0,0:0:0:0:
64,192,166623,1,0,0:0:0:0:
192,192,166730,1,0,0:0:0:0:
448,192,166838,1,0,0:0:0:0:
320,192,166945,1,0,0:0:0:0:
64,192,167052,1,0,0:0:0:0:
192,192,167159,1,0,0:0:0:0:
448,192,167266,1,0,0:0:0:0:
320,192,167373,1,0,0:0:0:0:
64,192,167480,1,0,0:0:0:0:
320,192,167588,1,0,0:0:0:0:
192,192,167695,1,0,0:0:0:0:
320,192,168338,1,8,0:0:0:0:
64,192,168338,1,4,0:0:0:0:
320,192,168766,1,8,0:0:0:0:
64,192,168766,1,0,0:0:0:0:
320,192,169195,1,8,0:0:0:0:
64,192,169195,1,0,0:0:0:0:
320,192,169516,1,8,0:0:0:0:
64,192,169516,1,0,0:0:0:0:
320,192,169838,1,8,0:0:0:0:
64,192,169838,1,0,0:0:0:0:
448,192,170052,1,8,0:0:0:0:
192,192,170052,1,0,0:0:0:0:
448,192,170480,1,8,0:0:0:0:
192,192,170480,1,0,0:0:0:0:
448,192,170909,1,8,0:0:0:0:
192,192,170909,1,0,0:0:0:0:
448,192,171230,1,8,0:0:0:0:
192,192,171230,1,0,0:0:0:0:
320,192,171552,1,8,0:0:0:0:
448,192,171552,1,0,0:0:0:0:
192,192,171659,1,8,0:0:0:0:
64,192,171659,1,0,0:0:0:0:
448,192,171766,1,8,0:0:0:0:
320,192,171766,1,0,0:0:0:0:
448,192,172195,1,8,0:0:0:0:
320,192,172195,1,0,0:0:0:0:
448,192,172623,1,8,0:0:0:0:
320,192,172623,1,0,0:0:0:0:
448,192,172945,1,8,0:0:0:0:
320,192,172945,1,0,0:0:0:0:
448,192,173266,1,8,0:0:0:0:
320,192,173266,1,0,0:0:0:0:
192,192,173480,1,8,0:0:0:0:
64,192,173480,1,0,0:0:0:0:
192,192,173909,1,8,0:0:0:0:
64,192,173909,1,0,0:0:0:0:
192,192,174338,1,8,0:0:0:0:
64,192,174338,1,0,0:0:0:0:
192,192,174659,1,8,0:0:0:0:
64,192,174659,1,0,0:0:0:0:
192,192,174980,1,8,0:0:0:0:
64,192,174980,1,0,0:0:0:0:
448,192,175195,1,8,0:0:0:0:
192,192,175195,1,0,0:0:0:0:
448,192,175623,1,8,0:0:0:0:
192,192,175623,1,0,0:0:0:0:
192,192,176052,1,8,0:0:0:0:
448,192,176052,1,0,0:0:0:0:
448,192,176373,1,8,0:0:0:0:
192,192,176373,1,0,0:0:0:0:
448,192,176695,1,8,0:0:0:0:
192,192,176695,1,0,0:0:0:0:
320,192,176909,1,8,0:0:0:0:
64,192,176909,1,0,0:0:0:0:
320,192,177338,1,8,0:0:0:0:
64,192,177338,1,0,0:0:0:0:
320,192,177766,1,8,0:0:0:0:
64,192,177766,1,0,0:0:0:0:
320,192,178088,1,8,0:0:0:0:
64,192,178088,1,0,0:0:0:0:
64,192,178409,1,8,0:0:0:0:
192,192,178409,1,0,0:0:0:0:
448,192,178516,1,8,0:0:0:0:
320,192,178516,1,0,0:0:0:0:
192,192,178623,1,8,0:0:0:0:
64,192,178623,1,0,0:0:0:0:
192,192,179052,1,8,0:0:0:0:
64,192,179052,1,0,0:0:0:0:
192,192,179480,1,8,0:0:0:0:
64,192,179480,1,0,0:0:0:0:
192,192,179802,1,8,0:0:0:0:
64,192,179802,1,0,0:0:0:0:
64,192,180123,1,8,0:0:0:0:
192,192,180123,1,0,0:0:0:0:
64,192,180338,128,0,181195:0:0:0:0:
192,192,180338,128,0,181195:0:0:0:0:
448,192,181195,128,0,181409:0:0:0:0:
320,192,181195,128,0,181409:0:0:0:0:
192,192,181623,128,0,181838:0:0:0:0:
64,192,181623,128,0,181838:0:0:0:0:
