osu file format v14

[General]
AudioFilename: audio.mp3
AudioLeadIn: 0
PreviewTime: 67794
Countdown: 1
SampleSet: Normal
StackLeniency: 0.7
Mode: 0
LetterboxInBreaks: 0
WidescreenStoryboard: 0

[Editor]
DistanceSpacing: 1
BeatDivisor: 8
GridSize: 4
TimelineZoom: 1.6

[Metadata]
Title:Bboom Bboom
TitleUnicode:Bboom Bboom
Artist:MOMOLAND
ArtistUnicode:MOMOLAND
Creator:kayiedee
Version:Heartbeat
Source:
Tags:Great!
BeatmapID:1528307
BeatmapSetID:723884

[Difficulty]
HPDrainRate:7
CircleSize:4.2
OverallDifficulty:7
ApproachRate:9.2
SliderMultiplier:2.5
SliderTickRate:1

[Events]
//Background and Video events
0,0,"Joo E.PNG",0,0
//Break Periods
//Storyboard Layer 0 (Background)
//Storyboard Layer 1 (Fail)
//Storyboard Layer 2 (Pass)
//Storyboard Layer 3 (Foreground)
//Storyboard Sound Samples

[TimingPoints]
175,476.190476190476,4,1,0,40,1,0
3032,-133.333333333333,4,1,0,40,0,0
7794,-100,4,1,0,40,0,0
14460,-66.6666666666667,4,1,0,40,0,0
15413,-100,4,1,0,40,0,0
22079,-66.6666666666667,4,1,0,40,0,0
23032,-125,4,1,0,40,0,0
33984,-80,4,1,0,40,0,0
34460,-125,4,1,0,40,0,0
38270,-100,4,1,0,40,0,0
53032,-80,4,1,0,40,0,0
53508,-133.333333333333,4,1,0,40,0,0
67794,-66.6666666666667,4,1,0,40,0,0
68746,-83.3333333333333,4,1,0,40,0,1
83984,-100,4,1,0,40,0,0

[HitObjects]
48,352,175,5,0,0:0:0:0:
20,192,413,1,0,0:0:0:0:
11,222,651,1,0,0:0:0:0:
2,252,889,1,0,0:0:0:0:
124,328,1127,5,0,0:0:0:0:
96,168,1365,1,0,0:0:0:0:
124,328,1603,1,0,0:0:0:0:
96,168,1841,1,0,0:0:0:0:
280,261,2079,5,0,0:0:0:0:
250,252,2317,1,0,0:0:0:0:
220,243,2555,1,0,0:0:0:0:
190,234,2794,1,0,0:0:0:0:
432,184,3032,6,0,L|464:176,1,23.4375008940697
190,234,3508,1,0,0:0:0:0:
432,184,3746,1,0,0:0:0:0:
339,49,3984,5,0,0:0:0:0:
311,209,4222,1,0,0:0:0:0:
302,179,4460,1,0,0:0:0:0:
293,149,4698,1,0,0:0:0:0:
387,233,4936,5,0,0:0:0:0:
415,73,5175,1,0,0:0:0:0:
387,233,5412,1,0,0:0:0:0:
415,73,5651,1,0,0:0:0:0:
280,261,5889,5,0,0:0:0:0:
233,167,6127,1,0,0:0:0:0:
263,158,6365,1,0,0:0:0:0:
293,149,6603,1,0,0:0:0:0:
323,140,6841,6,0,P|331:115|335:91,1,41.2500015735627
184,52,7079,2,0,L|211:49,1,20.6250007867813
187,93,7198,2,0,L|214:90,1,20.6250007867813
191,134,7317,2,0,L|135:129,1,46.8750017881394
4,204,7555,2,0,L|59:199,1,46.8750017881394
280,261,7794,6,0,P|220:253|160:277,1,125
356,320,8151,1,0,0:0:0:0:
356,320,8270,2,0,P|368:288|376:248,1,62.5
308,136,8508,2,0,P|315:166|326:195,1,62.5
246,57,8746,2,0,L|182:51,1,62.5
396,124,8984,2,0,L|459:118,1,62.5
224,76,9222,2,0,L|160:70,1,62.5
374,143,9460,2,0,L|437:137,1,62.5
255,227,9698,6,0,P|315:235|395:275,1,125
156,160,10055,1,0,0:0:0:0:
156,160,10175,2,0,P|192:148|216:144,1,62.5
50,199,10413,2,0,P|57:161|66:139,1,62.5
128,20,10651,2,0,L|121:99,1,62.5
255,227,10889,2,0,L|249:164,1,62.5
295,60,11127,2,0,L|215:53,1,62.5
88,187,11365,2,0,L|150:181,1,62.5
312,92,11603,6,0,P|256:68|188:92,1,125
328,196,11960,1,0,0:0:0:0:
255,227,12079,2,0,P|248:184|248:144,1,62.5
373,260,12317,2,0,P|370:291|365:321,1,62.5
404,164,12555,2,0,L|467:158,1,62.5
254,231,12793,2,0,L|190:225,1,62.5
426,183,13031,2,0,L|489:177,1,62.5
276,250,13269,2,0,L|212:244,1,62.5
66,138,13508,6,0,P|132:136|184:180,1,125
160,344,13865,1,0,0:0:0:0:
104,280,13984,2,0,L|98:212,1,62.5
260,52,14222,2,0,L|254:114,1,62.5
276,248,14460,6,0,P|234:294|260:227,1,187.500007152558
404,164,14817,1,0,0:0:0:0:
404,164,14936,6,0,P|445:210|419:143,1,187.500007152558
166,45,15294,1,0,0:0:0:0:
166,45,15413,6,0,L|178:188,1,125
72,84,15770,1,0,0:0:0:0:
72,84,15889,2,0,P|64:44|64:12,1,62.5
264,0,16127,2,0,P|272:40|272:72,1,62.5
64,168,16365,2,0,L|-15:161,1,62.5
166,45,16603,2,0,L|245:38,1,62.5
89,242,16841,2,0,L|9:235,1,62.5
191,119,17079,2,0,L|270:112,1,62.5
374,249,17317,6,0,B|306:262|314:214|232:224,1,125
304,48,17674,1,0,0:0:0:0:
364,100,17794,2,0,L|357:171,1,62.5
448,44,18032,2,0,L|454:115,1,62.5
408,236,18270,2,0,P|456:188|536:192,1,125
304,316,18627,1,0,0:0:0:0:
304,316,18746,2,0,P|344:328|372:344,1,62.5
196,248,18984,2,0,P|236:236|264:220,1,62.5
347,37,19222,6,0,L|359:176,1,125
259,164,19579,2,0,L|252:235,2,62.5
25,103,19936,1,0,0:0:0:0:
90,63,20055,1,0,0:0:0:0:
164,80,20174,2,0,L|170:151,1,62.5
94,179,20413,2,0,L|87:250,1,62.5
204,344,20651,2,0,L|198:281,1,62.5
276,87,20889,1,0,0:0:0:0:
236,152,21008,1,0,0:0:0:0:
253,226,21127,6,0,L|380:214,1,125
199,84,21484,1,0,0:0:0:0:
199,84,21603,2,0,P|148:72|64:72,1,125
156,216,21960,1,0,0:0:0:0:
156,216,22079,6,0,P|148:160|128:232,1,187.500007152558
240,200,22436,1,0,0:0:0:0:
240,200,22555,6,0,P|236:152|208:108,1,93.7500035762788
4,180,22794,2,0,P|8:228|36:272,1,93.7500035762788
152,324,23032,6,0,B|72:316|88:360|-4:348,1,150
200,256,23508,2,0,P|232:296|228:360,1,100
30,266,23984,2,0,P|26:218|26:206,1,50
76,72,24222,1,0,0:0:0:0:
118,274,24460,2,0,P|114:226|114:214,1,50
164,80,24698,2,0,P|168:128|168:140,1,50
319,192,24936,6,0,P|263:192|199:256,1,150
332,292,25413,2,0,P|296:280|268:276,1,50
456,220,25651,2,0,P|420:232|392:236,1,50
312,100,25889,2,0,P|364:112|404:160,1,100
156,40,26365,2,0,L|259:30,1,100
104,112,26841,6,0,P|68:64|72:8,1,100
232,120,27317,2,0,L|222:227,1,100
307,50,27674,1,0,0:0:0:0:
307,50,27794,2,0,L|312:113,1,50
484,88,28032,2,0,L|478:151,1,50
332,88,28270,2,0,L|337:151,1,50
509,126,28508,2,0,L|503:189,1,50
420,316,28746,6,0,P|388:276|424:180,1,150
328,340,29222,2,0,P|312:312|304:280,1,50
336,156,29460,2,0,P|320:184|312:216,1,50
220,304,29698,2,0,L|188:301,2,25
84,268,29936,2,0,L|32:272,1,50
172,215,30174,2,0,L|223:219,1,50
176,348,30413,2,0,P|168:316|164:284,1,50
112,80,30651,6,0,P|104:129|91:177,1,100
184,36,31127,2,0,P|201:82|214:130,1,100
296,60,31603,2,0,P|344:49|394:44,1,100
480,80,31960,1,0,0:0:0:0:
480,80,32079,2,0,P|497:126|510:174,1,100
304,152,32555,5,0,0:0:0:0:
400,126,32674,1,0,0:0:0:0:
176,216,33032,5,0,0:0:0:0:
80,190,33151,1,0,0:0:0:0:
276,252,33508,6,0,P|340:220|428:212,1,150
400,126,33984,6,0,P|380:78|368:142,1,156.25
417,214,34341,1,0,0:0:0:0:
417,214,34460,6,0,L|297:203,1,100
412,320,34936,2,0,L|531:309,1,100
300,288,35413,2,0,B|220:296|248:336|160:344,1,150
92,220,35889,2,0,P|144:232|176:264,1,100
20,156,36365,6,0,P|84:144|132:128,1,100
200,76,36722,1,0,0:0:0:0:
200,76,36841,2,0,L|202:103,2,25
256,192,37079,2,0,L|258:167,2,25
324,104,37317,2,0,P|364:116|392:120,1,50
207,205,37555,2,0,P|247:193|275:189,1,50
417,214,37794,1,0,0:0:0:0:
128,208,38032,2,0,P|137:167|148:141,1,50
136,72,38270,6,0,P|88:84|28:28,1,125
188,4,38627,1,0,0:0:0:0:
244,67,38746,2,0,L|254:191,1,125
120,360,39103,1,0,0:0:0:0:
120,360,39222,2,0,P|104:324|96:292,1,62.5
139,159,39460,1,0,0:0:0:0:
238,368,39698,2,0,P|222:332|214:300,1,62.5
257,167,39936,2,0,P|248:196|234:225,1,62.5
224,84,40174,6,0,P|288:80|340:136,1,125
344,256,40532,1,0,0:0:0:0:
267,291,40651,2,8,L|254:151,1,125
480,80,41008,1,0,0:0:0:0:
480,80,41127,2,0,L|473:151,1,62.5
460,299,41365,1,0,0:0:0:0:
372,117,41603,2,0,L|365:188,1,62.5
352,336,41841,2,0,L|346:273,1,62.5
256,164,42079,6,0,B|184:164|200:192|124:192,1,125
12,72,42436,1,0,0:0:0:0:
4,160,42555,2,0,P|84:124|100:88,1,125
224,84,42913,1,0,0:0:0:0:
224,84,43032,2,0,P|216:32|216:0,1,62.5
160,220,43270,2,0,P|168:168|168:136,1,62.5
184,316,43508,2,0,L|104:309,1,62.5
0,244,43746,2,0,L|79:237,1,62.5
256,164,43984,5,0,0:0:0:0:
230,260,44103,1,0,0:0:0:0:
414,337,44460,5,0,0:0:0:0:
406,238,44579,1,0,0:0:0:0:
256,164,44936,6,0,L|216:167,2,31.25
324,108,45174,2,0,P|336:136|344:184,1,62.5
452,288,45413,6,0,P|464:208|480:148,1,125
272,40,45770,1,0,0:0:0:0:
324,108,45889,6,0,L|447:97,1,125
256,176,46365,2,0,L|379:186,1,125
178,232,46841,2,0,L|297:264,1,125
120,164,47198,1,0,0:0:0:0:
120,164,47317,2,0,P|88:212|112:296,1,125
208,332,47794,6,0,B|136:332|152:360|76:360,1,125
192,248,48270,2,0,B|264:248|248:276|324:276,1,125
304,128,48627,1,0,0:0:0:0:
304,128,48746,2,0,P|300:160|300:192,1,62.5
396,304,48984,1,0,0:0:0:0:
384,123,49222,2,0,P|380:155|380:187,1,62.5
476,299,49460,2,0,P|475:267|471:236,1,62.5
312,275,49698,6,0,L|168:262,1,125
33,141,50055,1,0,0:0:0:0:
25,229,50174,2,0,P|105:193|121:157,1,125
116,304,50651,2,0,P|180:296|248:292,1,125
379,185,51008,1,0,0:0:0:0:
379,185,51127,2,0,P|383:229|383:253,1,62.5
256,172,51365,2,0,P|256:140|260:109,1,62.5
416,104,51603,6,0,P|348:92|312:32,1,125
180,52,52079,2,0,P|216:36|248:28,1,62.5
240,152,52317,1,0,0:0:0:0:
151,170,52436,1,0,0:0:0:0:
79,115,52555,2,0,P|43:99|11:91,1,62.5
32,244,52794,2,0,P|20:204|16:164,1,62.5
180,52,53032,6,0,P|184:168|184:232,1,156.25
72,324,53389,1,0,0:0:0:0:
72,324,53508,5,0,0:0:0:0:
150,278,53746,1,0,0:0:0:0:
237,253,53984,1,0,0:0:0:0:
327,252,54222,1,0,0:0:0:0:
460,352,54460,5,0,0:0:0:0:
414,274,54698,1,0,0:0:0:0:
389,187,54936,1,0,0:0:0:0:
388,97,55174,1,0,0:0:0:0:
148,32,55413,5,0,0:0:0:0:
235,24,55651,1,0,0:0:0:0:
323,16,55889,1,0,0:0:0:0:
410,9,56127,1,0,0:0:0:0:
264,120,56365,5,0,0:0:0:0:
177,112,56603,1,0,0:0:0:0:
89,104,56841,1,0,0:0:0:0:
116,228,57079,2,0,P|124:196|128:168,1,46.8750017881394
2,97,57318,5,0,0:0:0:0:
9,184,57556,1,0,0:0:0:0:
17,272,57794,1,0,0:0:0:0:
25,359,58032,1,0,0:0:0:0:
271,207,58270,5,0,0:0:0:0:
184,200,58508,1,0,0:0:0:0:
96,192,58746,1,0,0:0:0:0:
9,184,58984,1,0,0:0:0:0:
255,382,59222,5,0,0:0:0:0:
263,295,59460,1,0,0:0:0:0:
271,207,59698,1,0,0:0:0:0:
278,120,59936,1,0,0:0:0:0:
88,310,60174,5,0,0:0:0:0:
175,303,60412,1,0,0:0:0:0:
263,295,60650,1,0,0:0:0:0:
350,287,60889,2,0,P|376:272|396:264,1,46.8750017881394
488,228,61127,5,0,0:0:0:0:
469,241,61246,1,0,0:0:0:0:
446,246,61365,1,0,0:0:0:0:
423,240,61484,1,0,0:0:0:0:
405,226,61603,1,0,0:0:0:0:
395,205,61722,1,0,0:0:0:0:
394,182,61841,1,0,0:0:0:0:
404,160,61960,1,0,0:0:0:0:
421,145,62079,5,0,0:0:0:0:
438,129,62198,1,0,0:0:0:0:
447,108,62317,1,0,0:0:0:0:
447,85,62436,1,0,0:0:0:0:
436,64,62555,1,0,0:0:0:0:
418,49,62674,1,0,0:0:0:0:
396,44,62793,1,0,0:0:0:0:
373,48,62912,1,0,0:0:0:0:
354,62,63031,5,0,0:0:0:0:
325,86,63151,1,0,0:0:0:0:
293,102,63270,1,0,0:0:0:0:
259,109,63389,1,0,0:0:0:0:
224,106,63508,1,0,0:0:0:0:
191,96,63627,1,0,0:0:0:0:
161,77,63746,1,0,0:0:0:0:
137,51,63865,1,0,0:0:0:0:
121,20,63984,5,0,0:0:0:0:
152,36,64103,1,0,0:0:0:0:
178,60,64222,1,0,0:0:0:0:
197,89,64341,1,0,0:0:0:0:
208,123,64460,1,0,0:0:0:0:
210,158,64579,1,0,0:0:0:0:
203,192,64698,1,0,0:0:0:0:
188,223,64817,1,0,0:0:0:0:
164,253,64937,5,0,0:0:0:0:
114,251,65055,1,0,0:0:0:0:
74,228,65174,1,0,0:0:0:0:
54,186,65293,1,0,0:0:0:0:
60,140,65412,1,0,0:0:0:0:
91,106,65531,1,0,0:0:0:0:
136,94,65650,1,0,0:0:0:0:
179,109,65769,1,0,0:0:0:0:
208,146,65888,5,0,0:0:0:0:
245,189,66008,1,0,0:0:0:0:
301,203,66127,1,0,0:0:0:0:
354,179,66246,1,0,0:0:0:0:
382,129,66365,1,0,0:0:0:0:
375,72,66484,1,0,0:0:0:0:
335,31,66603,1,0,0:0:0:0:
278,21,66722,1,0,0:0:0:0:
227,48,66841,1,0,0:0:0:0:
227,48,67794,6,0,L|221:107,2,46.8750017881394
296,112,68032,1,0,0:0:0:0:
245,189,68151,1,0,0:0:0:0:
338,195,68270,2,0,P|383:182|429:174,1,93.7500035762788
227,48,68508,2,0,P|163:32|107:24,1,93.7500035762788
33,239,68746,6,0,B|132:266|148:162|257:191,1,224.999993133545
224,344,69222,2,0,P|216:292|212:252,1,74.9999977111817
80,80,69460,2,0,P|75:117|69:154,1,74.9999977111817
248,324,69698,2,0,P|240:272|236:232,1,74.9999977111817
104,60,69936,2,0,P|99:97|93:134,1,74.9999977111817
272,304,70175,2,0,P|264:252|260:212,1,74.9999977111817
128,40,70413,2,0,P|123:77|117:114,1,74.9999977111817
312,164,70651,6,0,P|216:160|180:208,1,149.999995422363
384,112,71008,1,0,0:0:0:0:
364,236,71127,2,0,P|440:224|516:220,1,149.999995422363
